<?xml version="1.0" standalone="no"?>
<!DOCTYPE svg PUBLIC "-//W3C//DTD SVG 1.1//EN" "http://www.w3.org/Graphics/SVG/1.1/DTD/svg11.dtd" >
<svg xmlns="http://www.w3.org/2000/svg">
<metadata></metadata>
<defs>
<font id="honeywell_sans_webMdIt" horiz-adv-x="625" >
<font-face units-per-em="1000" ascent="774" descent="-226" />
<missing-glyph horiz-adv-x="230" />
<glyph unicode="fi" horiz-adv-x="617" d="M535 581q-26 0 -39 12.5t-13 35.5q0 32 18.5 48.5t47.5 16.5q52 0 52 -49q0 -32 -18.5 -48t-47.5 -16zM72 0l66 420h-88l11 67h88l10 59q14 92 59.5 132t117.5 40q20 0 42 -3t38 -11l-25 -72q-13 5 -25.5 8.5t-30.5 3.5q-35 0 -60 -21.5t-35 -81.5l-8 -54h138l-11 -67 h-138l-66 -420h-83zM477 487h85l-76 -487h-85z" />
<glyph unicode="fl" horiz-adv-x="614" d="M504 0q-47 0 -72 25t-15 85l93 590h84l-92 -585q-5 -26 3.5 -36.5t34.5 -10.5h44l-10 -68h-70zM72 0l66 420h-88l11 67h88l10 59q14 92 59.5 132t117.5 40q20 0 42 -3t38 -11l-25 -72q-13 5 -25.5 8.5t-30.5 3.5q-35 0 -60 -21.5t-35 -81.5l-8 -54h138l-11 -67h-138 l-66 -420h-83z" />
<glyph horiz-adv-x="176" />
<glyph horiz-adv-x="176" />
<glyph unicode="&#xd;" horiz-adv-x="176" />
<glyph unicode=" "  horiz-adv-x="230" />
<glyph unicode="&#x09;" horiz-adv-x="230" />
<glyph unicode="&#xa0;" horiz-adv-x="230" />
<glyph unicode="!" horiz-adv-x="223" d="M228 700l-91 -504h-70l67 504h94zM72 -5q-25 0 -38 13t-13 36q0 32 18.5 48.5t47.5 16.5q24 0 37.5 -13t13.5 -36q0 -32 -18.5 -48.5t-47.5 -16.5z" />
<glyph unicode="&#x22;" horiz-adv-x="278" d="M244 501h-66l31 211h79zM131 501h-66l24 211h78z" />
<glyph unicode="#" horiz-adv-x="729" d="M319 437l-79 -170h193l79 170h-193zM122 437l30 67h110l93 196h88l-93 -196h193l93 196h89l-93 -196h106l-30 -67h-107l-80 -170h116l-30 -67h-117l-93 -200h-88l93 200h-193l-93 -200h-89l93 200h-100l30 67h101l80 170h-109z" />
<glyph unicode="$" horiz-adv-x="608" d="M199 499q0 -35 21 -58.5t69 -37.5l33 206q-123 -11 -123 -110zM344 307l-34 -216q131 14 131 120q0 36 -21.5 58t-75.5 38zM216 -62l13 82q-63 6 -114 34.5t-77 89.5l69 44q24 -46 54.5 -69t78.5 -28l37 234q-82 22 -120 64t-38 102q0 80 54.5 131.5t159.5 58.5l14 85h70 l-14 -86q64 -7 103.5 -33.5t59.5 -75.5l-71 -44q-16 36 -40 56t-63 25l-36 -224q43 -13 74.5 -27t52.5 -32.5t31.5 -43t10.5 -57.5q0 -48 -16.5 -84.5t-46 -62t-71 -40t-92.5 -17.5l-13 -82h-70z" />
<glyph unicode="%" horiz-adv-x="1033" d="M74 0zM830 418q73 0 108 -35.5t35 -113.5q0 -17 -1 -31t-4 -34q-16 -108 -62.5 -161t-135.5 -53q-73 0 -108 35t-35 113q0 14 1.5 31.5t3.5 34.5q16 113 64.5 163.5t133.5 50.5zM824 357q-23 0 -42 -7.5t-34 -25.5t-26 -47.5t-18 -73.5q-2 -17 -4 -33.5t-2 -28.5 q0 -51 20 -70.5t57 -19.5q47 0 77.5 33t44.5 120q2 17 4 33t2 29q0 51 -20.5 71t-58.5 20zM277 711q73 0 108 -35.5t35 -113.5q0 -17 -1 -31t-4 -34q-16 -108 -62.5 -161t-135.5 -53q-73 0 -108 35t-35 113q0 14 1.5 31.5t3.5 34.5q16 113 64.5 163.5t133.5 50.5zM271 650 q-23 0 -42 -7.5t-34 -25.5t-26 -47.5t-18 -73.5q-2 -17 -4 -33.5t-2 -28.5q0 -51 20 -70.5t57 -19.5q47 0 77.5 33t44.5 120q2 17 4 33t2 29q0 51 -20.5 71t-58.5 20zM777 700l-441 -700h-81l442 700h80z" />
<glyph unicode="&#x26;" horiz-adv-x="694" d="M228 536q0 -24 8 -53.5t28 -64.5q75 43 115 80t40 82q0 31 -20 48t-58 17q-54 0 -83.5 -29t-29.5 -80zM243 57q49 0 94.5 16.5t87.5 51.5q-67 57 -114.5 105.5t-79.5 92.5q-26 -15 -49 -31.5t-40 -36t-27.5 -42t-10.5 -50.5q0 -29 11 -49t29.5 -32.5t44 -18.5t54.5 -6z M587 476h80q-36 -216 -131 -337q27 -22 56.5 -44.5t62.5 -45.5l-50 -60q-70 47 -124 91q-104 -92 -251 -92q-45 0 -83.5 9t-66.5 28.5t-44 50.5t-16 76q0 42 14 75t38 60t55.5 49t65.5 43q-26 47 -35.5 86t-9.5 71q0 79 52.5 127.5t152.5 48.5q75 0 111.5 -29.5t36.5 -84.5 q0 -38 -15.5 -71t-42.5 -61.5t-63.5 -53.5t-78.5 -49q29 -38 73 -82.5t107 -97.5q38 51 65 124t41 169z" />
<glyph unicode="'" horiz-adv-x="160" d="M130 501h-66l27 211h79z" />
<glyph unicode="(" horiz-adv-x="337" d="M241 -81q-101 10 -149 76.5t-48 194.5q0 30 2.5 63t7.5 69q29 192 106 291t208 112l-4 -66q-45 -7 -81 -27.5t-64.5 -60.5t-49.5 -101t-35 -148q-12 -80 -12 -137q0 -99 35 -146t100 -57z" />
<glyph unicode=")" horiz-adv-x="337" d="M105 725q101 -10 149 -76.5t48 -194.5q0 -30 -2.5 -63t-7.5 -69q-29 -192 -106 -291t-208 -112l4 66q45 7 81 27.5t64.5 60.5t49.5 101t35 148q12 79 12 137q0 49 -9 85t-26 60.5t-42 38.5t-58 19z" />
<glyph unicode="*" horiz-adv-x="427" d="M125 349l-49 45l105 109l-119 33l29 69l117 -44l16 151h78l-33 -151l132 44l9 -68l-130 -34l70 -109l-64 -45l-62 116z" />
<glyph unicode="+" horiz-adv-x="503" d="M257 110h-74l25 164h-162l12 71h162l26 165h74l-27 -165h163l-12 -71h-162z" />
<glyph unicode="," horiz-adv-x="225" d="M20 -133l-11 39q29 10 49 33t28 55q-29 -1 -43 12.5t-14 35.5q0 33 18.5 49t44.5 16q24 0 38.5 -13.5t14.5 -45.5q0 -24 -6.5 -51.5t-21.5 -53t-39 -46t-58 -30.5z" />
<glyph unicode="-" horiz-adv-x="423" d="M381 291l-12 -72h-327l11 72h328z" />
<glyph unicode="." horiz-adv-x="225" d="M80 -5q-26 0 -39.5 13t-13.5 36q0 32 19 48.5t47 16.5q53 0 53 -49q0 -32 -18.5 -48.5t-47.5 -16.5z" />
<glyph unicode="/" horiz-adv-x="496" d="M562 700l-506 -700h-93l507 700h92z" />
<glyph unicode="0" d="M51 350q13 96 38.5 165t65 112.5t93.5 64t124 20.5q118 0 175 -58t57 -188q0 -52 -9 -116q-27 -189 -105.5 -275.5t-219.5 -86.5q-117 0 -173 57t-56 185q0 27 2.5 57t7.5 63zM519 464q0 97 -39 137t-112 40q-45 0 -82 -14.5t-65.5 -48t-50 -89.5t-34.5 -140 q-5 -34 -8 -63t-3 -54q0 -49 10 -82.5t29 -53.5t47 -29t64 -9q46 0 83 14t66 47.5t50 90t35 141.5q5 32 7.5 60.5t2.5 52.5z" />
<glyph unicode="1" d="M72 78h171l81 511l-102 -64l-26 69l176 106h54l-99 -622h183l-12 -78h-438z" />
<glyph unicode="2" d="M14 0l12 83l261 214q49 41 84.5 73.5t58 62t32.5 57.5t10 59q0 47 -31 70t-89 23q-68 0 -114 -27t-85 -85l-55 46q48 71 109.5 103.5t150.5 32.5q102 0 152 -40t50 -112q0 -39 -12 -74.5t-38.5 -72.5t-69.5 -79t-106 -94l-199 -166h383l-12 -74h-492z" />
<glyph unicode="3" d="M252 -12q-89 0 -143 33.5t-80 95.5l69 44q38 -103 161 -103q43 0 78 10.5t60.5 32.5t39.5 54t14 76q0 46 -28.5 71.5t-88.5 25.5h-98l12 76h95q29 0 54.5 10t44.5 28.5t30 45.5t11 61q0 48 -33.5 70.5t-95.5 22.5q-58 0 -101 -22t-83 -73l-53 52q46 59 106.5 86t147.5 27 q93 0 146 -36.5t53 -114.5q0 -59 -31 -111t-91 -81q88 -34 88 -128q0 -53 -18.5 -99.5t-54.5 -80.5t-89 -53.5t-122 -19.5z" />
<glyph unicode="4" d="M2 183l10 60l301 457h89l-295 -441h287l51 319h85l-51 -319h104l-12 -76h-104l-29 -183h-85l29 183h-380z" />
<glyph unicode="5" d="M236 624l-55 -219q35 20 76.5 30t83.5 10q41 0 78 -10t64.5 -31t44 -54t16.5 -80q0 -61 -21 -113t-60 -89.5t-95 -58.5t-126 -21q-81 0 -137.5 37.5t-82.5 100.5l69 42q43 -111 163 -111q44 0 81.5 14.5t64.5 41t42.5 64t15.5 82.5q0 60 -37 88.5t-106 28.5 q-54 0 -98.5 -16.5t-83.5 -44.5l-44 26l91 359h399l-12 -76h-331z" />
<glyph unicode="6" d="M280 -12q-52 0 -94.5 14.5t-73 45.5t-47.5 80.5t-17 118.5q0 23 1.5 47t5.5 50q26 188 113 278t216 90q86 0 138 -31.5t73 -89.5l-71 -42q-18 48 -55.5 70.5t-90.5 22.5q-58 0 -98.5 -24.5t-68.5 -65.5t-45 -96t-27 -115l-4 -23q15 27 37 49.5t49.5 38t60 24.5t67.5 9 q97 0 149.5 -47t52.5 -132q0 -54 -17 -103.5t-50.5 -87t-84.5 -59.5t-119 -22zM330 368q-39 0 -74 -13t-61 -36.5t-41 -57t-15 -75.5q0 -58 37 -93.5t104 -35.5q41 0 75 13.5t58 38.5t37.5 60.5t13.5 79.5q0 56 -32.5 87.5t-101.5 31.5z" />
<glyph unicode="7" d="M151 0q13 83 42 170t70.5 169.5t95 155.5t115.5 129h-350l12 76h461l-13 -82q-63 -31 -119 -96.5t-102 -150t-78.5 -181.5t-47.5 -190h-86z" />
<glyph unicode="8" d="M256 -12q-108 0 -165 45.5t-57 126.5q0 43 13 78t35.5 61t53 42.5t64.5 24.5q-42 15 -65 47t-23 80q0 54 18 95t51 68.5t79.5 41.5t103.5 14q99 0 150.5 -38t51.5 -113q0 -76 -38 -127t-101 -72q48 -13 78.5 -46.5t30.5 -90.5q0 -54 -20 -98t-56.5 -75t-88.5 -47.5 t-115 -16.5zM319 401q33 0 62.5 10t52 28.5t36 46.5t13.5 64q0 48 -32.5 71.5t-93.5 23.5q-74 0 -118.5 -37t-44.5 -109q0 -45 31 -71.5t94 -26.5zM264 58q36 0 70 10t60.5 30.5t42.5 50.5t16 71q0 53 -38.5 80.5t-106.5 27.5q-41 0 -75.5 -10.5t-59.5 -31t-39 -50.5 t-14 -69q0 -54 37 -81.5t107 -27.5z" />
<glyph unicode="9" d="M296 327q39 0 74 13t61 37.5t41 59t15 77.5q0 58 -37 93.5t-104 35.5q-41 0 -75 -13.5t-58 -38.5t-37.5 -60.5t-13.5 -79.5q0 -58 32.5 -91t101.5 -33zM346 712q52 0 94.5 -14.5t73 -45.5t47.5 -80.5t17 -118.5q0 -23 -1.5 -47t-5.5 -50q-26 -188 -113 -278t-216 -90 q-86 0 -138 31.5t-73 89.5l71 42q18 -48 55.5 -70.5t90.5 -22.5q58 0 98.5 24.5t68.5 65.5t45 96t27 115l4 23q-29 -57 -86 -91.5t-128 -34.5q-97 0 -149.5 48t-52.5 136q0 54 17 103t50.5 86.5t84.5 60t119 22.5z" />
<glyph unicode=":" horiz-adv-x="225" d="M22 0zM75 -5q-26 0 -39.5 13t-13.5 36q0 32 19 48.5t47 16.5q53 0 53 -49q0 -32 -18.5 -48.5t-47.5 -16.5zM140 372q-26 0 -39.5 13t-13.5 36q0 32 19 48.5t47 16.5q53 0 53 -49q0 -32 -18.5 -48.5t-47.5 -16.5z" />
<glyph unicode=";" horiz-adv-x="225" d="M9 0zM20 -133l-11 39q29 10 49 33t28 55q-29 -1 -43 12.5t-14 35.5q0 33 18.5 49t44.5 16q24 0 38.5 -13.5t14.5 -45.5q0 -24 -6.5 -51.5t-21.5 -53t-39 -46t-58 -30.5zM145 372q-26 0 -39.5 13t-13.5 36q0 32 19 48.5t47 16.5q53 0 53 -49q0 -32 -18.5 -48.5 t-47.5 -16.5z" />
<glyph unicode="&#x3c;" horiz-adv-x="489" d="M424 466l-242 -159l188 -155l-48 -58l-241 196l7 38l302 196z" />
<glyph unicode="=" horiz-adv-x="500" d="M465 417l-10 -71h-398l10 71h398zM443 273l-11 -71h-398l11 71h398z" />
<glyph unicode="&#x3e;" horiz-adv-x="489" d="M99 94l-34 58l242 159l-187 156l48 57l240 -196l-6 -37z" />
<glyph unicode="?" horiz-adv-x="481" d="M504 541q0 -57 -16.5 -100.5t-47.5 -74t-75 -48.5t-99 -23l-16 -99h-84l24 154h44q81 0 132 44.5t51 136.5q0 54 -35.5 80.5t-101.5 26.5q-57 0 -101.5 -23.5t-86.5 -87.5l-54 44q45 76 108.5 108.5t149.5 32.5q99 0 153.5 -44.5t54.5 -126.5zM178 -5q-52 0 -52 49 q0 32 18.5 48t47.5 16q52 0 52 -49q0 -32 -18.5 -48t-47.5 -16z" />
<glyph unicode="@" horiz-adv-x="799" d="M627 -2q-51 -48 -117 -73.5t-151 -25.5q-144 0 -220 75t-76 206q0 88 29 162t81 127.5t124.5 83.5t160.5 30q136 0 207 -68.5t71 -188.5q0 -54 -13 -99t-37 -77.5t-58.5 -50.5t-76.5 -18q-37 0 -59 15t-25 49q-20 -34 -53.5 -53t-78.5 -19q-46 0 -74 21.5t-28 64.5 q0 25 9 47t29 39t51.5 27t76.5 10h83q1 6 1.5 13t0.5 12q0 36 -20 50t-57 14q-35 0 -59.5 -12t-41.5 -31l-27 35q23 29 57.5 43.5t82.5 14.5q55 0 90 -23.5t35 -82.5q0 -15 -3 -34l-15 -92q-1 -3 -2 -11.5t-1 -13.5q0 -43 45 -43q25 0 47.5 13.5t40 40t28 64.5t10.5 87 q0 55 -17 96t-48 68t-74.5 40.5t-96.5 13.5q-72 0 -136.5 -24t-112.5 -70t-76.5 -114.5t-28.5 -156.5q0 -61 18 -106t51.5 -75t80.5 -44.5t106 -14.5q74 0 136.5 21.5t110.5 66.5zM352 121q48 0 79.5 31t42.5 84l-81 1q-50 1 -75.5 -17t-25.5 -53q0 -46 60 -46z" />
<glyph unicode="A" d="M372 619l-194 -401h264zM480 0l-24 143h-315l-70 -143h-90l350 700h110l129 -700h-90z" />
<glyph unicode="B" horiz-adv-x="677" d="M66 0l111 700h286q96 0 136.5 -39.5t40.5 -103.5q0 -74 -34.5 -124.5t-91.5 -71.5q50 -11 72 -47t22 -81q0 -57 -18.5 -101t-53 -73t-83.5 -44t-110 -15h-277zM452 626h-202l-36 -230h200q36 0 62 12t43 32t25 45.5t8 53.5q0 45 -26 66t-74 21zM404 319h-202l-39 -245 h197q74 0 117.5 38t43.5 116q0 45 -27.5 68t-89.5 23z" />
<glyph unicode="C" horiz-adv-x="682" d="M353 -12q-68 0 -119 14t-85.5 45t-51.5 80t-17 119q0 27 1.5 50.5t6.5 54.5q14 99 44 167.5t75 111.5t104 62.5t130 19.5q101 0 157.5 -37t83.5 -110l-76 -41q-22 65 -61.5 91t-109.5 26q-48 0 -89.5 -13t-74.5 -45.5t-57.5 -88.5t-38.5 -142q-9 -57 -9 -106 q0 -53 12.5 -89t37 -57.5t60 -30.5t81.5 -9q64 0 116.5 21.5t94.5 84.5l56 -51q-26 -38 -56 -62.5t-64.5 -39t-72.5 -20t-78 -5.5z" />
<glyph unicode="D" horiz-adv-x="737" d="M326 0h-260l111 700h257q128 0 190.5 -57.5t62.5 -184.5q0 -20 -2 -49t-6 -55q-14 -93 -44 -159.5t-75 -110t-103.5 -64t-130.5 -20.5zM164 76h169q46 0 87.5 13t75 44.5t58 84t37.5 132.5q3 21 5.5 47.5t2.5 46.5q0 99 -45 139.5t-126 40.5h-176z" />
<glyph unicode="E" horiz-adv-x="657" d="M66 0l111 700h496l-12 -76h-411l-37 -233h360l-12 -78h-360l-38 -237h421l-12 -76h-506z" />
<glyph unicode="F" horiz-adv-x="603" d="M66 0l111 700h478l-12 -76h-391l-37 -236h351l-13 -78h-351l-49 -310h-87z" />
<glyph unicode="G" horiz-adv-x="728" d="M330 -12q-124 0 -187 64t-63 200q0 23 2 47.5t6 51.5q13 97 42 165.5t73 112t104 63.5t137 20q99 0 154 -34t81 -103l-76 -41q-20 59 -59 83t-107 24q-51 0 -93.5 -13.5t-75.5 -46.5t-56.5 -89t-36.5 -141q-9 -59 -9 -103q0 -54 12 -90t35 -58t56.5 -31.5t76.5 -9.5 q40 0 77.5 11.5t68.5 38t53 69.5t30 105h-188l11 70h268l-56 -353h-73l10 99q-36 -54 -92.5 -82.5t-124.5 -28.5z" />
<glyph unicode="H" horiz-adv-x="779" d="M542 0l50 313h-389l-50 -313h-87l111 700h87l-49 -309h389l49 309h87l-111 -700h-87z" />
<glyph unicode="I" horiz-adv-x="303" d="M66 0l111 700h87l-111 -700h-87z" />
<glyph unicode="J" horiz-adv-x="502" d="M-20 36l50 68q23 -21 53.5 -32t63.5 -11t61 11t50.5 35t38.5 61.5t24 91.5l70 440h87l-70 -440q-13 -80 -38 -132t-60.5 -83.5t-80 -44t-96.5 -12.5q-42 0 -82 11.5t-71 36.5z" />
<glyph unicode="K" horiz-adv-x="629" d="M66 0l111 700h87l-61 -384l372 384h105l-310 -317l211 -383h-103l-173 320l-120 -121l-32 -199h-87z" />
<glyph unicode="L" horiz-adv-x="616" d="M164 76h399l-12 -76h-486l111 700h87z" />
<glyph unicode="M" horiz-adv-x="931" d="M390 0l-155 547l-84 -547h-84l111 700h93l168 -599l360 599h94l-111 -700h-85l91 547l-329 -547h-69z" />
<glyph unicode="N" horiz-adv-x="767" d="M527 0l-290 574l-87 -574h-84l111 700h88l291 -574l88 574h84l-111 -700h-90z" />
<glyph unicode="O" horiz-adv-x="766" d="M88 351q13 96 42 164.5t73.5 112t105.5 64t138 20.5q137 0 201.5 -59.5t64.5 -193.5q0 -24 -1.5 -51t-6.5 -57q-27 -192 -116.5 -277.5t-243.5 -85.5q-134 0 -199.5 61t-65.5 196q0 24 2 50.5t6 55.5zM626 454q0 52 -12 88t-35.5 57.5t-58 31t-79.5 9.5 q-54 0 -97.5 -13.5t-76.5 -46.5t-56 -89t-36 -141q-9 -60 -9 -105q0 -52 12 -87.5t35.5 -57t58 -31t78.5 -9.5q54 0 97.5 14t77 47.5t56.5 89.5t37 141q5 29 6.5 54t1.5 48z" />
<glyph unicode="P" horiz-adv-x="659" d="M66 0l111 700h270q106 0 157 -44.5t51 -129.5q0 -68 -19.5 -120.5t-56 -88t-88.5 -54t-116 -18.5h-183l-39 -245h-87zM446 624h-194l-48 -303h193q36 0 67 12t54.5 36t36.5 60t13 84q0 54 -29.5 82.5t-92.5 28.5z" />
<glyph unicode="Q" horiz-adv-x="766" d="M447 712q137 0 201.5 -59.5t64.5 -193.5q0 -24 -1.5 -51t-6.5 -57q-18 -130 -64.5 -209.5t-121.5 -117.5l66 -116h-96l-50 89q-44 -9 -94 -9q-134 0 -199.5 61t-65.5 196q0 24 2 50.5t6 55.5q13 96 42 164.5t73.5 112t105.5 64t138 20.5zM441 640q-54 0 -97.5 -13.5 t-76.5 -46.5t-56 -89t-36 -141q-9 -60 -9 -105q0 -52 12 -87.5t35.5 -57t58 -31t78.5 -9.5q27 0 51 3l-72 129h96l57 -103q51 29 85 91t51 172q5 29 6.5 54t1.5 48q0 52 -12 88t-35.5 57.5t-58 31t-79.5 9.5z" />
<glyph unicode="R" horiz-adv-x="663" d="M444 624h-192l-45 -282h192q33 0 63 10.5t52.5 32.5t36 55.5t13.5 78.5q0 51 -29 78t-91 27zM389 265h-194l-42 -265h-87l111 700h270q104 0 154.5 -43t50.5 -124q0 -101 -47 -165t-126 -89l104 -279h-97z" />
<glyph unicode="S" horiz-adv-x="616" d="M590 589l-74 -42q-23 50 -58 73.5t-101 23.5q-44 0 -75.5 -10t-52 -27t-30.5 -40t-10 -49q0 -18 5 -34.5t17.5 -31t34.5 -26.5t55 -21l60 -16q54 -14 89.5 -32.5t57.5 -41.5t31 -51t9 -62q0 -49 -19 -88.5t-54.5 -67.5t-86.5 -43t-114 -15q-86 0 -150.5 31t-99.5 105 l72 43q31 -62 72 -86.5t106 -24.5q95 0 141.5 37.5t46.5 98.5q0 47 -29 73t-98 45l-56 15q-91 25 -132.5 72.5t-41.5 112.5q0 43 17 80t50 64t81.5 42.5t112.5 15.5q87 0 140 -30t84 -93z" />
<glyph unicode="T" horiz-adv-x="559" d="M75 700h537l-12 -76h-225l-99 -624h-87l99 624h-225z" />
<glyph unicode="U" horiz-adv-x="738" d="M561 274l67 426h87l-67 -425q-23 -143 -104.5 -215t-211.5 -72q-119 0 -182 56t-63 165q0 31 6 66l67 425h87l-68 -425q-3 -17 -3.5 -30.5t-0.5 -28.5q0 -75 39 -115t122 -40q89 0 147.5 49.5t77.5 163.5z" />
<glyph unicode="V" horiz-adv-x="609" d="M75 700h90l106 -619l303 619h91l-351 -700h-110z" />
<glyph unicode="W" horiz-adv-x="892" d="M471 698h82l65 -562l244 564h89l-312 -700h-82l-66 567l-245 -567h-88l-86 700h90l62 -572z" />
<glyph unicode="X" horiz-adv-x="619" d="M468 0l-155 295l-245 -295h-101l306 362l-178 338h94l144 -278l228 278h98l-287 -343l191 -357h-95z" />
<glyph unicode="Y" horiz-adv-x="590" d="M246 280l-178 420h91l142 -344l250 344h96l-314 -420l-44 -280h-87z" />
<glyph unicode="Z" horiz-adv-x="559" d="M-22 0l11 67l502 558l-389 -1l12 76h495l-11 -67l-505 -559l421 2l-13 -76h-523z" />
<glyph unicode="[" horiz-adv-x="333" d="M13 -105l130 821h221l-11 -66h-142l-110 -690h146l-11 -65h-223z" />
<glyph unicode="\" horiz-adv-x="511" d="M361 0l-301 700h89l302 -700h-90z" />
<glyph unicode="]" horiz-adv-x="333" d="M340 716l-130 -821h-221l11 66h142l110 690h-146l11 65h223z" />
<glyph unicode="^" horiz-adv-x="425" d="M28 385l200 315h83l100 -315v-2h-83l-70 236l-147 -236h-83v2z" />
<glyph unicode="_" horiz-adv-x="476" d="M436 0l-12 -72h-480l11 72h481z" />
<glyph unicode="`" horiz-adv-x="600" d="M280 574l-98 111l1 6h107l57 -113v-4h-67z" />
<glyph unicode="a" horiz-adv-x="557" d="M206 57q68 0 118 45t63 129h-121q-68 0 -106 -26.5t-38 -77.5q0 -35 21.5 -52.5t62.5 -17.5zM181 -11q-62 0 -101.5 33t-39.5 97q0 36 13.5 68.5t42 57t73 38.5t106.5 14h123q3 21 3 38q0 55 -28 75t-82 20q-53 0 -89.5 -18t-61.5 -47l-41 52q35 41 84.5 61.5t121.5 20.5 q41 0 74.5 -7.5t57.5 -25t37 -46t13 -70.5q0 -11 -1 -24t-3 -27l-47 -299h-73l6 88q-30 -47 -78 -73t-110 -26z" />
<glyph unicode="b" horiz-adv-x="602" d="M248 700l-47 -295q62 94 182 94q83 0 126 -47.5t43 -141.5q0 -15 -1.5 -31.5t-3.5 -34.5q-18 -122 -82 -189t-167 -67q-54 0 -93.5 22.5t-57.5 70.5l-18 -81h-76l111 700h84zM176 242q-2 -15 -3.5 -28.5t-1.5 -26.5q0 -68 33.5 -99t86.5 -31q71 0 114 45t58 141 q3 17 4 32t1 29q0 65 -29 95.5t-86 30.5q-64 0 -112.5 -44.5t-64.5 -143.5z" />
<glyph unicode="c" horiz-adv-x="523" d="M406 134l59 -39q-36 -60 -90.5 -83.5t-121.5 -23.5q-200 0 -200 191q0 14 1.5 30t3.5 33q20 130 85.5 193.5t172.5 63.5q85 0 128 -34t60 -90l-67 -32q-13 40 -40.5 63.5t-85.5 23.5q-71 0 -112.5 -45.5t-56.5 -142.5q-6 -35 -6 -62q0 -68 30 -95.5t96 -27.5q45 0 80 16 t64 61z" />
<glyph unicode="d" horiz-adv-x="606" d="M429 245q2 15 3 28.5t1 25.5q0 69 -33 100t-87 31q-72 0 -113 -45t-58 -142q-4 -22 -5 -33.5t-1 -25.5q0 -65 29.5 -96t86.5 -31q64 0 112.5 44t64.5 144zM473 0h-76l8 82q-31 -47 -77 -70.5t-105 -23.5q-84 0 -127 48t-43 141q0 16 1.5 32.5t3.5 34.5q17 125 81 190 t167 65q52 0 90.5 -20t58.5 -62l45 283h84z" />
<glyph unicode="e" horiz-adv-x="541" d="M248 -12q-94 0 -144.5 46t-50.5 146q0 14 1.5 30t3.5 33q18 126 85 191t179 65q46 0 79 -13.5t54.5 -37.5t31.5 -57.5t10 -73.5q0 -24 -3.5 -48.5t-9.5 -50.5h-346q0 -1 -0.5 -5.5t-1 -10.5t-0.5 -12v-10q0 -67 30.5 -95t90.5 -28q50 0 85.5 15.5t64.5 60.5l58 -38 q-38 -56 -89 -81.5t-128 -25.5zM312 431q-62 0 -103 -33.5t-60 -113.5h265q1 8 1.5 17t0.5 19q0 60 -27 85.5t-77 25.5z" />
<glyph unicode="f" horiz-adv-x="346" d="M72 0l66 420h-88l11 67h88l10 59q14 92 59.5 132t117.5 40q20 0 42 -3t38 -11l-25 -72q-13 5 -25.5 8.5t-30.5 3.5q-35 0 -60 -21.5t-35 -81.5l-8 -54h138l-11 -67h-138l-66 -420h-83z" />
<glyph unicode="g" horiz-adv-x="601" d="M426 253q2 13 3 26t1 24q0 68 -34 98t-87 30q-72 0 -113.5 -42.5t-55.5 -136.5q-2 -17 -3.5 -30.5t-1.5 -27.5q0 -64 29.5 -93.5t86.5 -29.5q31 0 59.5 10t51.5 32t39.5 56.5t24.5 83.5zM546 487l-75 -476q-9 -60 -32.5 -102.5t-58.5 -70.5t-80.5 -41t-97.5 -13 q-71 0 -120 25t-71 90l66 44q17 -50 48.5 -69.5t81.5 -19.5q70 0 118 34.5t61 116.5l13 84q-30 -44 -74 -65.5t-100 -21.5q-84 0 -128.5 47t-44.5 141q0 14 1 29t3 32q17 121 78 184.5t161 63.5q60 0 101.5 -22.5t59.5 -69.5l20 80h70z" />
<glyph unicode="h" horiz-adv-x="616" d="M248 700l-50 -309q35 58 87 83t108 25q78 0 115.5 -38.5t37.5 -108.5q0 -13 -1.5 -25.5t-3.5 -26.5l-47 -300h-84l46 288q3 22 3 43q0 95 -99 95q-34 0 -64.5 -13t-54.5 -37t-41.5 -59t-24.5 -79l-38 -238h-84l111 700h84z" />
<glyph unicode="i" horiz-adv-x="271" d="M189 581q-26 0 -39 12.5t-13 35.5q0 32 18.5 48.5t47.5 16.5q52 0 52 -49q0 -32 -18.5 -48t-47.5 -16zM131 487h85l-76 -487h-85z" />
<glyph unicode="j" horiz-adv-x="271" d="M190 581q-26 0 -39 12.5t-13 35.5q0 32 18.5 48.5t47.5 16.5q52 0 52 -49q0 -32 -18.5 -48t-47.5 -16zM49 -33l83 520h84l-83 -530q-14 -90 -61 -131.5t-116 -41.5q-20 0 -36.5 2.5t-38.5 10.5l26 72q13 -5 24.5 -8t28.5 -3q16 0 30.5 5t25.5 17.5t19.5 33.5t13.5 53z " />
<glyph unicode="k" horiz-adv-x="512" d="M249 700l-77 -475l269 262h104l-230 -218l155 -269h-98l-120 211l-96 -90l-18 -121h-85l111 700h85z" />
<glyph unicode="l" horiz-adv-x="273" d="M153 0q-47 0 -72 25t-15 85l93 590h84l-92 -585q-5 -26 3.5 -36.5t34.5 -10.5h44l-10 -68h-70z" />
<glyph unicode="m" horiz-adv-x="911" d="M53 0l77 487h72l-5 -90q35 55 82 78.5t98 23.5q59 0 90.5 -31t39.5 -88q37 65 88.5 92t107.5 27q70 0 103.5 -37t33.5 -106q0 -14 -1.5 -28t-3.5 -28l-47 -300h-84l46 288q2 10 2.5 22.5t0.5 23.5q0 91 -87 91q-60 0 -105.5 -48t-60.5 -133l-38 -244h-84l46 288 q2 12 3 23.5t1 22.5q0 91 -87 91q-60 0 -105 -48t-61 -134l-38 -243h-84z" />
<glyph unicode="n" horiz-adv-x="616" d="M53 0l77 487h73l-5 -91q36 56 87.5 79.5t107.5 23.5q78 0 115.5 -38.5t37.5 -108.5q0 -13 -1.5 -25.5t-3.5 -26.5l-47 -300h-84l46 288q2 11 2.5 22t0.5 20q0 96 -99 96q-34 0 -64 -12.5t-54.5 -36t-41.5 -57t-24 -75.5l-39 -245h-84z" />
<glyph unicode="o" horiz-adv-x="578" d="M58 245q19 132 87.5 193t179.5 61q100 0 150 -44.5t50 -141.5q0 -16 -1.5 -32.5t-3.5 -35.5q-18 -132 -85.5 -194.5t-181.5 -62.5q-98 0 -149 45.5t-51 145.5q0 15 1.5 31.5t3.5 34.5zM436 244q6 36 6 64q0 67 -31 94.5t-94 27.5q-38 0 -67.5 -9.5t-50.5 -31.5t-35 -57.5 t-22 -87.5q-6 -38 -6 -66q0 -66 30 -93.5t92 -27.5q37 0 66.5 10t51.5 32t37 58t23 87z" />
<glyph unicode="p" horiz-adv-x="607" d="M177 242q-2 -15 -3 -28.5t-1 -26.5q0 -69 33 -100t87 -31q71 0 113.5 45.5t57.5 141.5q6 34 6 62q0 65 -29 95t-85 30q-65 0 -114 -44.5t-65 -143.5zM24 -186l107 673h73l-5 -88q64 100 186 100q83 0 125.5 -47.5t42.5 -140.5q0 -16 -1.5 -32.5t-3.5 -34.5 q-17 -122 -81 -189t-168 -67q-52 0 -90.5 20.5t-58.5 62.5l-42 -257h-84z" />
<glyph unicode="q" horiz-adv-x="605" d="M443 -186h-83l40 263q-29 -42 -72.5 -65.5t-105.5 -23.5q-83 0 -126 48t-43 141q0 16 1.5 32.5t3.5 34.5q17 122 80.5 188.5t167.5 66.5q54 0 93.5 -23t57.5 -71l21 82h72zM428 245q2 15 3 28.5t1 25.5q0 69 -32.5 100t-86.5 31q-72 0 -114 -45t-58 -142q-2 -16 -3.5 -30 t-1.5 -28q0 -128 116 -128q64 0 112 44t64 144z" />
<glyph unicode="r" horiz-adv-x="375" d="M53 0l77 487h73l-5 -101q34 60 86 87.5t112 22.5l-14 -83q-85 9 -137.5 -38t-70.5 -141l-37 -234h-84z" />
<glyph unicode="s" horiz-adv-x="501" d="M227 55q62 0 88.5 22.5t26.5 57.5q0 26 -16.5 41.5t-63.5 27.5l-40 10q-72 18 -104.5 52.5t-32.5 82.5q0 66 50.5 108t142.5 42q33 0 58.5 -5.5t46 -16.5t36.5 -26.5t31 -34.5l-61 -48q-25 30 -50.5 46.5t-69.5 16.5q-54 0 -79 -21.5t-25 -51.5q0 -23 15 -41t59 -29 l48 -12q75 -19 106 -50.5t31 -82.5q0 -29 -10.5 -57t-34.5 -49.5t-62.5 -35t-94.5 -13.5q-72 0 -119.5 26t-75.5 82l66 38q23 -43 55.5 -61t78.5 -18z" />
<glyph unicode="t" horiz-adv-x="354" d="M358 487l-11 -67h-138l-39 -247q-10 -60 5.5 -85.5t60.5 -25.5q16 0 29 2.5t27 7.5l3 -70q-27 -8 -43 -10.5t-31 -2.5q-67 0 -103 29.5t-36 94.5q0 16 2 31.5t4 29.5l39 246h-85l11 67h85l22 143h82l-22 -143h138z" />
<glyph unicode="u" horiz-adv-x="614" d="M231 -12q-82 0 -121 40.5t-39 114.5q0 12 0.5 23.5t2.5 24.5l47 296h85l-46 -284q-2 -12 -2 -23v-21q0 -101 99 -101q70 0 116.5 45.5t62.5 133.5l39 250h85l-78 -487h-73l7 86q-35 -53 -84 -75.5t-101 -22.5z" />
<glyph unicode="v" horiz-adv-x="489" d="M37 487h89l87 -404l215 404h89l-269 -487h-93z" />
<glyph unicode="w" horiz-adv-x="723" d="M350 484h88l52 -387l173 390h83l-228 -487h-89l-51 386l-169 -386h-89l-78 487h84l53 -390z" />
<glyph unicode="x" horiz-adv-x="488" d="M48 487h94l108 -184l162 184h97l-222 -242l151 -245h-95l-112 188l-169 -188h-97l229 247z" />
<glyph unicode="y" horiz-adv-x="499" d="M133 -65l29 56l-119 496h88l89 -406l214 406h88l-320 -580q-40 -72 -87.5 -97.5t-103.5 -25.5q-20 0 -36.5 2.5t-37.5 10.5l25 72q15 -5 28.5 -8t33.5 -3q11 0 24.5 2t27.5 10t28.5 23t28.5 42z" />
<glyph unicode="z" horiz-adv-x="477" d="M1 0l10 64l349 354h-288l11 69h385l-10 -65l-348 -353h301l-11 -69h-399z" />
<glyph unicode="{" horiz-adv-x="341" d="M240 -82q-66 6 -99.5 33.5t-33.5 81.5q0 24 5 46t10.5 44t10.5 43.5t5 45.5q0 41 -21 59t-66 18h-34l10 65h34q53 0 83 25t38 82q5 29 4 58.5t4 62.5q9 68 52.5 102t118.5 41l-1 -65q-39 -5 -62.5 -24t-30.5 -61q-5 -31 -5 -61t-5 -61q-9 -52 -35 -83.5t-72 -48.5 q65 -26 65 -98q0 -24 -5 -46.5t-10.5 -44t-10.5 -42.5t-5 -42q0 -31 18.5 -45.5t50.5 -19.5z" />
<glyph unicode="|" horiz-adv-x="291" d="M56 -65l131 831h79l-131 -831h-79z" />
<glyph unicode="}" horiz-adv-x="341" d="M106 725q66 -6 99.5 -33.5t33.5 -81.5q0 -24 -5 -46t-10.5 -44t-10.5 -43.5t-5 -45.5q0 -41 21 -59t66 -18h34l-10 -65h-34q-53 0 -83 -25t-38 -82q-5 -29 -4 -58.5t-4 -62.5q-9 -68 -52.5 -102t-118.5 -41l1 65q39 5 62.5 24t30.5 61q5 31 5 61t5 61q9 52 35 83.5 t72 48.5q-65 26 -65 98q0 24 5 46.5t10.5 44t10.5 42.5t5 42q0 31 -18.5 45.5t-50.5 19.5z" />
<glyph unicode="~" horiz-adv-x="526" d="M437 415l73 -12q-13 -66 -52 -98.5t-96 -32.5q-30 0 -56 10.5t-49.5 23t-45.5 23t-44 10.5q-29 0 -46 -18t-22 -48l-73 12q13 68 52.5 100t96.5 32q31 0 56.5 -10.5t49 -23t45 -23t43.5 -10.5q29 0 45.5 18t22.5 47z" />
<glyph unicode="&#xa1;" horiz-adv-x="223" d="M21 -202l91 504h70l-67 -504h-94zM177 503q25 0 38 -13t13 -36q0 -32 -18.5 -48.5t-47.5 -16.5q-24 0 -37.5 13t-13.5 36q0 32 18.5 48.5t47.5 16.5z" />
<glyph unicode="&#xa2;" horiz-adv-x="538" d="M203 -62l12 79q-150 18 -150 179q0 14 1.5 29t3.5 32q16 115 73 173.5t148 66.5l13 81h69l-13 -83q62 -8 95 -40t48 -80l-64 -32q-11 33 -31 55.5t-59 30.5l-54 -346q35 3 62.5 19t51.5 52l57 -38q-32 -51 -78.5 -74t-102.5 -26l-12 -78h-70zM145 197q0 -53 19.5 -79 t61.5 -33l54 343q-54 -10 -85.5 -51.5t-44.5 -119.5q-2 -17 -3.5 -32.5t-1.5 -27.5z" />
<glyph unicode="&#xa3;" horiz-adv-x="569" d="M505 74q-38 -45 -82 -59.5t-103 -14.5h-337l12 74h36q35 0 47.5 29.5t19.5 82.5l15 116h-83l11 68h80l17 134q14 106 71 157t151 51q80 0 125.5 -34.5t65.5 -99.5l-71 -33q-13 46 -41.5 71.5t-79.5 25.5q-60 0 -92.5 -36t-42.5 -111l-16 -125h184l-11 -68h-182l-14 -112 q-5 -39 -14.5 -69t-23.5 -47h183q41 0 71.5 10.5t58.5 43.5z" />
<glyph unicode="&#xa5;" horiz-adv-x="610" d="M539 287l-11 -68h-191l-35 -219h-89l36 219h-193l11 68h188l-24 56h-155l11 68h116l-123 289h90l143 -348l254 348h93l-216 -289h115l-11 -68h-155l-42 -56h188z" />
<glyph unicode="&#xa6;" horiz-adv-x="291" d="M129 388l59 378h78l-60 -378h-77zM57 -65l60 379h77l-59 -379h-78z" />
<glyph unicode="&#xa7;" horiz-adv-x="519" d="M221 274l19 -5q28 -7 52.5 -5t43 11.5t29 27t10.5 40.5q0 26 -18 44.5t-56 27.5l-21 5q-56 13 -91 -8.5t-35 -64.5q0 -23 14.5 -43t52.5 -30zM205 -23q-62 0 -107.5 20t-68.5 73l64 41q18 -39 45.5 -54.5t74.5 -15.5q64 0 89.5 22.5t25.5 57.5q0 26 -18.5 43t-66.5 29 l-38 10q-69 19 -97.5 54.5t-28.5 78.5q0 18 5 38t17 37.5t32 31.5t50 20q-54 38 -54 104q0 25 9 51t30.5 47t57 34t88.5 13q57 0 91 -17t58 -52l-58 -50q-19 29 -40.5 42.5t-60.5 13.5q-52 0 -76 -21t-24 -53q0 -24 15.5 -45.5t54.5 -32.5l48 -13q72 -20 103 -50.5t31 -78.5 q0 -19 -5 -38.5t-17 -36.5t-32 -31t-50 -22q55 -36 55 -98q0 -26 -9 -52.5t-31.5 -48.5t-61.5 -36.5t-100 -14.5z" />
<glyph unicode="&#xa8;" horiz-adv-x="600" d="M386 580q-27 0 -39 12t-12 34q0 35 18.5 51t46.5 16q25 0 38.5 -12.5t13.5 -35.5q0 -32 -18.5 -48.5t-47.5 -16.5zM213 580q-50 0 -50 46q0 35 18.5 51t46.5 16q24 0 37.5 -12t13.5 -35q0 -32 -18 -49t-48 -17z" />
<glyph unicode="&#xa9;" horiz-adv-x="808" d="M78 351q11 77 43 140t81.5 108t116 69.5t146.5 24.5q71 0 126 -19.5t92 -55.5t56 -87t19 -114q0 -19 -1 -33t-4 -33q-11 -78 -43 -141t-82 -107.5t-116 -68.5t-146 -24q-71 0 -125.5 19.5t-92 55.5t-56.5 86.5t-19 113.5q0 16 1.5 32.5t3.5 33.5zM120 351q-6 -36 -6 -67 q0 -59 18 -103t51 -73t80 -44t105 -15q66 0 123 19t102 57t75.5 94.5t42.5 131.5q6 36 6 69q0 58 -18 102t-51 73t-80 44t-104 15q-66 0 -123.5 -19t-102.5 -57t-75.5 -95t-42.5 -132zM394 178q-69 0 -106.5 32.5t-37.5 101.5q0 14 1 24t3 18q13 94 61.5 136.5t129.5 42.5 q54 0 87 -20t47 -56l-52 -31q-20 55 -86 55q-51 0 -81.5 -28t-41.5 -99q-2 -12 -3 -20.5t-1 -19.5q0 -45 21.5 -64t66.5 -19q35 0 60 13t45 45l46 -26q-28 -45 -67.5 -65t-91.5 -20z" />
<glyph unicode="&#xaa;" horiz-adv-x="400" d="M182 399q46 0 78.5 31t41.5 86v3h-82q-47 0 -71.5 -18.5t-24.5 -53.5q0 -48 58 -48zM158 347q-45 0 -72.5 23t-27.5 68q0 26 9.5 49t29.5 40.5t52 28t76 10.5h85q1 7 1.5 13.5t0.5 11.5q0 37 -19.5 51.5t-57.5 14.5q-36 0 -61.5 -13.5t-43.5 -33.5l-30 42q24 29 61 44.5 t88 15.5q58 0 94 -24.5t36 -84.5q0 -15 -3 -36l-34 -209h-55l4 59q-22 -32 -55 -51t-78 -19z" />
<glyph unicode="&#xab;" horiz-adv-x="634" d="M424 0l-155 243v3l227 241h102l-235 -247l154 -240h-93zM210 0l-151 241l1 3l227 243h100l-233 -249l150 -238h-94z" />
<glyph unicode="&#xad;" horiz-adv-x="403" d="M361 291l-12 -72h-307l12 72h307z" />
<glyph unicode="&#xae;" horiz-adv-x="464" d="M87 525q6 42 23.5 76.5t44.5 59t63.5 38t81.5 13.5q78 0 119.5 -40.5t41.5 -110.5q0 -8 -1 -20.5t-3 -21.5q-17 -86 -70.5 -133.5t-141.5 -47.5q-78 0 -119.5 41t-41.5 110q0 18 3 36zM116 525q-3 -18 -3 -35q0 -62 37 -94.5t97 -32.5q69 0 118.5 41t62.5 121q3 19 3 36 q0 61 -36 93t-96 32q-70 0 -119.5 -41t-63.5 -120zM288 592h-42l-10 -65h37q20 0 32 8.5t12 31.5q0 25 -29 25zM188 437l28 184h76q31 0 45.5 -13.5t14.5 -36.5q0 -29 -12.5 -44.5t-32.5 -23.5l25 -66h-37l-21 61h-43l-10 -61h-33z" />
<glyph unicode="&#xaf;" horiz-adv-x="600" d="M435 660l-10 -59h-249l9 59h250z" />
<glyph unicode="&#xb0;" horiz-adv-x="458" d="M451 566q0 -48 -15 -88t-42 -68.5t-65 -44t-84 -15.5q-77 0 -116.5 40t-39.5 107q0 48 15 87.5t42 68t65 44t84 15.5q76 0 116 -40t40 -106zM154 502q0 -46 26 -70t70 -24q27 0 51.5 9.5t43 29t29.5 47.5t11 66q0 46 -26 70t-70 24q-27 0 -51.5 -9.5t-43 -29t-29.5 -48 t-11 -65.5z" />
<glyph unicode="&#xb1;" horiz-adv-x="504" d="M271 136h-74l24 151h-162l11 70h162l24 153h74l-25 -153h163l-11 -70h-163zM422 71l-11 -71h-398l11 71h398z" />
<glyph unicode="&#xb2;" horiz-adv-x="370" d="M37 294zM37 294l10 61l147 120q47 38 72.5 65t25.5 60q0 51 -68 51q-32 0 -55 -14.5t-43 -44.5l-42 39q29 43 65.5 62t84.5 19q63 0 97.5 -24t34.5 -75q0 -24 -7.5 -45t-23.5 -42t-40 -43.5t-57 -48.5l-93 -74l199 1l-9 -67h-298z" />
<glyph unicode="&#xb3;" horiz-adv-x="372" d="M39 284zM179 284q-56 0 -89.5 21.5t-50.5 60.5l56 34q11 -27 32 -41.5t56 -14.5q42 0 68.5 20.5t26.5 58.5q0 26 -15 38.5t-49 12.5h-52l10 60h50q32 0 52.5 19t20.5 50q0 26 -16 37t-51 11q-29 0 -51 -10t-43 -39l-44 38q26 38 62.5 55t87.5 17q62 0 95 -22.5t33 -71.5 q0 -37 -18.5 -67t-53.5 -47q24 -8 38 -26.5t14 -50.5q0 -30 -11 -56t-33 -45.5t-53.5 -30.5t-71.5 -11z" />
<glyph unicode="&#xb4;" horiz-adv-x="600" d="M339 691h109l-1 -6l-127 -111h-76v4z" />
<glyph unicode="&#xb6;" horiz-adv-x="660" d="M548 625h-72l-48 -303h73zM194 440q0 -60 33 -89t94 -29h22l47 303h-22q-83 0 -128.5 -49t-45.5 -136zM293 0l38 245h-12q-105 0 -158 48.5t-53 139.5q0 128 71 197.5t203 69.5h263l-111 -700h-85l38 245h-71l-38 -245h-85z" />
<glyph unicode="&#xb7;" horiz-adv-x="229" d="M57 280zM110 280q-26 0 -39.5 13t-13.5 36q0 32 19 48.5t47 16.5q53 0 53 -49q0 -32 -18.5 -48.5t-47.5 -16.5z" />
<glyph unicode="&#xb8;" horiz-adv-x="600" d="M299 -103l-14 12l37 91h63l-31 -63q31 -2 52.5 -21t21.5 -54q0 -25 -10.5 -43.5t-27.5 -31t-39.5 -18.5t-47.5 -6q-38 0 -67 15t-42 47l47 38q10 -23 24.5 -35t43.5 -12q24 0 40 10.5t16 33.5q0 21 -18.5 29t-47.5 8z" />
<glyph unicode="&#xb9;" horiz-adv-x="222" d="M66 294zM159 294h-70l50 320l-55 -33l-18 59l113 64h44z" />
<glyph unicode="&#xba;" horiz-adv-x="416" d="M69 529q12 91 61 137t131 46q71 0 107.5 -34.5t36.5 -104.5q0 -15 -0.5 -23t-2.5 -21q-13 -93 -62.5 -137.5t-129.5 -44.5q-71 0 -107.5 34.5t-36.5 103.5q0 21 3 44zM336 529q3 22 3 41q0 46 -20 67t-63 21q-50 0 -80 -30t-41 -99q-3 -23 -3 -42q0 -86 83 -86 q51 0 80.5 30.5t40.5 97.5z" />
<glyph unicode="&#xbb;" horiz-adv-x="634" d="M209 487l155 -243v-3l-227 -241h-102l235 247l-154 240h93zM423 487l151 -241l-1 -3l-227 -243h-100l233 249l-150 238h94z" />
<glyph unicode="&#xbc;" horiz-adv-x="847" d="M66 0zM159 293h-70l50 320l-55 -33l-18 59l113 64h44zM609 700l-441 -700h-81l442 700h80zM446 97l7 51l169 260h70l-162 -247h141l28 167h67l-26 -167h60l-11 -64h-60l-15 -97h-68l16 97h-216z" />
<glyph unicode="&#xbd;" horiz-adv-x="820" d="M66 0zM435 0l10 61l147 120q47 38 72.5 65t25.5 60q0 51 -68 51q-32 0 -55 -14.5t-43 -44.5l-42 39q29 43 65.5 62t84.5 19q63 0 97.5 -24t34.5 -75q0 -24 -7.5 -45t-23.5 -42t-40 -43.5t-57 -48.5l-93 -74l199 1l-9 -67h-298zM159 293h-70l50 320l-55 -33l-18 59l113 64 h44zM609 700l-441 -700h-81l442 700h80z" />
<glyph unicode="&#xbe;" horiz-adv-x="947" d="M35 0zM175 283q-56 0 -89.5 21.5t-50.5 60.5l56 34q11 -27 32 -41.5t56 -14.5q42 0 68.5 20.5t26.5 58.5q0 26 -15 38.5t-49 12.5h-52l10 60h50q32 0 52.5 19t20.5 50q0 26 -16 37t-51 11q-29 0 -51 -10t-43 -39l-44 38q26 38 62.5 55t87.5 17q62 0 95 -22.5t33 -71.5 q0 -37 -18.5 -67t-53.5 -47q24 -8 38 -26.5t14 -50.5q0 -30 -11 -56t-33 -45.5t-53.5 -30.5t-71.5 -11zM734 700l-441 -700h-81l442 700h80zM546 97l7 51l169 260h70l-162 -247h141l28 167h67l-26 -167h60l-11 -64h-60l-15 -97h-68l16 97h-216z" />
<glyph unicode="&#xbf;" horiz-adv-x="489" d="M-3 -48q0 113 64 174t174 72l16 99h84l-24 -154h-44q-81 0 -132 -44.5t-51 -136.5q0 -54 35.5 -80.5t101.5 -26.5q57 0 101.5 23.5t86.5 87.5l54 -44q-45 -76 -108.5 -108.5t-149.5 -32.5q-99 0 -153.5 44.5t-54.5 126.5zM323 498q52 0 52 -49q0 -32 -18.5 -48t-47.5 -16 q-52 0 -52 49q0 32 18.5 48t47.5 16z" />
<glyph unicode="&#xc0;" d="M0 0zM372 619l-194 -401h264zM480 0l-24 143h-315l-70 -143h-90l350 700h110l129 -700h-90zM371 788l-98 111l1 6h107l57 -113v-4h-67z" />
<glyph unicode="&#xc1;" d="M0 0zM372 619l-194 -401h264zM480 0l-24 143h-315l-70 -143h-90l350 700h110l129 -700h-90zM455 905h109l-1 -6l-127 -111h-76v4z" />
<glyph unicode="&#xc2;" d="M0 0zM372 619l-194 -401h264zM480 0l-24 143h-315l-70 -143h-90l350 700h110l129 -700h-90zM409 857l-80 -69h-94v3l137 114h82l101 -114v-3h-91z" />
<glyph unicode="&#xc3;" d="M0 0zM372 619l-194 -401h264zM480 0l-24 143h-315l-70 -143h-90l350 700h110l129 -700h-90zM503 898h64q-2 -29 -12 -48.5t-25 -31t-32.5 -16.5t-33.5 -5q-20 0 -36.5 6.5t-30.5 14t-27 14t-26 6.5q-18 0 -25.5 -11.5t-9.5 -25.5h-65q3 29 13 48.5t24.5 31t31 16.5 t33.5 5q21 0 37.5 -6.5t31 -14t27 -14t25.5 -6.5q18 0 26 11t10 26z" />
<glyph unicode="&#xc4;" d="M0 0zM372 619l-194 -401h264zM480 0l-24 143h-315l-70 -143h-90l350 700h110l129 -700h-90zM488 794q-27 0 -39 12t-12 34q0 35 18.5 51t46.5 16q25 0 38.5 -12.5t13.5 -35.5q0 -32 -18.5 -48.5t-47.5 -16.5zM315 794q-50 0 -50 46q0 35 18.5 51t46.5 16q24 0 37.5 -12 t13.5 -35q0 -32 -18 -49t-48 -17z" />
<glyph unicode="&#xc5;" d="M0 0zM372 619l-194 -401h264zM480 0l-24 143h-315l-70 -143h-90l350 700h110l129 -700h-90zM396 761q-37 0 -60 21t-23 59q0 47 30.5 77.5t76.5 30.5q37 0 60 -21.5t23 -57.5q0 -48 -31 -78.5t-76 -30.5zM417 908q-24 0 -40.5 -17.5t-16.5 -46.5q0 -19 11 -30.5t28 -11.5 q22 0 39.5 17.5t17.5 46.5q0 19 -11 30.5t-28 11.5z" />
<glyph unicode="&#xc6;" horiz-adv-x="919" d="M376 622l-200 -404h260zM469 0l-22 143h-309l-71 -143h-92l356 700h605l-12 -76h-463l36 -233h338l-12 -78h-313l37 -237h300l-12 -76h-366z" />
<glyph unicode="&#xc7;" horiz-adv-x="682" d="M80 0zM353 -12q-68 0 -119 14t-85.5 45t-51.5 80t-17 119q0 27 1.5 50.5t6.5 54.5q14 99 44 167.5t75 111.5t104 62.5t130 19.5q101 0 157.5 -37t83.5 -110l-76 -41q-22 65 -61.5 91t-109.5 26q-48 0 -89.5 -13t-74.5 -45.5t-57.5 -88.5t-38.5 -142q-9 -57 -9 -106 q0 -53 12.5 -89t37 -57.5t60 -30.5t81.5 -9q64 0 116.5 21.5t94.5 84.5l56 -51q-26 -38 -56 -62.5t-64.5 -39t-72.5 -20t-78 -5.5zM301 -99l-14 12l37 91h63l-31 -63q31 -2 52.5 -21t21.5 -54q0 -25 -10.5 -43.5t-27.5 -31t-39.5 -18.5t-47.5 -6q-38 0 -67 15t-42 47l47 38 q10 -23 24.5 -35t43.5 -12q24 0 40 10.5t16 33.5q0 21 -18.5 29t-47.5 8z" />
<glyph unicode="&#xc8;" horiz-adv-x="657" d="M66 0zM66 0l111 700h496l-12 -76h-411l-37 -233h360l-12 -78h-360l-38 -237h421l-12 -76h-506zM407 788l-98 111l1 6h107l57 -113v-4h-67z" />
<glyph unicode="&#xc9;" horiz-adv-x="657" d="M66 0zM490 905h109l-1 -6l-127 -111h-76v4zM66 0l111 700h496l-12 -76h-411l-37 -233h360l-12 -78h-360l-38 -237h421l-12 -76h-506z" />
<glyph unicode="&#xca;" horiz-adv-x="657" d="M66 0zM445 857l-80 -69h-94v3l137 114h82l101 -114v-3h-91zM66 0l111 700h496l-12 -76h-411l-37 -233h360l-12 -78h-360l-38 -237h421l-12 -76h-506z" />
<glyph unicode="&#xcb;" horiz-adv-x="657" d="M66 0zM523 794q-27 0 -39 12t-12 34q0 35 18.5 51t46.5 16q25 0 38.5 -12.5t13.5 -35.5q0 -32 -18.5 -48.5t-47.5 -16.5zM350 794q-50 0 -50 46q0 35 18.5 51t46.5 16q24 0 37.5 -12t13.5 -35q0 -32 -18 -49t-48 -17zM66 0l111 700h496l-12 -76h-411l-37 -233h360 l-12 -78h-360l-38 -237h421l-12 -76h-506z" />
<glyph unicode="&#xcc;" horiz-adv-x="303" d="M66 0zM66 0l111 700h87l-111 -700h-87zM206 788l-98 111l1 6h107l57 -113v-4h-67z" />
<glyph unicode="&#xcd;" horiz-adv-x="303" d="M66 0zM66 0l111 700h87l-111 -700h-87zM289 905h109l-1 -6l-127 -111h-76v4z" />
<glyph unicode="&#xce;" horiz-adv-x="303" d="M66 0zM66 0l111 700h87l-111 -700h-87zM243 857l-80 -69h-94v3l137 114h82l101 -114v-3h-91z" />
<glyph unicode="&#xcf;" horiz-adv-x="303" d="M66 0zM66 0l111 700h87l-111 -700h-87zM322 794q-27 0 -39 12t-12 34q0 35 18.5 51t46.5 16q25 0 38.5 -12.5t13.5 -35.5q0 -32 -18.5 -48.5t-47.5 -16.5zM149 794q-50 0 -50 46q0 35 18.5 51t46.5 16q24 0 37.5 -12t13.5 -35q0 -32 -18 -49t-48 -17z" />
<glyph unicode="&#xd0;" horiz-adv-x="747" d="M336 0h-260l51 323h-79l12 71h78l49 306h257q128 0 190.5 -57.5t62.5 -184.5q0 -20 -2 -49t-6 -55q-14 -93 -44 -159.5t-75 -110t-103.5 -64t-130.5 -20.5zM174 76h169q46 0 87.5 13t75 44.5t58 84t37.5 132.5q3 21 5.5 47.5t2.5 46.5q0 99 -45 139.5t-126 40.5h-176 l-37 -230h159l-12 -71h-159z" />
<glyph unicode="&#xd1;" horiz-adv-x="767" d="M66 0zM527 0l-290 574l-87 -574h-84l111 700h88l291 -574l88 574h84l-111 -700h-90zM567 898h64q-2 -29 -12 -48.5t-25 -31t-32.5 -16.5t-33.5 -5q-20 0 -36.5 6.5t-30.5 14t-27 14t-26 6.5q-18 0 -25.5 -11.5t-9.5 -25.5h-65q3 29 13 48.5t24.5 31t31 16.5t33.5 5 q21 0 37.5 -6.5t31 -14t27 -14t25.5 -6.5q18 0 26 11t10 26z" />
<glyph unicode="&#xd2;" horiz-adv-x="766" d="M80 0zM88 351q13 96 42 164.5t73.5 112t105.5 64t138 20.5q137 0 201.5 -59.5t64.5 -193.5q0 -24 -1.5 -51t-6.5 -57q-27 -192 -116.5 -277.5t-243.5 -85.5q-134 0 -199.5 61t-65.5 196q0 24 2 50.5t6 55.5zM626 454q0 52 -12 88t-35.5 57.5t-58 31t-79.5 9.5 q-54 0 -97.5 -13.5t-76.5 -46.5t-56 -89t-36 -141q-9 -60 -9 -105q0 -52 12 -87.5t35.5 -57t58 -31t78.5 -9.5q54 0 97.5 14t77 47.5t56.5 89.5t37 141q5 29 6.5 54t1.5 48zM431 788l-98 111l1 6h107l57 -113v-4h-67z" />
<glyph unicode="&#xd3;" horiz-adv-x="766" d="M80 0zM514 905h109l-1 -6l-127 -111h-76v4zM88 351q13 96 42 164.5t73.5 112t105.5 64t138 20.5q137 0 201.5 -59.5t64.5 -193.5q0 -24 -1.5 -51t-6.5 -57q-27 -192 -116.5 -277.5t-243.5 -85.5q-134 0 -199.5 61t-65.5 196q0 24 2 50.5t6 55.5zM626 454q0 52 -12 88 t-35.5 57.5t-58 31t-79.5 9.5q-54 0 -97.5 -13.5t-76.5 -46.5t-56 -89t-36 -141q-9 -60 -9 -105q0 -52 12 -87.5t35.5 -57t58 -31t78.5 -9.5q54 0 97.5 14t77 47.5t56.5 89.5t37 141q5 29 6.5 54t1.5 48z" />
<glyph unicode="&#xd4;" horiz-adv-x="766" d="M80 0zM469 857l-80 -69h-94v3l137 114h82l101 -114v-3h-91zM88 351q13 96 42 164.5t73.5 112t105.5 64t138 20.5q137 0 201.5 -59.5t64.5 -193.5q0 -24 -1.5 -51t-6.5 -57q-27 -192 -116.5 -277.5t-243.5 -85.5q-134 0 -199.5 61t-65.5 196q0 24 2 50.5t6 55.5zM626 454 q0 52 -12 88t-35.5 57.5t-58 31t-79.5 9.5q-54 0 -97.5 -13.5t-76.5 -46.5t-56 -89t-36 -141q-9 -60 -9 -105q0 -52 12 -87.5t35.5 -57t58 -31t78.5 -9.5q54 0 97.5 14t77 47.5t56.5 89.5t37 141q5 29 6.5 54t1.5 48z" />
<glyph unicode="&#xd5;" horiz-adv-x="766" d="M80 0zM88 351q13 96 42 164.5t73.5 112t105.5 64t138 20.5q137 0 201.5 -59.5t64.5 -193.5q0 -24 -1.5 -51t-6.5 -57q-27 -192 -116.5 -277.5t-243.5 -85.5q-134 0 -199.5 61t-65.5 196q0 24 2 50.5t6 55.5zM626 454q0 52 -12 88t-35.5 57.5t-58 31t-79.5 9.5 q-54 0 -97.5 -13.5t-76.5 -46.5t-56 -89t-36 -141q-9 -60 -9 -105q0 -52 12 -87.5t35.5 -57t58 -31t78.5 -9.5q54 0 97.5 14t77 47.5t56.5 89.5t37 141q5 29 6.5 54t1.5 48zM563 898h64q-2 -29 -12 -48.5t-25 -31t-32.5 -16.5t-33.5 -5q-20 0 -36.5 6.5t-30.5 14t-27 14 t-26 6.5q-18 0 -25.5 -11.5t-9.5 -25.5h-65q3 29 13 48.5t24.5 31t31 16.5t33.5 5q21 0 37.5 -6.5t31 -14t27 -14t25.5 -6.5q18 0 26 11t10 26z" />
<glyph unicode="&#xd6;" horiz-adv-x="766" d="M80 0zM548 794q-27 0 -39 12t-12 34q0 35 18.5 51t46.5 16q25 0 38.5 -12.5t13.5 -35.5q0 -32 -18.5 -48.5t-47.5 -16.5zM375 794q-50 0 -50 46q0 35 18.5 51t46.5 16q24 0 37.5 -12t13.5 -35q0 -32 -18 -49t-48 -17zM88 351q13 96 42 164.5t73.5 112t105.5 64t138 20.5 q137 0 201.5 -59.5t64.5 -193.5q0 -24 -1.5 -51t-6.5 -57q-27 -192 -116.5 -277.5t-243.5 -85.5q-134 0 -199.5 61t-65.5 196q0 24 2 50.5t6 55.5zM626 454q0 52 -12 88t-35.5 57.5t-58 31t-79.5 9.5q-54 0 -97.5 -13.5t-76.5 -46.5t-56 -89t-36 -141q-9 -60 -9 -105 q0 -52 12 -87.5t35.5 -57t58 -31t78.5 -9.5q54 0 97.5 14t77 47.5t56.5 89.5t37 141q5 29 6.5 54t1.5 48z" />
<glyph unicode="&#xd7;" horiz-adv-x="495" d="M96 139l-41 50l146 128l-104 127l56 48l103 -127l144 126l41 -50l-144 -126l103 -124l-55 -49l-103 125z" />
<glyph unicode="&#xd8;" horiz-adv-x="766" d="M-2 0l108 106q-26 53 -26 142q0 23 2.5 51.5t5.5 51.5q26 186 113 273.5t246 87.5q71 0 122.5 -16.5t85.5 -51.5l57 56h92l-113 -110q25 -54 25 -136q0 -20 -2.5 -48.5t-6.5 -54.5q-27 -188 -115 -275.5t-245 -87.5q-69 0 -119.5 15.5t-84.5 48.5l-53 -52h-92zM443 640 q-55 0 -99 -14t-77 -47.5t-56 -89t-36 -138.5q-4 -23 -6.5 -53t-2.5 -53q0 -21 2 -39t6 -34l421 413q-23 31 -62 43t-90 12zM350 60q55 0 98.5 14t77 48t56.5 90t37 139q4 23 6.5 53t2.5 53q0 36 -6 65l-419 -411q23 -29 60 -40t87 -11z" />
<glyph unicode="&#xd9;" horiz-adv-x="738" d="M87 0zM561 274l67 426h87l-67 -425q-23 -143 -104.5 -215t-211.5 -72q-119 0 -182 56t-63 165q0 31 6 66l67 425h87l-68 -425q-3 -17 -3.5 -30.5t-0.5 -28.5q0 -75 39 -115t122 -40q89 0 147.5 49.5t77.5 163.5zM420 788l-98 111l1 6h107l57 -113v-4h-67z" />
<glyph unicode="&#xda;" horiz-adv-x="738" d="M87 0zM503 905h109l-1 -6l-127 -111h-76v4zM561 274l67 426h87l-67 -425q-23 -143 -104.5 -215t-211.5 -72q-119 0 -182 56t-63 165q0 31 6 66l67 425h87l-68 -425q-3 -17 -3.5 -30.5t-0.5 -28.5q0 -75 39 -115t122 -40q89 0 147.5 49.5t77.5 163.5z" />
<glyph unicode="&#xdb;" horiz-adv-x="738" d="M87 0zM458 857l-80 -69h-94v3l137 114h82l101 -114v-3h-91zM561 274l67 426h87l-67 -425q-23 -143 -104.5 -215t-211.5 -72q-119 0 -182 56t-63 165q0 31 6 66l67 425h87l-68 -425q-3 -17 -3.5 -30.5t-0.5 -28.5q0 -75 39 -115t122 -40q89 0 147.5 49.5t77.5 163.5z" />
<glyph unicode="&#xdc;" horiz-adv-x="738" d="M87 0zM537 794q-27 0 -39 12t-12 34q0 35 18.5 51t46.5 16q25 0 38.5 -12.5t13.5 -35.5q0 -32 -18.5 -48.5t-47.5 -16.5zM364 794q-50 0 -50 46q0 35 18.5 51t46.5 16q24 0 37.5 -12t13.5 -35q0 -32 -18 -49t-48 -17zM561 274l67 426h87l-67 -425q-23 -143 -104.5 -215 t-211.5 -72q-119 0 -182 56t-63 165q0 31 6 66l67 425h87l-68 -425q-3 -17 -3.5 -30.5t-0.5 -28.5q0 -75 39 -115t122 -40q89 0 147.5 49.5t77.5 163.5z" />
<glyph unicode="&#xdd;" horiz-adv-x="590" d="M68 0zM246 280l-178 420h91l142 -344l250 344h96l-314 -420l-44 -280h-87zM421 905h109l-1 -6l-127 -111h-76v4z" />
<glyph unicode="&#xde;" horiz-adv-x="644" d="M178 147l-22 -147h-89l111 700h89l-21 -131h175q103 0 152.5 -43t49.5 -124q0 -62 -19.5 -110t-54.5 -80t-84 -48.5t-108 -16.5h-179zM191 223h183q34 0 64 10t51.5 31t34 52.5t12.5 73.5q0 50 -29 76.5t-90 26.5h-183z" />
<glyph unicode="&#xdf;" horiz-adv-x="592" d="M348 341h-51l11 69h50q54 0 87 31t33 97q0 52 -31.5 77.5t-86.5 25.5q-64 0 -103.5 -36.5t-51.5 -111.5l-78 -493h-84l80 507q16 100 80 152.5t164 52.5q90 0 142 -44t52 -125q0 -61 -27 -103.5t-67 -64.5q89 -40 89 -146q0 -53 -16.5 -96.5t-46.5 -75t-71 -48.5t-89 -17 q-35 0 -61.5 6.5t-54.5 20.5l27 67q17 -9 39.5 -15t45.5 -6q66 0 105.5 41.5t39.5 117.5q0 24 -6 45t-21 37t-39 25.5t-60 9.5z" />
<glyph unicode="&#xe0;" horiz-adv-x="557" d="M40 0zM206 57q68 0 118 45t63 129h-121q-68 0 -106 -26.5t-38 -77.5q0 -35 21.5 -52.5t62.5 -17.5zM181 -11q-62 0 -101.5 33t-39.5 97q0 36 13.5 68.5t42 57t73 38.5t106.5 14h123q3 21 3 38q0 55 -28 75t-82 20q-53 0 -89.5 -18t-61.5 -47l-41 52q35 41 84.5 61.5 t121.5 20.5q41 0 74.5 -7.5t57.5 -25t37 -46t13 -70.5q0 -11 -1 -24t-3 -27l-47 -299h-73l6 88q-30 -47 -78 -73t-110 -26zM286 574l-98 111l1 6h107l57 -113v-4h-67z" />
<glyph unicode="&#xe1;" horiz-adv-x="557" d="M40 0zM206 57q68 0 118 45t63 129h-121q-68 0 -106 -26.5t-38 -77.5q0 -35 21.5 -52.5t62.5 -17.5zM181 -11q-62 0 -101.5 33t-39.5 97q0 36 13.5 68.5t42 57t73 38.5t106.5 14h123q3 21 3 38q0 55 -28 75t-82 20q-53 0 -89.5 -18t-61.5 -47l-41 52q35 41 84.5 61.5 t121.5 20.5q41 0 74.5 -7.5t57.5 -25t37 -46t13 -70.5q0 -11 -1 -24t-3 -27l-47 -299h-73l6 88q-30 -47 -78 -73t-110 -26zM369 691h109l-1 -6l-127 -111h-76v4z" />
<glyph unicode="&#xe2;" horiz-adv-x="557" d="M40 0zM206 57q68 0 118 45t63 129h-121q-68 0 -106 -26.5t-38 -77.5q0 -35 21.5 -52.5t62.5 -17.5zM181 -11q-62 0 -101.5 33t-39.5 97q0 36 13.5 68.5t42 57t73 38.5t106.5 14h123q3 21 3 38q0 55 -28 75t-82 20q-53 0 -89.5 -18t-61.5 -47l-41 52q35 41 84.5 61.5 t121.5 20.5q41 0 74.5 -7.5t57.5 -25t37 -46t13 -70.5q0 -11 -1 -24t-3 -27l-47 -299h-73l6 88q-30 -47 -78 -73t-110 -26zM325 643l-80 -69h-94v3l137 114h82l101 -114v-3h-91z" />
<glyph unicode="&#xe3;" horiz-adv-x="557" d="M40 0zM206 57q68 0 118 45t63 129h-121q-68 0 -106 -26.5t-38 -77.5q0 -35 21.5 -52.5t62.5 -17.5zM181 -11q-62 0 -101.5 33t-39.5 97q0 36 13.5 68.5t42 57t73 38.5t106.5 14h123q3 21 3 38q0 55 -28 75t-82 20q-53 0 -89.5 -18t-61.5 -47l-41 52q35 41 84.5 61.5 t121.5 20.5q41 0 74.5 -7.5t57.5 -25t37 -46t13 -70.5q0 -11 -1 -24t-3 -27l-47 -299h-73l6 88q-30 -47 -78 -73t-110 -26zM418 684h64q-2 -29 -12 -48.5t-25 -31t-32.5 -16.5t-33.5 -5q-20 0 -36.5 6.5t-30.5 14t-27 14t-26 6.5q-18 0 -25.5 -11.5t-9.5 -25.5h-65 q3 29 13 48.5t24.5 31t31 16.5t33.5 5q21 0 37.5 -6.5t31 -14t27 -14t25.5 -6.5q18 0 26 11t10 26z" />
<glyph unicode="&#xe4;" horiz-adv-x="557" d="M40 0zM206 57q68 0 118 45t63 129h-121q-68 0 -106 -26.5t-38 -77.5q0 -35 21.5 -52.5t62.5 -17.5zM181 -11q-62 0 -101.5 33t-39.5 97q0 36 13.5 68.5t42 57t73 38.5t106.5 14h123q3 21 3 38q0 55 -28 75t-82 20q-53 0 -89.5 -18t-61.5 -47l-41 52q35 41 84.5 61.5 t121.5 20.5q41 0 74.5 -7.5t57.5 -25t37 -46t13 -70.5q0 -11 -1 -24t-3 -27l-47 -299h-73l6 88q-30 -47 -78 -73t-110 -26zM403 580q-27 0 -39 12t-12 34q0 35 18.5 51t46.5 16q25 0 38.5 -12.5t13.5 -35.5q0 -32 -18.5 -48.5t-47.5 -16.5zM230 580q-50 0 -50 46 q0 35 18.5 51t46.5 16q24 0 37.5 -12t13.5 -35q0 -32 -18 -49t-48 -17z" />
<glyph unicode="&#xe5;" horiz-adv-x="557" d="M40 0zM206 57q68 0 118 45t63 129h-121q-68 0 -106 -26.5t-38 -77.5q0 -35 21.5 -52.5t62.5 -17.5zM181 -11q-62 0 -101.5 33t-39.5 97q0 36 13.5 68.5t42 57t73 38.5t106.5 14h123q3 21 3 38q0 55 -28 75t-82 20q-53 0 -89.5 -18t-61.5 -47l-41 52q35 41 84.5 61.5 t121.5 20.5q41 0 74.5 -7.5t57.5 -25t37 -46t13 -70.5q0 -11 -1 -24t-3 -27l-47 -299h-73l6 88q-30 -47 -78 -73t-110 -26zM312 547q-37 0 -60 21t-23 59q0 47 30.5 77.5t76.5 30.5q37 0 60 -21.5t23 -57.5q0 -48 -31 -78.5t-76 -30.5zM333 694q-24 0 -40.5 -17.5 t-16.5 -46.5q0 -19 11 -30.5t28 -11.5q22 0 39.5 17.5t17.5 46.5q0 19 -11 30.5t-28 11.5z" />
<glyph unicode="&#xe6;" horiz-adv-x="873" d="M183 -12q-63 0 -101.5 32t-38.5 97q0 34 12.5 65.5t39.5 55.5t70.5 38.5t106.5 14.5h122q2 13 3.5 23t1.5 21q0 55 -28.5 75t-82.5 20q-53 0 -89.5 -18t-61.5 -47l-38 52q34 41 83 61.5t121 20.5q61 0 102.5 -20t58.5 -68q64 88 188 88q92 0 134 -50t42 -132 q0 -21 -3 -44t-11 -47h-346q-3 -26 -3 -46q0 -68 31.5 -96t91.5 -28q49 0 84.5 16t64.5 61l58 -38q-38 -56 -89 -81.5t-128 -25.5q-145 0 -182 109q-32 -51 -85.5 -80t-127.5 -29zM642 431q-58 0 -99 -32.5t-62 -107.5h265q1 8 1.5 15t0.5 14q0 57 -27.5 84t-78.5 27z M208 57q69 0 114 40.5t59 122.5l1 6h-118q-68 0 -103 -25t-35 -73q0 -71 82 -71z" />
<glyph unicode="&#xe7;" horiz-adv-x="523" d="M53 0zM406 134l59 -39q-36 -60 -90.5 -83.5t-121.5 -23.5q-200 0 -200 191q0 14 1.5 30t3.5 33q20 130 85.5 193.5t172.5 63.5q85 0 128 -34t60 -90l-67 -32q-13 40 -40.5 63.5t-85.5 23.5q-71 0 -112.5 -45.5t-56.5 -142.5q-6 -35 -6 -62q0 -68 30 -95.5t96 -27.5 q45 0 80 16t64 61zM206 -99l-14 12l37 91h63l-31 -63q31 -2 52.5 -21t21.5 -54q0 -25 -10.5 -43.5t-27.5 -31t-39.5 -18.5t-47.5 -6q-38 0 -67 15t-42 47l47 38q10 -23 24.5 -35t43.5 -12q24 0 40 10.5t16 33.5q0 21 -18.5 29t-47.5 8z" />
<glyph unicode="&#xe8;" horiz-adv-x="541" d="M53 0zM248 -12q-94 0 -144.5 46t-50.5 146q0 14 1.5 30t3.5 33q18 126 85 191t179 65q46 0 79 -13.5t54.5 -37.5t31.5 -57.5t10 -73.5q0 -24 -3.5 -48.5t-9.5 -50.5h-346q0 -1 -0.5 -5.5t-1 -10.5t-0.5 -12v-10q0 -67 30.5 -95t90.5 -28q50 0 85.5 15.5t64.5 60.5l58 -38 q-38 -56 -89 -81.5t-128 -25.5zM312 431q-62 0 -103 -33.5t-60 -113.5h265q1 8 1.5 17t0.5 19q0 60 -27 85.5t-77 25.5zM302 574l-98 111l1 6h107l57 -113v-4h-67z" />
<glyph unicode="&#xe9;" horiz-adv-x="541" d="M53 0zM385 691h109l-1 -6l-127 -111h-76v4zM248 -12q-94 0 -144.5 46t-50.5 146q0 14 1.5 30t3.5 33q18 126 85 191t179 65q46 0 79 -13.5t54.5 -37.5t31.5 -57.5t10 -73.5q0 -24 -3.5 -48.5t-9.5 -50.5h-346q0 -1 -0.5 -5.5t-1 -10.5t-0.5 -12v-10q0 -67 30.5 -95 t90.5 -28q50 0 85.5 15.5t64.5 60.5l58 -38q-38 -56 -89 -81.5t-128 -25.5zM312 431q-62 0 -103 -33.5t-60 -113.5h265q1 8 1.5 17t0.5 19q0 60 -27 85.5t-77 25.5z" />
<glyph unicode="&#xea;" horiz-adv-x="541" d="M53 0zM340 643l-80 -69h-94v3l137 114h82l101 -114v-3h-91zM248 -12q-94 0 -144.5 46t-50.5 146q0 14 1.5 30t3.5 33q18 126 85 191t179 65q46 0 79 -13.5t54.5 -37.5t31.5 -57.5t10 -73.5q0 -24 -3.5 -48.5t-9.5 -50.5h-346q0 -1 -0.5 -5.5t-1 -10.5t-0.5 -12v-10 q0 -67 30.5 -95t90.5 -28q50 0 85.5 15.5t64.5 60.5l58 -38q-38 -56 -89 -81.5t-128 -25.5zM312 431q-62 0 -103 -33.5t-60 -113.5h265q1 8 1.5 17t0.5 19q0 60 -27 85.5t-77 25.5z" />
<glyph unicode="&#xeb;" horiz-adv-x="541" d="M53 0zM418 580q-27 0 -39 12t-12 34q0 35 18.5 51t46.5 16q25 0 38.5 -12.5t13.5 -35.5q0 -32 -18.5 -48.5t-47.5 -16.5zM245 580q-50 0 -50 46q0 35 18.5 51t46.5 16q24 0 37.5 -12t13.5 -35q0 -32 -18 -49t-48 -17zM248 -12q-94 0 -144.5 46t-50.5 146q0 14 1.5 30 t3.5 33q18 126 85 191t179 65q46 0 79 -13.5t54.5 -37.5t31.5 -57.5t10 -73.5q0 -24 -3.5 -48.5t-9.5 -50.5h-346q0 -1 -0.5 -5.5t-1 -10.5t-0.5 -12v-10q0 -67 30.5 -95t90.5 -28q50 0 85.5 15.5t64.5 60.5l58 -38q-38 -56 -89 -81.5t-128 -25.5zM312 431q-62 0 -103 -33.5 t-60 -113.5h265q1 8 1.5 17t0.5 19q0 60 -27 85.5t-77 25.5z" />
<glyph unicode="&#xec;" horiz-adv-x="271" d="M55 0zM131 487h85l-76 -487h-85zM155 574l-98 111l1 6h107l57 -113v-4h-67z" />
<glyph unicode="&#xed;" horiz-adv-x="271" d="M55 0zM131 487h85l-76 -487h-85zM239 691h109l-1 -6l-127 -111h-76v4z" />
<glyph unicode="&#xee;" horiz-adv-x="271" d="M20 0zM131 487h85l-76 -487h-85zM194 643l-80 -69h-94v3l137 114h82l101 -114v-3h-91z" />
<glyph unicode="&#xef;" horiz-adv-x="271" d="M49 0zM131 487h85l-76 -487h-85zM272 580q-27 0 -39 12t-12 34q0 35 18.5 51t46.5 16q25 0 38.5 -12.5t13.5 -35.5q0 -32 -18.5 -48.5t-47.5 -16.5zM99 580q-50 0 -50 46q0 35 18.5 51t46.5 16q24 0 37.5 -12t13.5 -35q0 -32 -18 -49t-48 -17z" />
<glyph unicode="&#xf0;" horiz-adv-x="582" d="M545 717l24 -46l-87 -52q29 -47 40.5 -100.5t11.5 -113.5q0 -30 -2.5 -63.5t-7.5 -79.5q-17 -142 -86.5 -208t-181.5 -66q-99 0 -151 46t-52 148q0 14 1.5 28.5t3.5 31.5q17 131 84.5 192.5t180.5 61.5q91 0 136 -56q-3 41 -14 75.5t-31 63.5l-90 -53l-24 47l78 47 q-47 41 -118 61l36 59q95 -23 152 -79zM438 241q2 17 3.5 33t1.5 29q0 68 -30.5 96.5t-92.5 28.5q-78 0 -122 -43t-58 -144q-2 -17 -3.5 -32t-1.5 -28q0 -66 31.5 -95t93.5 -29q73 0 118 42.5t60 141.5z" />
<glyph unicode="&#xf1;" horiz-adv-x="616" d="M53 0zM53 0l77 487h73l-5 -91q36 56 87.5 79.5t107.5 23.5q78 0 115.5 -38.5t37.5 -108.5q0 -13 -1.5 -25.5t-3.5 -26.5l-47 -300h-84l46 288q2 11 2.5 22t0.5 20q0 96 -99 96q-34 0 -64 -12.5t-54.5 -36t-41.5 -57t-24 -75.5l-39 -245h-84zM453 684h64q-2 -29 -12 -48.5 t-25 -31t-32.5 -16.5t-33.5 -5q-20 0 -36.5 6.5t-30.5 14t-27 14t-26 6.5q-18 0 -25.5 -11.5t-9.5 -25.5h-65q3 29 13 48.5t24.5 31t31 16.5t33.5 5q21 0 37.5 -6.5t31 -14t27 -14t25.5 -6.5q18 0 26 11t10 26z" />
<glyph unicode="&#xf2;" horiz-adv-x="578" d="M53 0zM58 245q19 132 87.5 193t179.5 61q100 0 150 -44.5t50 -141.5q0 -16 -1.5 -32.5t-3.5 -35.5q-18 -132 -85.5 -194.5t-181.5 -62.5q-98 0 -149 45.5t-51 145.5q0 15 1.5 31.5t3.5 34.5zM436 244q6 36 6 64q0 67 -31 94.5t-94 27.5q-38 0 -67.5 -9.5t-50.5 -31.5 t-35 -57.5t-22 -87.5q-6 -38 -6 -66q0 -66 30 -93.5t92 -27.5q37 0 66.5 10t51.5 32t37 58t23 87zM309 574l-98 111l1 6h107l57 -113v-4h-67z" />
<glyph unicode="&#xf3;" horiz-adv-x="578" d="M53 0zM392 691h109l-1 -6l-127 -111h-76v4zM58 245q19 132 87.5 193t179.5 61q100 0 150 -44.5t50 -141.5q0 -16 -1.5 -32.5t-3.5 -35.5q-18 -132 -85.5 -194.5t-181.5 -62.5q-98 0 -149 45.5t-51 145.5q0 15 1.5 31.5t3.5 34.5zM436 244q6 36 6 64q0 67 -31 94.5 t-94 27.5q-38 0 -67.5 -9.5t-50.5 -31.5t-35 -57.5t-22 -87.5q-6 -38 -6 -66q0 -66 30 -93.5t92 -27.5q37 0 66.5 10t51.5 32t37 58t23 87z" />
<glyph unicode="&#xf4;" horiz-adv-x="578" d="M53 0zM348 643l-80 -69h-94v3l137 114h82l101 -114v-3h-91zM58 245q19 132 87.5 193t179.5 61q100 0 150 -44.5t50 -141.5q0 -16 -1.5 -32.5t-3.5 -35.5q-18 -132 -85.5 -194.5t-181.5 -62.5q-98 0 -149 45.5t-51 145.5q0 15 1.5 31.5t3.5 34.5zM436 244q6 36 6 64 q0 67 -31 94.5t-94 27.5q-38 0 -67.5 -9.5t-50.5 -31.5t-35 -57.5t-22 -87.5q-6 -38 -6 -66q0 -66 30 -93.5t92 -27.5q37 0 66.5 10t51.5 32t37 58t23 87z" />
<glyph unicode="&#xf5;" horiz-adv-x="578" d="M53 0zM58 245q19 132 87.5 193t179.5 61q100 0 150 -44.5t50 -141.5q0 -16 -1.5 -32.5t-3.5 -35.5q-18 -132 -85.5 -194.5t-181.5 -62.5q-98 0 -149 45.5t-51 145.5q0 15 1.5 31.5t3.5 34.5zM436 244q6 36 6 64q0 67 -31 94.5t-94 27.5q-38 0 -67.5 -9.5t-50.5 -31.5 t-35 -57.5t-22 -87.5q-6 -38 -6 -66q0 -66 30 -93.5t92 -27.5q37 0 66.5 10t51.5 32t37 58t23 87zM441 684h64q-2 -29 -12 -48.5t-25 -31t-32.5 -16.5t-33.5 -5q-20 0 -36.5 6.5t-30.5 14t-27 14t-26 6.5q-18 0 -25.5 -11.5t-9.5 -25.5h-65q3 29 13 48.5t24.5 31t31 16.5 t33.5 5q21 0 37.5 -6.5t31 -14t27 -14t25.5 -6.5q18 0 26 11t10 26z" />
<glyph unicode="&#xf6;" horiz-adv-x="578" d="M53 0zM426 580q-27 0 -39 12t-12 34q0 35 18.5 51t46.5 16q25 0 38.5 -12.5t13.5 -35.5q0 -32 -18.5 -48.5t-47.5 -16.5zM253 580q-50 0 -50 46q0 35 18.5 51t46.5 16q24 0 37.5 -12t13.5 -35q0 -32 -18 -49t-48 -17zM58 245q19 132 87.5 193t179.5 61q100 0 150 -44.5 t50 -141.5q0 -16 -1.5 -32.5t-3.5 -35.5q-18 -132 -85.5 -194.5t-181.5 -62.5q-98 0 -149 45.5t-51 145.5q0 15 1.5 31.5t3.5 34.5zM436 244q6 36 6 64q0 67 -31 94.5t-94 27.5q-38 0 -67.5 -9.5t-50.5 -31.5t-35 -57.5t-22 -87.5q-6 -38 -6 -66q0 -66 30 -93.5t92 -27.5 q37 0 66.5 10t51.5 32t37 58t23 87z" />
<glyph unicode="&#xf7;" horiz-adv-x="503" d="M268 418q-26 0 -38 12.5t-12 33.5q0 36 18.5 51.5t46.5 15.5q24 0 37.5 -11.5t13.5 -34.5q0 -33 -18 -50t-48 -17zM455 345l-11 -71h-398l11 71h398zM217 90q-26 0 -38.5 12.5t-12.5 34.5q0 34 18.5 50.5t46.5 16.5q52 0 52 -48q0 -33 -19 -49.5t-47 -16.5z" />
<glyph unicode="&#xf8;" horiz-adv-x="578" d="M519 487h86l-97 -87q17 -40 17 -94q0 -14 -1.5 -29.5t-3.5 -32.5q-17 -127 -85 -191.5t-182 -64.5q-101 0 -149 47l-39 -35h-85l91 82q-18 40 -18 98q0 15 1 31t3 33q18 127 85 191t181 64q102 0 153 -51zM319 431q-76 0 -119.5 -45t-59.5 -143q-2 -17 -3.5 -32t-1.5 -29 q0 -21 3 -39l278 251q-30 37 -97 37zM259 57q76 0 119.5 44.5t58.5 141.5q3 17 4 32t1 29q0 17 -3 34l-275 -249q29 -32 95 -32z" />
<glyph unicode="&#xf9;" horiz-adv-x="614" d="M71 0zM231 -12q-82 0 -121 40.5t-39 114.5q0 12 0.5 23.5t2.5 24.5l47 296h85l-46 -284q-2 -12 -2 -23v-21q0 -101 99 -101q70 0 116.5 45.5t62.5 133.5l39 250h85l-78 -487h-73l7 86q-35 -53 -84 -75.5t-101 -22.5zM327 574l-98 111l1 6h107l57 -113v-4h-67z" />
<glyph unicode="&#xfa;" horiz-adv-x="614" d="M71 0zM410 691h109l-1 -6l-127 -111h-76v4zM231 -12q-82 0 -121 40.5t-39 114.5q0 12 0.5 23.5t2.5 24.5l47 296h85l-46 -284q-2 -12 -2 -23v-21q0 -101 99 -101q70 0 116.5 45.5t62.5 133.5l39 250h85l-78 -487h-73l7 86q-35 -53 -84 -75.5t-101 -22.5z" />
<glyph unicode="&#xfb;" horiz-adv-x="614" d="M71 0zM365 643l-80 -69h-94v3l137 114h82l101 -114v-3h-91zM231 -12q-82 0 -121 40.5t-39 114.5q0 12 0.5 23.5t2.5 24.5l47 296h85l-46 -284q-2 -12 -2 -23v-21q0 -101 99 -101q70 0 116.5 45.5t62.5 133.5l39 250h85l-78 -487h-73l7 86q-35 -53 -84 -75.5t-101 -22.5z " />
<glyph unicode="&#xfc;" horiz-adv-x="614" d="M71 0zM443 580q-27 0 -39 12t-12 34q0 35 18.5 51t46.5 16q25 0 38.5 -12.5t13.5 -35.5q0 -32 -18.5 -48.5t-47.5 -16.5zM270 580q-50 0 -50 46q0 35 18.5 51t46.5 16q24 0 37.5 -12t13.5 -35q0 -32 -18 -49t-48 -17zM231 -12q-82 0 -121 40.5t-39 114.5q0 12 0.5 23.5 t2.5 24.5l47 296h85l-46 -284q-2 -12 -2 -23v-21q0 -101 99 -101q70 0 116.5 45.5t62.5 133.5l39 250h85l-78 -487h-73l7 86q-35 -53 -84 -75.5t-101 -22.5z" />
<glyph unicode="&#xfd;" horiz-adv-x="499" d="M0 0zM133 -65l29 56l-119 496h88l89 -406l214 406h88l-320 -580q-40 -72 -87.5 -97.5t-103.5 -25.5q-20 0 -36.5 2.5t-37.5 10.5l25 72q15 -5 28.5 -8t33.5 -3q11 0 24.5 2t27.5 10t28.5 23t28.5 42zM352 691h109l-1 -6l-127 -111h-76v4z" />
<glyph unicode="&#xfe;" horiz-adv-x="607" d="M177 242q-2 -15 -3 -28.5t-1 -26.5q0 -69 33 -100t87 -31q72 0 114 46.5t57 140.5q3 19 4.5 32t1.5 30q0 64 -29 94.5t-85 30.5q-65 0 -114 -44.5t-65 -143.5zM250 700l-47 -294q64 93 182 93q83 0 125.5 -47.5t42.5 -141.5q0 -18 -1.5 -32t-3.5 -34q-17 -121 -80 -188.5 t-169 -67.5q-52 0 -90.5 20.5t-58.5 63.5l-40 -258h-86l142 886h84z" />
<glyph unicode="&#xff;" horiz-adv-x="499" d="M0 0zM133 -65l29 56l-119 496h88l89 -406l214 406h88l-320 -580q-40 -72 -87.5 -97.5t-103.5 -25.5q-20 0 -36.5 2.5t-37.5 10.5l25 72q15 -5 28.5 -8t33.5 -3q11 0 24.5 2t27.5 10t28.5 23t28.5 42zM385 580q-27 0 -39 12t-12 34q0 35 18.5 51t46.5 16q25 0 38.5 -12.5 t13.5 -35.5q0 -32 -18.5 -48.5t-47.5 -16.5zM212 580q-50 0 -50 46q0 35 18.5 51t46.5 16q24 0 37.5 -12t13.5 -35q0 -32 -18 -49t-48 -17z" />
<glyph unicode="&#x100;" d="M0 0zM372 619l-194 -401h264zM480 0l-24 143h-315l-70 -143h-90l350 700h110l129 -700h-90zM538 874l-10 -59h-249l9 59h250z" />
<glyph unicode="&#x101;" horiz-adv-x="557" d="M40 0zM206 57q68 0 118 45t63 129h-121q-68 0 -106 -26.5t-38 -77.5q0 -35 21.5 -52.5t62.5 -17.5zM181 -11q-62 0 -101.5 33t-39.5 97q0 36 13.5 68.5t42 57t73 38.5t106.5 14h123q3 21 3 38q0 55 -28 75t-82 20q-53 0 -89.5 -18t-61.5 -47l-41 52q35 41 84.5 61.5 t121.5 20.5q41 0 74.5 -7.5t57.5 -25t37 -46t13 -70.5q0 -11 -1 -24t-3 -27l-47 -299h-73l6 88q-30 -47 -78 -73t-110 -26zM454 660l-10 -59h-249l9 59h250z" />
<glyph unicode="&#x102;" d="M0 0zM372 619l-194 -401h264zM480 0l-24 143h-315l-70 -143h-90l350 700h110l129 -700h-90zM490 905h66q-5 -35 -18 -59t-33 -38t-46.5 -20t-59.5 -6t-58 6t-41.5 20t-22.5 38t-1 59h66q-7 -39 9 -53t53 -14q38 0 59 14t27 53z" />
<glyph unicode="&#x103;" horiz-adv-x="557" d="M40 0zM206 57q68 0 118 45t63 129h-121q-68 0 -106 -26.5t-38 -77.5q0 -35 21.5 -52.5t62.5 -17.5zM181 -11q-62 0 -101.5 33t-39.5 97q0 36 13.5 68.5t42 57t73 38.5t106.5 14h123q3 21 3 38q0 55 -28 75t-82 20q-53 0 -89.5 -18t-61.5 -47l-41 52q35 41 84.5 61.5 t121.5 20.5q41 0 74.5 -7.5t57.5 -25t37 -46t13 -70.5q0 -11 -1 -24t-3 -27l-47 -299h-73l6 88q-30 -47 -78 -73t-110 -26zM404 691h66q-5 -35 -18 -59t-33 -38t-46.5 -20t-59.5 -6t-58 6t-41.5 20t-22.5 38t-1 59h66q-7 -39 9 -53t53 -14q38 0 59 14t27 53z" />
<glyph unicode="&#x104;" d="M498 -212q-20 0 -38 4t-32.5 14.5t-23 28.5t-8.5 45q0 48 24 81.5t57 52.5l-21 129h-315l-70 -143h-90l350 700h110l129 -700h-10q-23 -2 -41.5 -12.5t-31 -26t-19.5 -33.5t-7 -36q0 -24 12.5 -33.5t35.5 -9.5q36 0 66 18l9 -56q-20 -11 -40.5 -17t-45.5 -6zM372 619 l-194 -401h264z" />
<glyph unicode="&#x105;" horiz-adv-x="557" d="M40 0zM206 57q68 0 118 45t63 129h-121q-68 0 -106 -26.5t-38 -77.5q0 -35 21.5 -52.5t62.5 -17.5zM181 -11q-62 0 -101.5 33t-39.5 97q0 36 13.5 68.5t42 57t73 38.5t106.5 14h123q3 21 3 38q0 55 -28 75t-82 20q-53 0 -89.5 -18t-61.5 -47l-41 52q35 41 84.5 61.5 t121.5 20.5q41 0 74.5 -7.5t57.5 -25t37 -46t13 -70.5q0 -11 -1 -24t-3 -27l-47 -299h-73l6 88q-30 -47 -78 -73t-110 -26zM372 -212q-20 0 -38.5 4t-32.5 14.5t-22.5 28.5t-8.5 45q0 37 15.5 66.5t39.5 49.5t53 30.5t55 10.5l1 -37q-23 -2 -41.5 -12.5t-31.5 -26 t-19.5 -33.5t-6.5 -36q0 -24 12.5 -33.5t35.5 -9.5q36 0 65 18l10 -56q-20 -11 -40.5 -17t-45.5 -6z" />
<glyph unicode="&#x106;" horiz-adv-x="682" d="M80 0zM519 906h109l-1 -6l-127 -111h-76v4zM353 -12q-68 0 -119 14t-85.5 45t-51.5 80t-17 119q0 27 1.5 50.5t6.5 54.5q14 99 44 167.5t75 111.5t104 62.5t130 19.5q101 0 157.5 -37t83.5 -110l-76 -41q-22 65 -61.5 91t-109.5 26q-48 0 -89.5 -13t-74.5 -45.5 t-57.5 -88.5t-38.5 -142q-9 -57 -9 -106q0 -53 12.5 -89t37 -57.5t60 -30.5t81.5 -9q64 0 116.5 21.5t94.5 84.5l56 -51q-26 -38 -56 -62.5t-64.5 -39t-72.5 -20t-78 -5.5z" />
<glyph unicode="&#x107;" horiz-adv-x="523" d="M53 0zM392 691h109l-1 -6l-127 -111h-76v4zM406 134l59 -39q-36 -60 -90.5 -83.5t-121.5 -23.5q-200 0 -200 191q0 14 1.5 30t3.5 33q20 130 85.5 193.5t172.5 63.5q85 0 128 -34t60 -90l-67 -32q-13 40 -40.5 63.5t-85.5 23.5q-71 0 -112.5 -45.5t-56.5 -142.5 q-6 -35 -6 -62q0 -68 30 -95.5t96 -27.5q45 0 80 16t64 61z" />
<glyph unicode="&#x108;" horiz-adv-x="682" d="M80 0zM474 858l-80 -69h-94v3l137 114h82l101 -114v-3h-91zM353 -12q-68 0 -119 14t-85.5 45t-51.5 80t-17 119q0 27 1.5 50.5t6.5 54.5q14 99 44 167.5t75 111.5t104 62.5t130 19.5q101 0 157.5 -37t83.5 -110l-76 -41q-22 65 -61.5 91t-109.5 26q-48 0 -89.5 -13 t-74.5 -45.5t-57.5 -88.5t-38.5 -142q-9 -57 -9 -106q0 -53 12.5 -89t37 -57.5t60 -30.5t81.5 -9q64 0 116.5 21.5t94.5 84.5l56 -51q-26 -38 -56 -62.5t-64.5 -39t-72.5 -20t-78 -5.5z" />
<glyph unicode="&#x109;" horiz-adv-x="523" d="M53 0zM346 643l-80 -69h-94v3l137 114h82l101 -114v-3h-91zM406 134l59 -39q-36 -60 -90.5 -83.5t-121.5 -23.5q-200 0 -200 191q0 14 1.5 30t3.5 33q20 130 85.5 193.5t172.5 63.5q85 0 128 -34t60 -90l-67 -32q-13 40 -40.5 63.5t-85.5 23.5q-71 0 -112.5 -45.5 t-56.5 -142.5q-6 -35 -6 -62q0 -68 30 -95.5t96 -27.5q45 0 80 16t64 61z" />
<glyph unicode="&#x10a;" horiz-adv-x="682" d="M80 0zM353 -12q-68 0 -119 14t-85.5 45t-51.5 80t-17 119q0 27 1.5 50.5t6.5 54.5q14 99 44 167.5t75 111.5t104 62.5t130 19.5q101 0 157.5 -37t83.5 -110l-76 -41q-22 65 -61.5 91t-109.5 26q-48 0 -89.5 -13t-74.5 -45.5t-57.5 -88.5t-38.5 -142q-9 -57 -9 -106 q0 -53 12.5 -89t37 -57.5t60 -30.5t81.5 -9q64 0 116.5 21.5t94.5 84.5l56 -51q-26 -38 -56 -62.5t-64.5 -39t-72.5 -20t-78 -5.5zM467 795q-27 0 -39 12.5t-12 35.5q0 34 19.5 49.5t45.5 15.5q52 0 52 -49q0 -31 -18.5 -47.5t-47.5 -16.5z" />
<glyph unicode="&#x10b;" horiz-adv-x="523" d="M53 0zM406 134l59 -39q-36 -60 -90.5 -83.5t-121.5 -23.5q-200 0 -200 191q0 14 1.5 30t3.5 33q20 130 85.5 193.5t172.5 63.5q85 0 128 -34t60 -90l-67 -32q-13 40 -40.5 63.5t-85.5 23.5q-71 0 -112.5 -45.5t-56.5 -142.5q-6 -35 -6 -62q0 -68 30 -95.5t96 -27.5 q45 0 80 16t64 61zM340 580q-27 0 -39 12.5t-12 35.5q0 34 19.5 49.5t45.5 15.5q52 0 52 -49q0 -31 -18.5 -47.5t-47.5 -16.5z" />
<glyph unicode="&#x10c;" horiz-adv-x="682" d="M80 0zM427 789l-102 115v2h92l54 -67l80 67h94v-2l-137 -115h-81zM353 -12q-68 0 -119 14t-85.5 45t-51.5 80t-17 119q0 27 1.5 50.5t6.5 54.5q14 99 44 167.5t75 111.5t104 62.5t130 19.5q101 0 157.5 -37t83.5 -110l-76 -41q-22 65 -61.5 91t-109.5 26q-48 0 -89.5 -13 t-74.5 -45.5t-57.5 -88.5t-38.5 -142q-9 -57 -9 -106q0 -53 12.5 -89t37 -57.5t60 -30.5t81.5 -9q64 0 116.5 21.5t94.5 84.5l56 -51q-26 -38 -56 -62.5t-64.5 -39t-72.5 -20t-78 -5.5z" />
<glyph unicode="&#x10d;" horiz-adv-x="523" d="M53 0zM299 574l-102 115v2h92l54 -67l80 67h94v-2l-137 -115h-81zM406 134l59 -39q-36 -60 -90.5 -83.5t-121.5 -23.5q-200 0 -200 191q0 14 1.5 30t3.5 33q20 130 85.5 193.5t172.5 63.5q85 0 128 -34t60 -90l-67 -32q-13 40 -40.5 63.5t-85.5 23.5q-71 0 -112.5 -45.5 t-56.5 -142.5q-6 -35 -6 -62q0 -68 30 -95.5t96 -27.5q45 0 80 16t64 61z" />
<glyph unicode="&#x10e;" horiz-adv-x="737" d="M66 0zM417 788l-102 115v2h92l54 -67l80 67h94v-2l-137 -115h-81zM326 0h-260l111 700h257q128 0 190.5 -57.5t62.5 -184.5q0 -20 -2 -49t-6 -55q-14 -93 -44 -159.5t-75 -110t-103.5 -64t-130.5 -20.5zM164 76h169q46 0 87.5 13t75 44.5t58 84t37.5 132.5q3 21 5.5 47.5 t2.5 46.5q0 99 -45 139.5t-126 40.5h-176z" />
<glyph unicode="&#x10f;" horiz-adv-x="659" d="M53 0zM681 480h-60l41 220h86zM429 245q2 15 3 28.5t1 25.5q0 69 -33 100t-87 31q-72 0 -113 -45t-58 -142q-4 -22 -5 -33.5t-1 -25.5q0 -65 29.5 -96t86.5 -31q64 0 112.5 44t64.5 144zM473 0h-76l8 82q-31 -47 -77 -70.5t-105 -23.5q-84 0 -127 48t-43 141 q0 16 1.5 32.5t3.5 34.5q17 125 81 190t167 65q52 0 90.5 -20t58.5 -62l45 283h84z" />
<glyph unicode="&#x110;" horiz-adv-x="747" d="M336 0h-260l51 323h-79l12 71h78l49 306h257q128 0 190.5 -57.5t62.5 -184.5q0 -20 -2 -49t-6 -55q-14 -93 -44 -159.5t-75 -110t-103.5 -64t-130.5 -20.5zM174 76h169q46 0 87.5 13t75 44.5t58 84t37.5 132.5q3 21 5.5 47.5t2.5 46.5q0 99 -45 139.5t-126 40.5h-176 l-37 -230h159l-12 -71h-159z" />
<glyph unicode="&#x111;" horiz-adv-x="621" d="M429 245q2 15 3 28.5t1 25.5q0 69 -33 100t-87 31q-72 0 -114 -45t-58 -142q-2 -16 -3.5 -30.5t-1.5 -28.5q0 -65 29.5 -96t86.5 -31q64 0 112.5 44t64.5 144zM640 557h-77l-88 -557h-78l8 82q-31 -47 -77 -70.5t-105 -23.5q-84 0 -127 48t-43 141q0 16 1.5 32.5 t3.5 34.5q17 125 81 190t167 65q53 0 91.5 -21t57.5 -63l23 142h-153l9 58h153l14 85h85l-14 -85h77z" />
<glyph unicode="&#x112;" horiz-adv-x="657" d="M66 0zM66 0l111 700h496l-12 -76h-411l-37 -233h360l-12 -78h-360l-38 -237h421l-12 -76h-506zM574 874l-10 -59h-249l9 59h250z" />
<glyph unicode="&#x113;" horiz-adv-x="541" d="M53 0zM248 -12q-94 0 -144.5 46t-50.5 146q0 14 1.5 30t3.5 33q18 126 85 191t179 65q46 0 79 -13.5t54.5 -37.5t31.5 -57.5t10 -73.5q0 -24 -3.5 -48.5t-9.5 -50.5h-346q0 -1 -0.5 -5.5t-1 -10.5t-0.5 -12v-10q0 -67 30.5 -95t90.5 -28q50 0 85.5 15.5t64.5 60.5l58 -38 q-38 -56 -89 -81.5t-128 -25.5zM312 431q-62 0 -103 -33.5t-60 -113.5h265q1 8 1.5 17t0.5 19q0 60 -27 85.5t-77 25.5zM469 660l-10 -59h-249l9 59h250z" />
<glyph unicode="&#x114;" horiz-adv-x="657" d="M66 0zM66 0l111 700h496l-12 -76h-411l-37 -233h360l-12 -78h-360l-38 -237h421l-12 -76h-506zM525 905h66q-5 -35 -18 -59t-33 -38t-46.5 -20t-59.5 -6t-58 6t-41.5 20t-22.5 38t-1 59h66q-7 -39 9 -53t53 -14q38 0 59 14t27 53z" />
<glyph unicode="&#x115;" horiz-adv-x="541" d="M53 0zM248 -12q-94 0 -144.5 46t-50.5 146q0 14 1.5 30t3.5 33q18 126 85 191t179 65q46 0 79 -13.5t54.5 -37.5t31.5 -57.5t10 -73.5q0 -24 -3.5 -48.5t-9.5 -50.5h-346q0 -1 -0.5 -5.5t-1 -10.5t-0.5 -12v-10q0 -67 30.5 -95t90.5 -28q50 0 85.5 15.5t64.5 60.5l58 -38 q-38 -56 -89 -81.5t-128 -25.5zM312 431q-62 0 -103 -33.5t-60 -113.5h265q1 8 1.5 17t0.5 19q0 60 -27 85.5t-77 25.5zM420 691h66q-5 -35 -18 -59t-33 -38t-46.5 -20t-59.5 -6t-58 6t-41.5 20t-22.5 38t-1 59h66q-7 -39 9 -53t53 -14q38 0 59 14t27 53z" />
<glyph unicode="&#x116;" horiz-adv-x="657" d="M66 0zM66 0l111 700h496l-12 -76h-411l-37 -233h360l-12 -78h-360l-38 -237h421l-12 -76h-506zM438 794q-27 0 -39 12.5t-12 35.5q0 34 19.5 49.5t45.5 15.5q52 0 52 -49q0 -31 -18.5 -47.5t-47.5 -16.5z" />
<glyph unicode="&#x117;" horiz-adv-x="541" d="M53 0zM248 -12q-94 0 -144.5 46t-50.5 146q0 14 1.5 30t3.5 33q18 126 85 191t179 65q46 0 79 -13.5t54.5 -37.5t31.5 -57.5t10 -73.5q0 -24 -3.5 -48.5t-9.5 -50.5h-346q0 -1 -0.5 -5.5t-1 -10.5t-0.5 -12v-10q0 -67 30.5 -95t90.5 -28q50 0 85.5 15.5t64.5 60.5l58 -38 q-38 -56 -89 -81.5t-128 -25.5zM312 431q-62 0 -103 -33.5t-60 -113.5h265q1 8 1.5 17t0.5 19q0 60 -27 85.5t-77 25.5zM334 580q-27 0 -39 12.5t-12 35.5q0 34 19.5 49.5t45.5 15.5q52 0 52 -49q0 -31 -18.5 -47.5t-47.5 -16.5z" />
<glyph unicode="&#x118;" horiz-adv-x="657" d="M66 0l111 700h497l-12 -75h-409l-36 -234h357l-12 -78h-358l-37 -238h418l-12 -75q-23 -2 -41.5 -12.5t-31.5 -26t-19.5 -33.5t-6.5 -36q0 -24 12 -33.5t36 -9.5q36 0 65 18l9 -56q-20 -11 -40.5 -17t-44.5 -6q-20 0 -38.5 4t-32.5 14.5t-22.5 28.5t-8.5 45q0 40 17 70 t43 50h-403z" />
<glyph unicode="&#x119;" horiz-adv-x="541" d="M283 -212q-20 0 -38.5 4t-32.5 14.5t-22.5 28.5t-8.5 45q0 35 13 62t33 47q-85 5 -129.5 51t-44.5 140q0 14 1.5 30t3.5 33q18 126 85 191t179 65q46 0 79 -13.5t54.5 -37.5t31.5 -57.5t10 -73.5q0 -24 -3.5 -48.5t-9.5 -50.5h-347q-1 -11 -1 -21v-17q0 -67 30.5 -95 t90.5 -28q50 0 85.5 15.5t64.5 60.5l58 -38q-29 -43 -65 -67.5t-85 -33.5q-33 -13 -51 -43t-18 -59q0 -24 12.5 -33.5t35.5 -9.5q36 0 65 18l10 -56q-20 -11 -40.5 -17t-45.5 -6zM312 431q-62 0 -103 -33.5t-60 -113.5h265q1 8 1.5 17t0.5 19q0 60 -27 85.5t-77 25.5z" />
<glyph unicode="&#x11a;" horiz-adv-x="657" d="M66 0zM398 788l-102 115v2h92l54 -67l80 67h94v-2l-137 -115h-81zM66 0l111 700h496l-12 -76h-411l-37 -233h360l-12 -78h-360l-38 -237h421l-12 -76h-506z" />
<glyph unicode="&#x11b;" horiz-adv-x="540" d="M53 0zM294 574l-102 115v2h92l54 -67l80 67h94v-2l-137 -115h-81zM248 -12q-94 0 -144.5 46t-50.5 146q0 14 1.5 30t3.5 33q18 126 85 191t179 65q46 0 79 -13.5t54.5 -37.5t31.5 -57.5t10 -73.5q0 -24 -3.5 -48.5t-9.5 -50.5h-346q0 -1 -0.5 -5.5t-1 -10.5t-0.5 -12v-10 q0 -67 30.5 -95t90.5 -28q50 0 85.5 15.5t64.5 60.5l58 -38q-38 -56 -89 -81.5t-128 -25.5zM312 431q-62 0 -103 -33.5t-60 -113.5h265q1 8 1.5 17t0.5 19q0 60 -27 85.5t-77 25.5z" />
<glyph unicode="&#x11c;" horiz-adv-x="728" d="M80 0zM465 857l-80 -69h-94v3l137 114h82l101 -114v-3h-91zM330 -12q-124 0 -187 64t-63 200q0 23 2 47.5t6 51.5q13 97 42 165.5t73 112t104 63.5t137 20q99 0 154 -34t81 -103l-76 -41q-20 59 -59 83t-107 24q-51 0 -93.5 -13.5t-75.5 -46.5t-56.5 -89t-36.5 -141 q-9 -59 -9 -103q0 -54 12 -90t35 -58t56.5 -31.5t76.5 -9.5q40 0 77.5 11.5t68.5 38t53 69.5t30 105h-188l11 70h268l-56 -353h-73l10 99q-36 -54 -92.5 -82.5t-124.5 -28.5z" />
<glyph unicode="&#x11d;" horiz-adv-x="601" d="M11 0zM336 643l-80 -69h-94v3l137 114h82l101 -114v-3h-91zM426 253q2 13 3 26t1 24q0 68 -34 98t-87 30q-72 0 -113.5 -42.5t-55.5 -136.5q-2 -17 -3.5 -30.5t-1.5 -27.5q0 -64 29.5 -93.5t86.5 -29.5q31 0 59.5 10t51.5 32t39.5 56.5t24.5 83.5zM546 487l-75 -476 q-9 -60 -32.5 -102.5t-58.5 -70.5t-80.5 -41t-97.5 -13q-71 0 -120 25t-71 90l66 44q17 -50 48.5 -69.5t81.5 -19.5q70 0 118 34.5t61 116.5l13 84q-30 -44 -74 -65.5t-100 -21.5q-84 0 -128.5 47t-44.5 141q0 14 1 29t3 32q17 121 78 184.5t161 63.5q60 0 101.5 -22.5 t59.5 -69.5l20 80h70z" />
<glyph unicode="&#x11e;" horiz-adv-x="728" d="M80 0zM330 -12q-124 0 -187 64t-63 200q0 23 2 47.5t6 51.5q13 97 42 165.5t73 112t104 63.5t137 20q99 0 154 -34t81 -103l-76 -41q-20 59 -59 83t-107 24q-51 0 -93.5 -13.5t-75.5 -46.5t-56.5 -89t-36.5 -141q-9 -59 -9 -103q0 -54 12 -90t35 -58t56.5 -31.5 t76.5 -9.5q40 0 77.5 11.5t68.5 38t53 69.5t30 105h-188l11 70h268l-56 -353h-73l10 99q-36 -54 -92.5 -82.5t-124.5 -28.5zM545 905h66q-5 -35 -18 -59t-33 -38t-46.5 -20t-59.5 -6t-58 6t-41.5 20t-22.5 38t-1 59h66q-7 -39 9 -53t53 -14q38 0 59 14t27 53z" />
<glyph unicode="&#x11f;" horiz-adv-x="601" d="M11 0zM426 253q2 13 3 26t1 24q0 68 -34 98t-87 30q-72 0 -113.5 -42.5t-55.5 -136.5q-2 -17 -3.5 -30.5t-1.5 -27.5q0 -64 29.5 -93.5t86.5 -29.5q31 0 59.5 10t51.5 32t39.5 56.5t24.5 83.5zM546 487l-75 -476q-9 -60 -32.5 -102.5t-58.5 -70.5t-80.5 -41t-97.5 -13 q-71 0 -120 25t-71 90l66 44q17 -50 48.5 -69.5t81.5 -19.5q70 0 118 34.5t61 116.5l13 84q-30 -44 -74 -65.5t-100 -21.5q-84 0 -128.5 47t-44.5 141q0 14 1 29t3 32q17 121 78 184.5t161 63.5q60 0 101.5 -22.5t59.5 -69.5l20 80h70zM416 691h66q-5 -35 -18 -59t-33 -38 t-46.5 -20t-59.5 -6t-58 6t-41.5 20t-22.5 38t-1 59h66q-7 -39 9 -53t53 -14q38 0 59 14t27 53z" />
<glyph unicode="&#x120;" horiz-adv-x="728" d="M80 0zM330 -12q-124 0 -187 64t-63 200q0 23 2 47.5t6 51.5q13 97 42 165.5t73 112t104 63.5t137 20q99 0 154 -34t81 -103l-76 -41q-20 59 -59 83t-107 24q-51 0 -93.5 -13.5t-75.5 -46.5t-56.5 -89t-36.5 -141q-9 -59 -9 -103q0 -54 12 -90t35 -58t56.5 -31.5 t76.5 -9.5q40 0 77.5 11.5t68.5 38t53 69.5t30 105h-188l11 70h268l-56 -353h-73l10 99q-36 -54 -92.5 -82.5t-124.5 -28.5zM459 794q-27 0 -39 12.5t-12 35.5q0 34 19.5 49.5t45.5 15.5q52 0 52 -49q0 -31 -18.5 -47.5t-47.5 -16.5z" />
<glyph unicode="&#x121;" horiz-adv-x="601" d="M11 0zM426 253q2 13 3 26t1 24q0 68 -34 98t-87 30q-72 0 -113.5 -42.5t-55.5 -136.5q-2 -17 -3.5 -30.5t-1.5 -27.5q0 -64 29.5 -93.5t86.5 -29.5q31 0 59.5 10t51.5 32t39.5 56.5t24.5 83.5zM546 487l-75 -476q-9 -60 -32.5 -102.5t-58.5 -70.5t-80.5 -41t-97.5 -13 q-71 0 -120 25t-71 90l66 44q17 -50 48.5 -69.5t81.5 -19.5q70 0 118 34.5t61 116.5l13 84q-30 -44 -74 -65.5t-100 -21.5q-84 0 -128.5 47t-44.5 141q0 14 1 29t3 32q17 121 78 184.5t161 63.5q60 0 101.5 -22.5t59.5 -69.5l20 80h70zM329 580q-27 0 -39 12.5t-12 35.5 q0 34 19.5 49.5t45.5 15.5q52 0 52 -49q0 -31 -18.5 -47.5t-47.5 -16.5z" />
<glyph unicode="&#x122;" horiz-adv-x="728" d="M80 0zM268 -284l-10 38q25 8 42 27.5t23 47.5q-55 -2 -55 47q0 30 17 45t43 15q24 0 38 -13.5t14 -44.5q0 -26 -7.5 -52.5t-22 -49t-35 -38.5t-47.5 -22zM330 -12q-124 0 -187 64t-63 200q0 23 2 47.5t6 51.5q13 97 42 165.5t73 112t104 63.5t137 20q99 0 154 -34 t81 -103l-76 -41q-20 59 -59 83t-107 24q-51 0 -93.5 -13.5t-75.5 -46.5t-56.5 -89t-36.5 -141q-9 -59 -9 -103q0 -54 12 -90t35 -58t56.5 -31.5t76.5 -9.5q40 0 77.5 11.5t68.5 38t53 69.5t30 105h-188l11 70h268l-56 -353h-73l10 99q-36 -54 -92.5 -82.5t-124.5 -28.5z " />
<glyph unicode="&#x123;" horiz-adv-x="601" d="M389 785l10 -38q-25 -8 -42 -27.5t-23 -47.5q55 2 55 -47q0 -30 -17 -45t-43 -15q-24 0 -38 13.5t-14 44.5q0 26 7.5 52.5t22 49t35 38.5t47.5 22zM426 253q2 13 3 26t1 24q0 68 -34 98t-87 30q-72 0 -113.5 -42.5t-55.5 -136.5q-2 -17 -3.5 -30.5t-1.5 -27.5 q0 -64 29.5 -93.5t86.5 -29.5q31 0 59.5 10t51.5 32t39.5 56.5t24.5 83.5zM546 487l-75 -476q-9 -60 -32.5 -102.5t-58.5 -70.5t-80.5 -41t-97.5 -13q-71 0 -120 25t-71 90l66 44q17 -50 48.5 -69.5t81.5 -19.5q70 0 118 34.5t61 116.5l13 84q-30 -44 -74 -65.5t-100 -21.5 q-84 0 -128.5 47t-44.5 141q0 14 1 29t3 32q17 121 78 184.5t161 63.5q60 0 101.5 -22.5t59.5 -69.5l20 80h70z" />
<glyph unicode="&#x124;" horiz-adv-x="779" d="M66 0zM478 857l-80 -69h-94v3l137 114h82l101 -114v-3h-91zM542 0l50 313h-389l-50 -313h-87l111 700h87l-49 -309h389l49 309h87l-111 -700h-87z" />
<glyph unicode="&#x125;" horiz-adv-x="615" d="M52 0zM227 818l-80 -69h-94v3l137 114h82l101 -114v-3h-91zM247 700l-50 -309q35 58 87 83t108 25q78 0 115.5 -38.5t37.5 -108.5q0 -13 -1.5 -25.5t-3.5 -26.5l-47 -300h-84l46 288q3 22 3 43q0 95 -99 95q-34 0 -64.5 -13t-54.5 -37t-41.5 -59t-24.5 -79l-38 -238h-84 l111 700h84z" />
<glyph unicode="&#x126;" horiz-adv-x="799" d="M226 391h389l15 99h-389zM93 551h71l24 149h87l-24 -149h389l24 149h87l-24 -149h72l-10 -61h-72l-77 -490h-87l50 313h-389l-50 -313h-87l77 490h-71z" />
<glyph unicode="&#x127;" horiz-adv-x="631" d="M78 557l9 58h78l14 85h85l-14 -85h152l-8 -58h-153l-26 -164q35 57 86 81.5t107 24.5q78 0 115.5 -38.5t37.5 -108.5q0 -13 -1 -25.5t-3 -26.5l-47 -300h-85l45 288q2 11 3 22t1 21q0 95 -99 95q-69 0 -119 -50t-65 -138l-38 -238h-85l88 557h-78z" />
<glyph unicode="&#x128;" horiz-adv-x="303" d="M66 0zM66 0l111 700h87l-111 -700h-87zM337 898h64q-2 -29 -12 -48.5t-25 -31t-32.5 -16.5t-33.5 -5q-20 0 -36.5 6.5t-30.5 14t-27 14t-26 6.5q-18 0 -25.5 -11.5t-9.5 -25.5h-65q3 29 13 48.5t24.5 31t31 16.5t33.5 5q21 0 37.5 -6.5t31 -14t27 -14t25.5 -6.5 q18 0 26 11t10 26z" />
<glyph unicode="&#x129;" horiz-adv-x="271" d="M29 0zM131 487h85l-76 -487h-85zM288 684h64q-2 -29 -12 -48.5t-25 -31t-32.5 -16.5t-33.5 -5q-20 0 -36.5 6.5t-30.5 14t-27 14t-26 6.5q-18 0 -25.5 -11.5t-9.5 -25.5h-65q3 29 13 48.5t24.5 31t31 16.5t33.5 5q21 0 37.5 -6.5t31 -14t27 -14t25.5 -6.5q18 0 26 11 t10 26z" />
<glyph unicode="&#x12a;" horiz-adv-x="303" d="M66 0zM66 0l111 700h87l-111 -700h-87zM372 874l-10 -59h-249l9 59h250z" />
<glyph unicode="&#x12b;" horiz-adv-x="271" d="M55 0zM131 487h85l-76 -487h-85zM323 660l-10 -59h-249l9 59h250z" />
<glyph unicode="&#x12c;" horiz-adv-x="303" d="M66 0zM66 0l111 700h87l-111 -700h-87zM324 905h66q-5 -35 -18 -59t-33 -38t-46.5 -20t-59.5 -6t-58 6t-41.5 20t-22.5 38t-1 59h66q-7 -39 9 -53t53 -14q38 0 59 14t27 53z" />
<glyph unicode="&#x12d;" horiz-adv-x="271" d="M55 0zM131 487h85l-76 -487h-85zM274 691h66q-5 -35 -18 -59t-33 -38t-46.5 -20t-59.5 -6t-58 6t-41.5 20t-22.5 38t-1 59h66q-7 -39 9 -53t53 -14q38 0 59 14t27 53z" />
<glyph unicode="&#x12e;" horiz-adv-x="303" d="M52 -212q-20 0 -38 4t-32.5 14.5t-23 28.5t-8.5 45q0 30 10.5 55t27.5 44.5t38.5 32.5t44.5 19l106 669h88l-111 -700h-40q-23 -2 -41.5 -12.5t-31 -26t-19.5 -33.5t-7 -36q0 -24 12.5 -33.5t36.5 -9.5q35 0 65 18l9 -56q-20 -11 -40.5 -17t-45.5 -6z" />
<glyph unicode="&#x12f;" horiz-adv-x="271" d="M189 581q-26 0 -39 12.5t-13 35.5q0 32 18.5 48.5t47.5 16.5q52 0 52 -49q0 -32 -18.5 -48t-47.5 -16zM36 -212q-20 0 -38 4t-32.5 14.5t-23 28.5t-8.5 45q0 31 11 57t29 45t40.5 31.5t45.5 18.5l71 455h85l-76 -487h-42q-23 -2 -41.5 -12.5t-31 -26t-19.5 -33.5t-7 -36 q0 -24 12.5 -33.5t36.5 -9.5q35 0 65 18l9 -56q-20 -11 -40.5 -17t-45.5 -6z" />
<glyph unicode="&#x130;" horiz-adv-x="303" d="M66 0zM66 0l111 700h87l-111 -700h-87zM237 794q-27 0 -39 12.5t-12 35.5q0 34 19.5 49.5t45.5 15.5q52 0 52 -49q0 -31 -18.5 -47.5t-47.5 -16.5z" />
<glyph unicode="&#x131;" horiz-adv-x="271" d="M131 487h85l-76 -487h-85z" />
<glyph unicode="&#x132;" horiz-adv-x="805" d="M66 0zM66 0l111 700h87l-111 -700h-87zM283 36l50 68q23 -21 53.5 -32t63.5 -11t61 11t50.5 35t38.5 61.5t24 91.5l70 440h87l-70 -440q-13 -80 -38 -132t-60.5 -83.5t-80 -44t-96.5 -12.5q-42 0 -82 11.5t-71 36.5z" />
<glyph unicode="&#x133;" horiz-adv-x="542" d="M55 0zM189 581q-26 0 -39 12.5t-13 35.5q0 32 18.5 48.5t47.5 16.5q52 0 52 -49q0 -32 -18.5 -48t-47.5 -16zM131 487h85l-76 -487h-85zM460 581q-26 0 -39 12.5t-13 35.5q0 32 18.5 48.5t47.5 16.5q52 0 52 -49q0 -32 -18.5 -48t-47.5 -16zM319 -33l83 520h84l-83 -530 q-14 -90 -61 -131.5t-116 -41.5q-20 0 -36.5 2.5t-38.5 10.5l26 72q13 -5 24.5 -8t28.5 -3q16 0 30.5 5t25.5 17.5t19.5 33.5t13.5 53z" />
<glyph unicode="&#x134;" horiz-adv-x="502" d="M0 0zM457 857l-80 -69h-94v3l137 114h82l101 -114v-3h-91zM-20 36l50 68q23 -21 53.5 -32t63.5 -11t61 11t50.5 35t38.5 61.5t24 91.5l70 440h87l-70 -440q-13 -80 -38 -132t-60.5 -83.5t-80 -44t-96.5 -12.5q-42 0 -82 11.5t-71 36.5z" />
<glyph unicode="&#x135;" horiz-adv-x="269" d="M0 0zM49 -33l83 520h84l-83 -530q-14 -90 -61 -131.5t-116 -41.5q-20 0 -36.5 2.5t-38.5 10.5l26 72q13 -5 24.5 -8t28.5 -3q16 0 30 5t25.5 17.5t20 33.5t13.5 53zM193 643l-80 -69h-94v3l137 114h82l101 -114v-3h-91z" />
<glyph unicode="&#x136;" horiz-adv-x="629" d="M66 0zM238 -284l-10 38q25 8 42 27.5t23 47.5q-55 -2 -55 47q0 30 17 45t43 15q24 0 38 -13.5t14 -44.5q0 -26 -7.5 -52.5t-22 -49t-35 -38.5t-47.5 -22zM66 0l111 700h87l-61 -384l372 384h105l-310 -317l211 -383h-103l-173 320l-120 -121l-32 -199h-87z" />
<glyph unicode="&#x137;" horiz-adv-x="512" d="M53 0zM179 -284l-10 38q25 8 42 27.5t23 47.5q-55 -2 -55 47q0 30 17 45t43 15q24 0 38 -13.5t14 -44.5q0 -26 -7.5 -52.5t-22 -49t-35 -38.5t-47.5 -22zM249 700l-77 -475l269 262h104l-230 -218l155 -269h-98l-120 211l-96 -90l-18 -121h-85l111 700h85z" />
<glyph unicode="&#x138;" horiz-adv-x="520" d="M215 487l-41 -261l267 261h104l-230 -218l155 -269h-98l-120 211l-94 -88l-20 -123h-85l77 487h85z" />
<glyph unicode="&#x139;" horiz-adv-x="616" d="M65 0zM287 905h109l-1 -6l-127 -111h-76v4zM164 76h399l-12 -76h-486l111 700h87z" />
<glyph unicode="&#x13a;" horiz-adv-x="273" d="M56 0zM268 905h109l-1 -6l-127 -111h-76v4zM153 0q-47 0 -72 25t-15 85l93 590h84l-92 -585q-5 -26 3.5 -36.5t34.5 -10.5h44l-10 -68h-70z" />
<glyph unicode="&#x13b;" horiz-adv-x="616" d="M65 0zM238 -284l-10 38q25 8 42 27.5t23 47.5q-55 -2 -55 47q0 30 17 45t43 15q24 0 38 -13.5t14 -44.5q0 -26 -7.5 -52.5t-22 -49t-35 -38.5t-47.5 -22zM164 76h399l-12 -76h-486l111 700h87z" />
<glyph unicode="&#x13c;" horiz-adv-x="273" d="M56 0zM153 0q-47 0 -72 25t-15 85l93 590h84l-92 -585q-5 -26 3.5 -36.5t34.5 -10.5h44l-10 -68h-70zM72 -284l-10 38q25 8 42 27.5t23 47.5q-55 -2 -55 47q0 30 17 45t43 15q24 0 38 -13.5t14 -44.5q0 -26 -7.5 -52.5t-22 -49t-35 -38.5t-47.5 -22z" />
<glyph unicode="&#x13d;" horiz-adv-x="616" d="M65 0zM483 481h-60l41 220h86zM164 76h399l-12 -76h-486l111 700h87z" />
<glyph unicode="&#x13e;" horiz-adv-x="318" d="M56 0zM346 480h-60l41 220h86zM153 0q-47 0 -72 25t-15 85l93 590h84l-92 -585q-5 -26 3.5 -36.5t34.5 -10.5h44l-10 -68h-70z" />
<glyph unicode="&#x13f;" horiz-adv-x="616" d="M65 0zM164 76h399l-12 -76h-486l111 700h87zM448 302q-27 0 -39 12.5t-12 35.5q0 34 19.5 49.5t45.5 15.5q52 0 52 -49q0 -31 -18.5 -47.5t-47.5 -16.5z" />
<glyph unicode="&#x140;" horiz-adv-x="363" d="M56 0zM153 0q-47 0 -72 25t-15 85l93 590h84l-92 -585q-5 -26 3.5 -36.5t34.5 -10.5h44l-10 -68h-70zM307 249q-27 0 -39 12.5t-12 35.5q0 34 19.5 49.5t45.5 15.5q52 0 52 -49q0 -31 -18.5 -47.5t-47.5 -16.5z" />
<glyph unicode="&#x141;" horiz-adv-x="636" d="M186 76h398l-12 -76h-486l40 251l-114 -66l13 81l113 66l59 368h88l-49 -311l190 110l-13 -82l-190 -110z" />
<glyph unicode="&#x142;" horiz-adv-x="298" d="M244 0h-70q-47 0 -72 25t-15 85l24 153l-106 -75l13 81l106 75l56 356h84l-45 -289l119 85l-13 -82l-119 -84l-34 -215q-5 -26 3.5 -36.5t34.5 -10.5h44z" />
<glyph unicode="&#x143;" horiz-adv-x="767" d="M66 0zM518 905h109l-1 -6l-127 -111h-76v4zM527 0l-290 574l-87 -574h-84l111 700h88l291 -574l88 574h84l-111 -700h-90z" />
<glyph unicode="&#x144;" horiz-adv-x="616" d="M53 0zM404 691h109l-1 -6l-127 -111h-76v4zM53 0l77 487h73l-5 -91q36 56 87.5 79.5t107.5 23.5q78 0 115.5 -38.5t37.5 -108.5q0 -13 -1.5 -25.5t-3.5 -26.5l-47 -300h-84l46 288q2 11 2.5 22t0.5 20q0 96 -99 96q-34 0 -64 -12.5t-54.5 -36t-41.5 -57t-24 -75.5 l-39 -245h-84z" />
<glyph unicode="&#x145;" horiz-adv-x="767" d="M66 0zM276 -284l-10 38q25 8 42 27.5t23 47.5q-55 -2 -55 47q0 30 17 45t43 15q24 0 38 -13.5t14 -44.5q0 -26 -7.5 -52.5t-22 -49t-35 -38.5t-47.5 -22zM527 0l-290 574l-87 -574h-84l111 700h88l291 -574l88 574h84l-111 -700h-90z" />
<glyph unicode="&#x146;" horiz-adv-x="616" d="M53 0zM206 -284l-10 38q25 8 42 27.5t23 47.5q-55 -2 -55 47q0 30 17 45t43 15q24 0 38 -13.5t14 -44.5q0 -26 -7.5 -52.5t-22 -49t-35 -38.5t-47.5 -22zM53 0l77 487h73l-5 -91q36 56 87.5 79.5t107.5 23.5q78 0 115.5 -38.5t37.5 -108.5q0 -13 -1.5 -25.5t-3.5 -26.5 l-47 -300h-84l46 288q2 11 2.5 22t0.5 20q0 96 -99 96q-34 0 -64 -12.5t-54.5 -36t-41.5 -57t-24 -75.5l-39 -245h-84z" />
<glyph unicode="&#x147;" horiz-adv-x="767" d="M66 0zM427 788l-102 115v2h92l54 -67l80 67h94v-2l-137 -115h-81zM527 0l-290 574l-87 -574h-84l111 700h88l291 -574l88 574h84l-111 -700h-90z" />
<glyph unicode="&#x148;" horiz-adv-x="616" d="M53 0zM313 574l-102 115v2h92l54 -67l80 67h94v-2l-137 -115h-81zM53 0l77 487h73l-5 -91q36 56 87.5 79.5t107.5 23.5q78 0 115.5 -38.5t37.5 -108.5q0 -13 -1.5 -25.5t-3.5 -26.5l-47 -300h-84l46 288q2 11 2.5 22t0.5 20q0 96 -99 96q-34 0 -64 -12.5t-54.5 -36 t-41.5 -57t-24 -75.5l-39 -245h-84z" />
<glyph unicode="&#x14a;" horiz-adv-x="767" d="M527 -33l4 29l-292 574l-87 -570h-86l111 700h88l291 -573l88 573h86l-118 -743q-14 -92 -61.5 -132.5t-115.5 -40.5q-20 0 -36 2.5t-38 10.5l26 72q12 -5 24 -8t30 -3q16 0 30 5t25 17t18.5 33t12.5 54z" />
<glyph unicode="&#x14b;" horiz-adv-x="616" d="M405 -31l50 319q2 11 3 22t1 20q0 96 -99 96q-34 0 -64 -12.5t-54.5 -36t-41.5 -57t-24 -75.5l-38 -245h-85l77 487h73l-5 -91q36 56 87.5 79.5t107.5 23.5q78 0 115.5 -38.5t37.5 -108.5q0 -13 -1 -25.5t-3 -26.5l-54 -343q-14 -92 -61.5 -132.5t-115.5 -40.5 q-20 0 -36.5 2.5t-37.5 10.5l25 72q13 -5 25 -8t29 -3q33 0 56 23.5t33 87.5z" />
<glyph unicode="&#x14c;" horiz-adv-x="766" d="M80 0zM598 874l-10 -59h-249l9 59h250zM88 351q13 96 42 164.5t73.5 112t105.5 64t138 20.5q137 0 201.5 -59.5t64.5 -193.5q0 -24 -1.5 -51t-6.5 -57q-27 -192 -116.5 -277.5t-243.5 -85.5q-134 0 -199.5 61t-65.5 196q0 24 2 50.5t6 55.5zM626 454q0 52 -12 88 t-35.5 57.5t-58 31t-79.5 9.5q-54 0 -97.5 -13.5t-76.5 -46.5t-56 -89t-36 -141q-9 -60 -9 -105q0 -52 12 -87.5t35.5 -57t58 -31t78.5 -9.5q54 0 97.5 14t77 47.5t56.5 89.5t37 141q5 29 6.5 54t1.5 48z" />
<glyph unicode="&#x14d;" horiz-adv-x="578" d="M53 0zM477 660l-10 -59h-249l9 59h250zM58 245q19 132 87.5 193t179.5 61q100 0 150 -44.5t50 -141.5q0 -16 -1.5 -32.5t-3.5 -35.5q-18 -132 -85.5 -194.5t-181.5 -62.5q-98 0 -149 45.5t-51 145.5q0 15 1.5 31.5t3.5 34.5zM436 244q6 36 6 64q0 67 -31 94.5t-94 27.5 q-38 0 -67.5 -9.5t-50.5 -31.5t-35 -57.5t-22 -87.5q-6 -38 -6 -66q0 -66 30 -93.5t92 -27.5q37 0 66.5 10t51.5 32t37 58t23 87z" />
<glyph unicode="&#x14e;" horiz-adv-x="766" d="M80 0zM88 351q13 96 42 164.5t73.5 112t105.5 64t138 20.5q137 0 201.5 -59.5t64.5 -193.5q0 -24 -1.5 -51t-6.5 -57q-27 -192 -116.5 -277.5t-243.5 -85.5q-134 0 -199.5 61t-65.5 196q0 24 2 50.5t6 55.5zM626 454q0 52 -12 88t-35.5 57.5t-58 31t-79.5 9.5 q-54 0 -97.5 -13.5t-76.5 -46.5t-56 -89t-36 -141q-9 -60 -9 -105q0 -52 12 -87.5t35.5 -57t58 -31t78.5 -9.5q54 0 97.5 14t77 47.5t56.5 89.5t37 141q5 29 6.5 54t1.5 48zM549 905h66q-5 -35 -18 -59t-33 -38t-46.5 -20t-59.5 -6t-58 6t-41.5 20t-22.5 38t-1 59h66 q-7 -39 9 -53t53 -14q38 0 59 14t27 53z" />
<glyph unicode="&#x14f;" horiz-adv-x="578" d="M53 0zM58 245q19 132 87.5 193t179.5 61q100 0 150 -44.5t50 -141.5q0 -16 -1.5 -32.5t-3.5 -35.5q-18 -132 -85.5 -194.5t-181.5 -62.5q-98 0 -149 45.5t-51 145.5q0 15 1.5 31.5t3.5 34.5zM436 244q6 36 6 64q0 67 -31 94.5t-94 27.5q-38 0 -67.5 -9.5t-50.5 -31.5 t-35 -57.5t-22 -87.5q-6 -38 -6 -66q0 -66 30 -93.5t92 -27.5q37 0 66.5 10t51.5 32t37 58t23 87zM427 691h66q-5 -35 -18 -59t-33 -38t-46.5 -20t-59.5 -6t-58 6t-41.5 20t-22.5 38t-1 59h66q-7 -39 9 -53t53 -14q38 0 59 14t27 53z" />
<glyph unicode="&#x150;" horiz-adv-x="766" d="M80 0zM576 905h109l-1 -6l-135 -111h-68v4zM433 905h100l-1 -6l-109 -111h-68v4zM88 351q13 96 42 164.5t73.5 112t105.5 64t138 20.5q137 0 201.5 -59.5t64.5 -193.5q0 -24 -1.5 -51t-6.5 -57q-27 -192 -116.5 -277.5t-243.5 -85.5q-134 0 -199.5 61t-65.5 196 q0 24 2 50.5t6 55.5zM626 454q0 52 -12 88t-35.5 57.5t-58 31t-79.5 9.5q-54 0 -97.5 -13.5t-76.5 -46.5t-56 -89t-36 -141q-9 -60 -9 -105q0 -52 12 -87.5t35.5 -57t58 -31t78.5 -9.5q54 0 97.5 14t77 47.5t56.5 89.5t37 141q5 29 6.5 54t1.5 48z" />
<glyph unicode="&#x151;" horiz-adv-x="576" d="M53 0zM454 691h109l-1 -6l-135 -111h-68v4zM311 691h100l-1 -6l-109 -111h-68v4zM58 245q19 132 87.5 193t179.5 61q100 0 150 -44.5t50 -141.5q0 -16 -1.5 -32.5t-3.5 -35.5q-18 -132 -85.5 -194.5t-181.5 -62.5q-98 0 -149 45.5t-51 145.5q0 15 1.5 31.5t3.5 34.5z M436 244q6 36 6 64q0 67 -31 94.5t-94 27.5q-38 0 -67.5 -9.5t-50.5 -31.5t-35 -57.5t-22 -87.5q-6 -38 -6 -66q0 -66 30 -93.5t92 -27.5q37 0 66.5 10t51.5 32t37 58t23 87z" />
<glyph unicode="&#x152;" horiz-adv-x="1083" d="M428 700h672l-12 -76h-402l-36 -233h351l-12 -78h-352l-37 -237h412l-13 -76h-666q-128 0 -190.5 59.5t-62.5 189.5q0 22 2 46.5t6 50.5q24 181 107.5 267.5t232.5 86.5zM167 256q0 -96 43.5 -138t124.5 -42h177l86 548h-172q-50 0 -91 -13.5t-72.5 -45.5t-53.5 -84 t-34 -130q-3 -21 -5.5 -47.5t-2.5 -47.5z" />
<glyph unicode="&#x153;" horiz-adv-x="922" d="M629 -12q-66 0 -110.5 22t-65.5 69q-68 -91 -200 -91q-200 0 -200 192q0 15 1 31t3 33q18 127 85 191t182 64q133 0 175 -94q70 94 204 94q46 0 79 -13.5t54.5 -37.5t31.5 -57.5t10 -73.5q0 -24 -3.5 -48.5t-9.5 -50.5h-347q-1 -11 -1 -21v-17q0 -67 30.5 -95t90.5 -28 q50 0 85.5 15.5t64.5 60.5l58 -38q-38 -56 -89 -81.5t-128 -25.5zM437 243q2 17 3.5 32t1.5 29q0 66 -30.5 96.5t-93.5 30.5q-76 0 -119.5 -45t-58.5 -143q-3 -17 -4 -32t-1 -29q0 -65 30 -95t93 -30q76 0 119.5 44.5t59.5 141.5zM693 431q-62 0 -103 -33.5t-60 -113.5h265 q1 8 1.5 17t0.5 19q0 60 -27 85.5t-77 25.5z" />
<glyph unicode="&#x154;" horiz-adv-x="663" d="M66 0zM482 905h109l-1 -6l-127 -111h-76v4zM444 624h-192l-45 -282h192q33 0 63 10.5t52.5 32.5t36 55.5t13.5 78.5q0 51 -29 78t-91 27zM389 265h-194l-42 -265h-87l111 700h270q104 0 154.5 -43t50.5 -124q0 -101 -47 -165t-126 -89l104 -279h-97z" />
<glyph unicode="&#x155;" horiz-adv-x="377" d="M53 0zM319 691h109l-1 -6l-127 -111h-76v4zM53 0l77 487h73l-5 -101q34 60 86 87.5t112 22.5l-14 -83q-85 9 -137.5 -38t-70.5 -141l-37 -234h-84z" />
<glyph unicode="&#x156;" horiz-adv-x="663" d="M66 0zM236 -284l-10 38q25 8 42 27.5t23 47.5q-55 -2 -55 47q0 30 17 45t43 15q24 0 38 -13.5t14 -44.5q0 -26 -7.5 -52.5t-22 -49t-35 -38.5t-47.5 -22zM444 624h-192l-45 -282h192q33 0 63 10.5t52.5 32.5t36 55.5t13.5 78.5q0 51 -29 78t-91 27zM389 265h-194 l-42 -265h-87l111 700h270q104 0 154.5 -43t50.5 -124q0 -101 -47 -165t-126 -89l104 -279h-97z" />
<glyph unicode="&#x157;" horiz-adv-x="379" d="M21 0zM31 -284l-10 38q25 8 42 27.5t23 47.5q-55 -2 -55 47q0 30 17 45t43 15q24 0 38 -13.5t14 -44.5q0 -26 -7.5 -52.5t-22 -49t-35 -38.5t-47.5 -22zM57 0l77 487h73l-5 -101q34 60 86 87.5t112 22.5l-14 -83q-85 9 -137.5 -38t-70.5 -141l-37 -234h-84z" />
<glyph unicode="&#x158;" horiz-adv-x="663" d="M66 0zM390 788l-102 115v2h92l54 -67l80 67h94v-2l-137 -115h-81zM444 624h-192l-45 -282h192q33 0 63 10.5t52.5 32.5t36 55.5t13.5 78.5q0 51 -29 78t-91 27zM389 265h-194l-42 -265h-87l111 700h270q104 0 154.5 -43t50.5 -124q0 -101 -47 -165t-126 -89l104 -279h-97 z" />
<glyph unicode="&#x159;" horiz-adv-x="375" d="M53 0zM234 574l-102 115v2h92l54 -67l80 67h94v-2l-137 -115h-81zM53 0l77 487h73l-5 -101q34 60 86 87.5t112 22.5l-14 -83q-85 9 -137.5 -38t-70.5 -141l-37 -234h-84z" />
<glyph unicode="&#x15a;" horiz-adv-x="616" d="M24 0zM435 905h109l-1 -6l-127 -111h-76v4zM590 589l-74 -42q-23 50 -58 73.5t-101 23.5q-44 0 -75.5 -10t-52 -27t-30.5 -40t-10 -49q0 -18 5 -34.5t17.5 -31t34.5 -26.5t55 -21l60 -16q54 -14 89.5 -32.5t57.5 -41.5t31 -51t9 -62q0 -49 -19 -88.5t-54.5 -67.5 t-86.5 -43t-114 -15q-86 0 -150.5 31t-99.5 105l72 43q31 -62 72 -86.5t106 -24.5q95 0 141.5 37.5t46.5 98.5q0 47 -29 73t-98 45l-56 15q-91 25 -132.5 72.5t-41.5 112.5q0 43 17 80t50 64t81.5 42.5t112.5 15.5q87 0 140 -30t84 -93z" />
<glyph unicode="&#x15b;" horiz-adv-x="506" d="M32 0zM359 691h109l-1 -6l-127 -111h-76v4zM232 55q62 0 88.5 22.5t26.5 57.5q0 26 -16.5 41.5t-63.5 27.5l-40 10q-72 18 -104.5 52.5t-32.5 82.5q0 66 50.5 108t142.5 42q33 0 58.5 -5.5t46 -16.5t36.5 -26.5t31 -34.5l-61 -48q-25 30 -50.5 46.5t-69.5 16.5 q-54 0 -79 -21.5t-25 -51.5q0 -23 15 -41t59 -29l48 -12q75 -19 106 -50.5t31 -82.5q0 -29 -10.5 -57t-34.5 -49.5t-62.5 -35t-94.5 -13.5q-72 0 -119.5 26t-75.5 82l66 38q23 -43 55.5 -61t78.5 -18z" />
<glyph unicode="&#x15c;" horiz-adv-x="616" d="M24 0zM389 857l-80 -69h-94v3l137 114h82l101 -114v-3h-91zM590 589l-74 -42q-23 50 -58 73.5t-101 23.5q-44 0 -75.5 -10t-52 -27t-30.5 -40t-10 -49q0 -18 5 -34.5t17.5 -31t34.5 -26.5t55 -21l60 -16q54 -14 89.5 -32.5t57.5 -41.5t31 -51t9 -62q0 -49 -19 -88.5 t-54.5 -67.5t-86.5 -43t-114 -15q-86 0 -150.5 31t-99.5 105l72 43q31 -62 72 -86.5t106 -24.5q95 0 141.5 37.5t46.5 98.5q0 47 -29 73t-98 45l-56 15q-91 25 -132.5 72.5t-41.5 112.5q0 43 17 80t50 64t81.5 42.5t112.5 15.5q87 0 140 -30t84 -93z" />
<glyph unicode="&#x15d;" horiz-adv-x="506" d="M32 0zM314 643l-80 -69h-94v3l137 114h82l101 -114v-3h-91zM232 55q62 0 88.5 22.5t26.5 57.5q0 26 -16.5 41.5t-63.5 27.5l-40 10q-72 18 -104.5 52.5t-32.5 82.5q0 66 50.5 108t142.5 42q33 0 58.5 -5.5t46 -16.5t36.5 -26.5t31 -34.5l-61 -48q-25 30 -50.5 46.5 t-69.5 16.5q-54 0 -79 -21.5t-25 -51.5q0 -23 15 -41t59 -29l48 -12q75 -19 106 -50.5t31 -82.5q0 -29 -10.5 -57t-34.5 -49.5t-62.5 -35t-94.5 -13.5q-72 0 -119.5 26t-75.5 82l66 38q23 -43 55.5 -61t78.5 -18z" />
<glyph unicode="&#x15e;" horiz-adv-x="616" d="M24 0zM590 589l-74 -42q-23 50 -58 73.5t-101 23.5q-44 0 -75.5 -10t-52 -27t-30.5 -40t-10 -49q0 -18 5 -34.5t17.5 -31t34.5 -26.5t55 -21l60 -16q54 -14 89.5 -32.5t57.5 -41.5t31 -51t9 -62q0 -49 -19 -88.5t-54.5 -67.5t-86.5 -43t-114 -15q-86 0 -150.5 31 t-99.5 105l72 43q31 -62 72 -86.5t106 -24.5q95 0 141.5 37.5t46.5 98.5q0 47 -29 73t-98 45l-56 15q-91 25 -132.5 72.5t-41.5 112.5q0 43 17 80t50 64t81.5 42.5t112.5 15.5q87 0 140 -30t84 -93zM221 -99l-14 12l37 91h63l-31 -63q31 -2 52.5 -21t21.5 -54 q0 -25 -10.5 -43.5t-27.5 -31t-39.5 -18.5t-47.5 -6q-38 0 -67 15t-42 47l47 38q10 -23 24.5 -35t43.5 -12q24 0 40 10.5t16 33.5q0 21 -18.5 29t-47.5 8z" />
<glyph unicode="&#x15f;" horiz-adv-x="506" d="M32 0zM232 55q62 0 88.5 22.5t26.5 57.5q0 26 -16.5 41.5t-63.5 27.5l-40 10q-72 18 -104.5 52.5t-32.5 82.5q0 66 50.5 108t142.5 42q33 0 58.5 -5.5t46 -16.5t36.5 -26.5t31 -34.5l-61 -48q-25 30 -50.5 46.5t-69.5 16.5q-54 0 -79 -21.5t-25 -51.5q0 -23 15 -41 t59 -29l48 -12q75 -19 106 -50.5t31 -82.5q0 -29 -10.5 -57t-34.5 -49.5t-62.5 -35t-94.5 -13.5q-72 0 -119.5 26t-75.5 82l66 38q23 -43 55.5 -61t78.5 -18zM179 -99l-14 12l37 91h63l-31 -63q31 -2 52.5 -21t21.5 -54q0 -25 -10.5 -43.5t-27.5 -31t-39.5 -18.5t-47.5 -6 q-38 0 -67 15t-42 47l47 38q10 -23 24.5 -35t43.5 -12q24 0 40 10.5t16 33.5q0 21 -18.5 29t-47.5 8z" />
<glyph unicode="&#x160;" horiz-adv-x="616" d="M24 0zM343 788l-102 115v2h92l54 -67l80 67h94v-2l-137 -115h-81zM590 589l-74 -42q-23 50 -58 73.5t-101 23.5q-44 0 -75.5 -10t-52 -27t-30.5 -40t-10 -49q0 -18 5 -34.5t17.5 -31t34.5 -26.5t55 -21l60 -16q54 -14 89.5 -32.5t57.5 -41.5t31 -51t9 -62 q0 -49 -19 -88.5t-54.5 -67.5t-86.5 -43t-114 -15q-86 0 -150.5 31t-99.5 105l72 43q31 -62 72 -86.5t106 -24.5q95 0 141.5 37.5t46.5 98.5q0 47 -29 73t-98 45l-56 15q-91 25 -132.5 72.5t-41.5 112.5q0 43 17 80t50 64t81.5 42.5t112.5 15.5q87 0 140 -30t84 -93z" />
<glyph unicode="&#x161;" horiz-adv-x="506" d="M32 0zM267 574l-102 115v2h92l54 -67l80 67h94v-2l-137 -115h-81zM232 55q62 0 88.5 22.5t26.5 57.5q0 26 -16.5 41.5t-63.5 27.5l-40 10q-72 18 -104.5 52.5t-32.5 82.5q0 66 50.5 108t142.5 42q33 0 58.5 -5.5t46 -16.5t36.5 -26.5t31 -34.5l-61 -48q-25 30 -50.5 46.5 t-69.5 16.5q-54 0 -79 -21.5t-25 -51.5q0 -23 15 -41t59 -29l48 -12q75 -19 106 -50.5t31 -82.5q0 -29 -10.5 -57t-34.5 -49.5t-62.5 -35t-94.5 -13.5q-72 0 -119.5 26t-75.5 82l66 38q23 -43 55.5 -61t78.5 -18z" />
<glyph unicode="&#x162;" horiz-adv-x="559" d="M63 0zM167 -284l-10 38q25 8 42 27.5t23 47.5q-55 -2 -55 47q0 30 17 45t43 15q24 0 38 -13.5t14 -44.5q0 -26 -7.5 -52.5t-22 -49t-35 -38.5t-47.5 -22zM75 700h537l-12 -76h-225l-99 -624h-87l99 624h-225z" />
<glyph unicode="&#x163;" horiz-adv-x="354" d="M42 0zM146 -284l-10 38q25 8 42 27.5t23 47.5q-55 -2 -55 47q0 30 17 45t43 15q24 0 38 -13.5t14 -44.5q0 -26 -7.5 -52.5t-22 -49t-35 -38.5t-47.5 -22zM358 487l-11 -67h-138l-39 -247q-10 -60 5.5 -85.5t60.5 -25.5q16 0 29 2.5t27 7.5l3 -70q-27 -8 -43 -10.5 t-31 -2.5q-67 0 -103 29.5t-36 94.5q0 16 2 31.5t4 29.5l39 246h-85l11 67h85l22 143h82l-22 -143h138z" />
<glyph unicode="&#x164;" horiz-adv-x="559" d="M63 0zM318 788l-102 115v2h92l54 -67l80 67h94v-2l-137 -115h-81zM75 700h537l-12 -76h-225l-99 -624h-87l99 624h-225z" />
<glyph unicode="&#x165;" horiz-adv-x="354" d="M357 555h-58l38 195h83zM358 487l-11 -67h-138l-39 -247q-10 -60 5.5 -85.5t60.5 -25.5q16 0 29 2.5t27 7.5l3 -70q-27 -8 -43 -10.5t-31 -2.5q-67 0 -103 29.5t-36 94.5q0 16 2 31.5t4 29.5l39 246h-85l11 67h85l22 143h82l-22 -143h138z" />
<glyph unicode="&#x166;" horiz-adv-x="560" d="M72 381h177l39 243h-224l12 76h536l-12 -76h-224l-39 -243h176l-9 -60h-176l-51 -321h-88l51 321h-177z" />
<glyph unicode="&#x167;" horiz-adv-x="354" d="M27 328h85l15 92h-85l11 67h85l22 143h82l-22 -143h138l-11 -67h-138l-15 -92h138l-9 -58h-138l-15 -97q-10 -60 5.5 -85.5t60.5 -25.5q16 0 29 2.5t27 7.5l3 -70q-27 -8 -43 -10.5t-31 -2.5q-67 0 -103 29.5t-36 94.5q0 16 2 31.5t4 29.5l15 96h-86z" />
<glyph unicode="&#x168;" horiz-adv-x="738" d="M87 0zM561 274l67 426h87l-67 -425q-23 -143 -104.5 -215t-211.5 -72q-119 0 -182 56t-63 165q0 31 6 66l67 425h87l-68 -425q-3 -17 -3.5 -30.5t-0.5 -28.5q0 -75 39 -115t122 -40q89 0 147.5 49.5t77.5 163.5zM552 898h64q-2 -29 -12 -48.5t-25 -31t-32.5 -16.5 t-33.5 -5q-20 0 -36.5 6.5t-30.5 14t-27 14t-26 6.5q-18 0 -25.5 -11.5t-9.5 -25.5h-65q3 29 13 48.5t24.5 31t31 16.5t33.5 5q21 0 37.5 -6.5t31 -14t27 -14t25.5 -6.5q18 0 26 11t10 26z" />
<glyph unicode="&#x169;" horiz-adv-x="614" d="M71 0zM231 -12q-82 0 -121 40.5t-39 114.5q0 12 0.5 23.5t2.5 24.5l47 296h85l-46 -284q-2 -12 -2 -23v-21q0 -101 99 -101q70 0 116.5 45.5t62.5 133.5l39 250h85l-78 -487h-73l7 86q-35 -53 -84 -75.5t-101 -22.5zM459 684h64q-2 -29 -12 -48.5t-25 -31t-32.5 -16.5 t-33.5 -5q-20 0 -36.5 6.5t-30.5 14t-27 14t-26 6.5q-18 0 -25.5 -11.5t-9.5 -25.5h-65q3 29 13 48.5t24.5 31t31 16.5t33.5 5q21 0 37.5 -6.5t31 -14t27 -14t25.5 -6.5q18 0 26 11t10 26z" />
<glyph unicode="&#x16a;" horiz-adv-x="738" d="M87 0zM561 274l67 426h87l-67 -425q-23 -143 -104.5 -215t-211.5 -72q-119 0 -182 56t-63 165q0 31 6 66l67 425h87l-68 -425q-3 -17 -3.5 -30.5t-0.5 -28.5q0 -75 39 -115t122 -40q89 0 147.5 49.5t77.5 163.5zM587 874l-10 -59h-249l9 59h250z" />
<glyph unicode="&#x16b;" horiz-adv-x="614" d="M71 0zM231 -12q-82 0 -121 40.5t-39 114.5q0 12 0.5 23.5t2.5 24.5l47 296h85l-46 -284q-2 -12 -2 -23v-21q0 -101 99 -101q70 0 116.5 45.5t62.5 133.5l39 250h85l-78 -487h-73l7 86q-35 -53 -84 -75.5t-101 -22.5zM494 660l-10 -59h-249l9 59h250z" />
<glyph unicode="&#x16c;" horiz-adv-x="738" d="M87 0zM561 274l67 426h87l-67 -425q-23 -143 -104.5 -215t-211.5 -72q-119 0 -182 56t-63 165q0 31 6 66l67 425h87l-68 -425q-3 -17 -3.5 -30.5t-0.5 -28.5q0 -75 39 -115t122 -40q89 0 147.5 49.5t77.5 163.5zM538 905h66q-5 -35 -18 -59t-33 -38t-46.5 -20t-59.5 -6 t-58 6t-41.5 20t-22.5 38t-1 59h66q-7 -39 9 -53t53 -14q38 0 59 14t27 53z" />
<glyph unicode="&#x16d;" horiz-adv-x="614" d="M71 0zM231 -12q-82 0 -121 40.5t-39 114.5q0 12 0.5 23.5t2.5 24.5l47 296h85l-46 -284q-2 -12 -2 -23v-21q0 -101 99 -101q70 0 116.5 45.5t62.5 133.5l39 250h85l-78 -487h-73l7 86q-35 -53 -84 -75.5t-101 -22.5zM445 691h66q-5 -35 -18 -59t-33 -38t-46.5 -20 t-59.5 -6t-58 6t-41.5 20t-22.5 38t-1 59h66q-7 -39 9 -53t53 -14q38 0 59 14t27 53z" />
<glyph unicode="&#x16e;" horiz-adv-x="738" d="M87 0zM445 761q-37 0 -60 21t-23 59q0 47 30.5 77.5t76.5 30.5q37 0 60 -21.5t23 -57.5q0 -48 -31 -78.5t-76 -30.5zM466 908q-24 0 -40.5 -17.5t-16.5 -46.5q0 -19 11 -30.5t28 -11.5q22 0 39.5 17.5t17.5 46.5q0 19 -11 30.5t-28 11.5zM561 274l67 426h87l-67 -425 q-23 -143 -104.5 -215t-211.5 -72q-119 0 -182 56t-63 165q0 31 6 66l67 425h87l-68 -425q-3 -17 -3.5 -30.5t-0.5 -28.5q0 -75 39 -115t122 -40q89 0 147.5 49.5t77.5 163.5z" />
<glyph unicode="&#x16f;" horiz-adv-x="614" d="M71 0zM352 547q-37 0 -60 21t-23 59q0 47 30.5 77.5t76.5 30.5q37 0 60 -21.5t23 -57.5q0 -48 -31 -78.5t-76 -30.5zM373 694q-24 0 -40.5 -17.5t-16.5 -46.5q0 -19 11 -30.5t28 -11.5q22 0 39.5 17.5t17.5 46.5q0 19 -11 30.5t-28 11.5zM231 -12q-82 0 -121 40.5 t-39 114.5q0 12 0.5 23.5t2.5 24.5l47 296h85l-46 -284q-2 -12 -2 -23v-21q0 -101 99 -101q70 0 116.5 45.5t62.5 133.5l39 250h85l-78 -487h-73l7 86q-35 -53 -84 -75.5t-101 -22.5z" />
<glyph unicode="&#x170;" horiz-adv-x="738" d="M87 0zM561 274l67 426h87l-67 -425q-23 -143 -104.5 -215t-211.5 -72q-119 0 -182 56t-63 165q0 31 6 66l67 425h87l-68 -425q-3 -17 -3.5 -30.5t-0.5 -28.5q0 -75 39 -115t122 -40q89 0 147.5 49.5t77.5 163.5zM565 905h109l-1 -6l-135 -111h-68v4zM422 905h100l-1 -6 l-109 -111h-68v4z" />
<glyph unicode="&#x171;" horiz-adv-x="614" d="M71 0zM231 -12q-82 0 -121 40.5t-39 114.5q0 12 0.5 23.5t2.5 24.5l47 296h85l-46 -284q-2 -12 -2 -23v-21q0 -101 99 -101q70 0 116.5 45.5t62.5 133.5l39 250h85l-78 -487h-73l7 86q-35 -53 -84 -75.5t-101 -22.5zM472 691h109l-1 -6l-135 -111h-68v4zM329 691h100 l-1 -6l-109 -111h-68v4z" />
<glyph unicode="&#x172;" horiz-adv-x="737" d="M560 275l67 425h88l-67 -424q-18 -112 -76.5 -184t-155.5 -95q-37 -12 -54 -41t-17 -57t12.5 -39t36.5 -11q35 0 65 18l7 -56q-38 -23 -84 -23q-20 0 -38.5 4.5t-33 15t-23 29t-8.5 47.5q0 32 11 58.5t31 45.5q-114 2 -174 59t-60 162q0 31 6 67l67 424h89l-68 -424 q-3 -17 -4.5 -30.5t-1.5 -28.5q0 -75 39 -115.5t122 -40.5q89 0 147.5 50t76.5 164z" />
<glyph unicode="&#x173;" horiz-adv-x="614" d="M420 -212q-20 0 -38 4t-32.5 14.5t-23 28.5t-8.5 45q0 51 27.5 86.5t64.5 53.5l6 66q-35 -54 -84 -76t-101 -22q-82 0 -121 40.5t-39 114.5q0 26 3 49l47 295h86l-46 -283q-3 -24 -3 -44q0 -101 99 -101q70 0 116 45t62 133l39 250h86l-78 -487h-2q-23 -2 -40.5 -13 t-30.5 -26t-19.5 -33.5t-6.5 -35.5q0 -24 12.5 -33.5t36.5 -9.5q35 0 65 18l9 -56q-20 -11 -40.5 -17t-45.5 -6z" />
<glyph unicode="&#x174;" horiz-adv-x="892" d="M72 0zM534 857l-80 -69h-94v3l137 114h82l101 -114v-3h-91zM471 698h82l65 -562l244 564h89l-312 -700h-82l-66 567l-245 -567h-88l-86 700h90l62 -572z" />
<glyph unicode="&#x175;" horiz-adv-x="723" d="M42 0zM416 643l-80 -69h-94v3l137 114h82l101 -114v-3h-91zM350 484h88l52 -387l173 390h83l-228 -487h-89l-51 386l-169 -386h-89l-78 487h84l53 -390z" />
<glyph unicode="&#x176;" horiz-adv-x="590" d="M68 0zM246 280l-178 420h91l142 -344l250 344h96l-314 -420l-44 -280h-87zM376 857l-80 -69h-94v3l137 114h82l101 -114v-3h-91z" />
<glyph unicode="&#x177;" horiz-adv-x="499" d="M0 0zM133 -65l29 56l-119 496h88l89 -406l214 406h88l-320 -580q-40 -72 -87.5 -97.5t-103.5 -25.5q-20 0 -36.5 2.5t-37.5 10.5l25 72q15 -5 28.5 -8t33.5 -3q11 0 24.5 2t27.5 10t28.5 23t28.5 42zM307 643l-80 -69h-94v3l137 114h82l101 -114v-3h-91z" />
<glyph unicode="&#x178;" horiz-adv-x="590" d="M68 0zM246 280l-178 420h91l142 -344l250 344h96l-314 -420l-44 -280h-87zM454 794q-27 0 -39 12t-12 34q0 35 18.5 51t46.5 16q25 0 38.5 -12.5t13.5 -35.5q0 -32 -18.5 -48.5t-47.5 -16.5zM281 794q-50 0 -50 46q0 35 18.5 51t46.5 16q24 0 37.5 -12t13.5 -35 q0 -32 -18 -49t-48 -17z" />
<glyph unicode="&#x179;" horiz-adv-x="559" d="M0 0zM420 905h109l-1 -6l-127 -111h-76v4zM-22 0l11 67l502 558l-389 -1l12 76h495l-11 -67l-505 -559l421 2l-13 -76h-523z" />
<glyph unicode="&#x17a;" horiz-adv-x="477" d="M1 0zM342 691h109l-1 -6l-127 -111h-76v4zM1 0l10 64l349 354h-288l11 69h385l-10 -65l-348 -353h301l-11 -69h-399z" />
<glyph unicode="&#x17b;" horiz-adv-x="559" d="M0 0zM-22 0l11 67l502 558l-389 -1l12 76h495l-11 -67l-505 -559l421 2l-13 -76h-523zM368 794q-27 0 -39 12.5t-12 35.5q0 34 19.5 49.5t45.5 15.5q52 0 52 -49q0 -31 -18.5 -47.5t-47.5 -16.5z" />
<glyph unicode="&#x17c;" horiz-adv-x="477" d="M1 0zM1 0l10 64l349 354h-288l11 69h385l-10 -65l-348 -353h301l-11 -69h-399zM290 580q-27 0 -39 12.5t-12 35.5q0 34 19.5 49.5t45.5 15.5q52 0 52 -49q0 -31 -18.5 -47.5t-47.5 -16.5z" />
<glyph unicode="&#x17d;" horiz-adv-x="559" d="M0 0zM328 788l-102 115v2h92l54 -67l80 67h94v-2l-137 -115h-81zM-22 0l11 67l502 558l-389 -1l12 76h495l-11 -67l-505 -559l421 2l-13 -76h-523z" />
<glyph unicode="&#x17e;" horiz-adv-x="477" d="M1 0zM251 574l-102 115v2h92l54 -67l80 67h94v-2l-137 -115h-81zM1 0l10 64l349 354h-288l11 69h385l-10 -65l-348 -353h301l-11 -69h-399z" />
<glyph unicode="&#x192;" horiz-adv-x="380" d="M47 -38l78 344h-86l14 65h87l19 77q21 92 68.5 132t119.5 40q20 0 41.5 -3.5t36.5 -10.5l-31 -72q-11 5 -23.5 8t-30.5 3q-36 0 -60.5 -21.5t-38.5 -80.5l-17 -72h137l-14 -65h-138l-79 -350q-21 -91 -68.5 -131.5t-116.5 -40.5q-20 0 -39.5 3t-35.5 10l30 72 q12 -5 24 -8t29 -3q32 0 56 22t38 82z" />
<glyph unicode="&#x218;" horiz-adv-x="616" d="M24 0zM196 -284l-10 38q25 8 42 27.5t23 47.5q-55 -2 -55 47q0 30 17 45t43 15q24 0 38 -13.5t14 -44.5q0 -26 -7.5 -52.5t-22 -49t-35 -38.5t-47.5 -22zM590 589l-74 -42q-23 50 -58 73.5t-101 23.5q-44 0 -75.5 -10t-52 -27t-30.5 -40t-10 -49q0 -18 5 -34.5t17.5 -31 t34.5 -26.5t55 -21l60 -16q54 -14 89.5 -32.5t57.5 -41.5t31 -51t9 -62q0 -49 -19 -88.5t-54.5 -67.5t-86.5 -43t-114 -15q-86 0 -150.5 31t-99.5 105l72 43q31 -62 72 -86.5t106 -24.5q95 0 141.5 37.5t46.5 98.5q0 47 -29 73t-98 45l-56 15q-91 25 -132.5 72.5 t-41.5 112.5q0 43 17 80t50 64t81.5 42.5t112.5 15.5q87 0 140 -30t84 -93z" />
<glyph unicode="&#x219;" horiz-adv-x="506" d="M32 0zM157 -284l-10 38q25 8 42 27.5t23 47.5q-55 -2 -55 47q0 30 17 45t43 15q24 0 38 -13.5t14 -44.5q0 -26 -7.5 -52.5t-22 -49t-35 -38.5t-47.5 -22zM232 55q62 0 88.5 22.5t26.5 57.5q0 26 -16.5 41.5t-63.5 27.5l-40 10q-72 18 -104.5 52.5t-32.5 82.5 q0 66 50.5 108t142.5 42q33 0 58.5 -5.5t46 -16.5t36.5 -26.5t31 -34.5l-61 -48q-25 30 -50.5 46.5t-69.5 16.5q-54 0 -79 -21.5t-25 -51.5q0 -23 15 -41t59 -29l48 -12q75 -19 106 -50.5t31 -82.5q0 -29 -10.5 -57t-34.5 -49.5t-62.5 -35t-94.5 -13.5q-72 0 -119.5 26 t-75.5 82l66 38q23 -43 55.5 -61t78.5 -18z" />
<glyph unicode="&#x237;" horiz-adv-x="271" d="M49 -33l83 520h84l-83 -530q-14 -90 -61 -131.5t-116 -41.5q-20 0 -36.5 2.5t-38.5 10.5l26 72q13 -5 24.5 -8t28.5 -3q16 0 30 5t25.5 17.5t20 33.5t13.5 53z" />
<glyph unicode="&#x2c6;" horiz-adv-x="600" d="M305 643l-80 -69h-94v3l137 114h82l101 -114v-3h-91z" />
<glyph unicode="&#x2c7;" horiz-adv-x="600" d="M244 574l-102 115v2h92l54 -67l80 67h94v-2l-137 -115h-81z" />
<glyph unicode="&#x2d8;" horiz-adv-x="600" d="M385 691h66q-5 -35 -18 -59t-33 -38t-46.5 -20t-59.5 -6t-58 6t-41.5 20t-22.5 38t-1 59h66q-7 -39 9 -53t53 -14q38 0 59 14t27 53z" />
<glyph unicode="&#x2d9;" horiz-adv-x="600" d="M296 580q-27 0 -39 12.5t-12 35.5q0 34 19.5 49.5t45.5 15.5q52 0 52 -49q0 -31 -18.5 -47.5t-47.5 -16.5z" />
<glyph unicode="&#x2da;" horiz-adv-x="600" d="M292 547q-37 0 -60 21t-23 59q0 47 30.5 77.5t76.5 30.5q37 0 60 -21.5t23 -57.5q0 -48 -31 -78.5t-76 -30.5zM313 694q-24 0 -40.5 -17.5t-16.5 -46.5q0 -19 11 -30.5t28 -11.5q22 0 39.5 17.5t17.5 46.5q0 19 -11 30.5t-28 11.5z" />
<glyph unicode="&#x2db;" horiz-adv-x="600" d="M296 -212q-20 0 -38.5 4t-32.5 14.5t-22.5 28.5t-8.5 45q0 37 15.5 66.5t39.5 49.5t53 30.5t55 10.5l1 -37q-23 -2 -41.5 -12.5t-31.5 -26t-19.5 -33.5t-6.5 -36q0 -24 12.5 -33.5t35.5 -9.5q36 0 65 18l10 -56q-20 -11 -40.5 -17t-45.5 -6z" />
<glyph unicode="&#x2dc;" horiz-adv-x="600" d="M405 684h64q-2 -29 -12 -48.5t-25 -31t-32.5 -16.5t-33.5 -5q-20 0 -36.5 6.5t-30.5 14t-27 14t-26 6.5q-18 0 -25.5 -11.5t-9.5 -25.5h-65q3 29 13 48.5t24.5 31t31 16.5t33.5 5q21 0 37.5 -6.5t31 -14t27 -14t25.5 -6.5q18 0 26 11t10 26z" />
<glyph unicode="&#x2dd;" horiz-adv-x="600" d="M405 691h109l-1 -6l-135 -111h-68v4zM262 691h100l-1 -6l-109 -111h-68v4z" />
<glyph unicode="&#x1e80;" horiz-adv-x="892" d="M72 0zM471 698h82l65 -562l244 564h89l-312 -700h-82l-66 567l-245 -567h-88l-86 700h90l62 -572zM495 787l-98 111l1 6h107l57 -113v-4h-67z" />
<glyph unicode="&#x1e81;" horiz-adv-x="723" d="M42 0zM350 484h88l52 -387l173 390h83l-228 -487h-89l-51 386l-169 -386h-89l-78 487h84l53 -390zM377 574l-98 111l1 6h107l57 -113v-4h-67z" />
<glyph unicode="&#x1e82;" horiz-adv-x="892" d="M72 0zM471 698h82l65 -562l244 564h89l-312 -700h-82l-66 567l-245 -567h-88l-86 700h90l62 -572zM579 904h109l-1 -6l-127 -111h-76v4z" />
<glyph unicode="&#x1e83;" horiz-adv-x="723" d="M42 0zM350 484h88l52 -387l173 390h83l-228 -487h-89l-51 386l-169 -386h-89l-78 487h84l53 -390zM461 691h109l-1 -6l-127 -111h-76v4z" />
<glyph unicode="&#x1e84;" horiz-adv-x="892" d="M72 0zM471 698h82l65 -562l244 564h89l-312 -700h-82l-66 567l-245 -567h-88l-86 700h90l62 -572zM612 793q-27 0 -39 12t-12 34q0 35 18.5 51t46.5 16q25 0 38.5 -12.5t13.5 -35.5q0 -32 -18.5 -48.5t-47.5 -16.5zM439 793q-50 0 -50 46q0 35 18.5 51t46.5 16 q24 0 37.5 -12t13.5 -35q0 -32 -18 -49t-48 -17z" />
<glyph unicode="&#x1e85;" horiz-adv-x="723" d="M42 0zM350 484h88l52 -387l173 390h83l-228 -487h-89l-51 386l-169 -386h-89l-78 487h84l53 -390zM494 580q-27 0 -39 12t-12 34q0 35 18.5 51t46.5 16q25 0 38.5 -12.5t13.5 -35.5q0 -32 -18.5 -48.5t-47.5 -16.5zM321 580q-50 0 -50 46q0 35 18.5 51t46.5 16 q24 0 37.5 -12t13.5 -35q0 -32 -18 -49t-48 -17z" />
<glyph unicode="&#x2000;" horiz-adv-x="474" />
<glyph unicode="&#x2001;" horiz-adv-x="949" />
<glyph unicode="&#x2002;" horiz-adv-x="500" />
<glyph unicode="&#x2003;" horiz-adv-x="1000" />
<glyph unicode="&#x2004;" horiz-adv-x="333" />
<glyph unicode="&#x2005;" horiz-adv-x="250" />
<glyph unicode="&#x2006;" horiz-adv-x="167" />
<glyph unicode="&#x2007;" />
<glyph unicode="&#x2008;" horiz-adv-x="225" />
<glyph unicode="&#x2009;" horiz-adv-x="200" />
<glyph unicode="&#x200a;" horiz-adv-x="100" />
<glyph unicode="&#x200b;" horiz-adv-x="0" />
<glyph unicode="&#x2010;" horiz-adv-x="423" d="M381 291l-12 -72h-327l11 72h328z" />
<glyph unicode="&#x2011;" horiz-adv-x="423" d="M381 291l-12 -72h-327l11 72h328z" />
<glyph unicode="&#x2012;" horiz-adv-x="577" d="M535 291l-12 -72h-481l12 72h481z" />
<glyph unicode="&#x2013;" horiz-adv-x="577" d="M535 291l-12 -72h-481l12 72h481z" />
<glyph unicode="&#x2014;" horiz-adv-x="773" d="M731 291l-12 -72h-677l12 72h677z" />
<glyph unicode="&#x2015;" horiz-adv-x="1064" d="M1021 291l-12 -72h-968l12 72h968z" />
<glyph unicode="&#x2018;" horiz-adv-x="226" d="M215 738l11 -39q-29 -10 -49 -33t-28 -55q29 1 43 -12.5t14 -35.5q0 -33 -18.5 -49t-44.5 -16q-24 0 -38.5 13.5t-14.5 45.5q0 24 6.5 51.5t21.5 53t38.5 46t58.5 30.5z" />
<glyph unicode="&#x2019;" horiz-adv-x="226" d="M94 481zM105 481l-11 39q29 10 49 33t28 55q-29 -1 -43 12.5t-14 35.5q0 33 18.5 49t44.5 16q24 0 38.5 -13.5t14.5 -45.5q0 -24 -6.5 -51.5t-21.5 -53t-39 -46t-58 -30.5z" />
<glyph unicode="&#x201a;" horiz-adv-x="226" d="M19 -129l-11 38q29 10 48 32.5t27 53.5q-28 -1 -42 12.5t-14 34.5q0 32 18 48t44 16q24 0 38 -13.5t14 -44.5q0 -24 -6.5 -51t-21 -51.5t-37.5 -44.5t-57 -30z" />
<glyph unicode="&#x201c;" horiz-adv-x="382" d="M215 739l11 -39q-29 -10 -49 -33t-28 -55q29 1 43 -12.5t14 -35.5q0 -33 -18.5 -49t-44.5 -16q-24 0 -38.5 13.5t-14.5 45.5q0 24 6.5 51.5t21.5 53t38.5 46t58.5 30.5zM373 739l11 -39q-29 -10 -49 -33t-28 -55q29 1 43 -12.5t14 -35.5q0 -33 -18.5 -49t-44.5 -16 q-24 0 -38.5 13.5t-14.5 45.5q0 24 6.5 51.5t21.5 53t38.5 46t58.5 30.5z" />
<glyph unicode="&#x201d;" horiz-adv-x="383" d="M94 478zM105 478l-11 39q29 10 49 33t28 55q-29 -1 -43 12.5t-14 35.5q0 33 18.5 49t44.5 16q24 0 38.5 -13.5t14.5 -45.5q0 -24 -6.5 -51.5t-21.5 -53t-39 -46t-58 -30.5zM263 478l-11 39q29 10 49 33t28 55q-29 -1 -43 12.5t-14 35.5q0 33 18.5 49t44.5 16 q24 0 38.5 -13.5t14.5 -45.5q0 -24 -6.5 -51.5t-21.5 -53t-39 -46t-58 -30.5z" />
<glyph unicode="&#x201e;" horiz-adv-x="382" d="M19 -130l-11 38q29 10 48 32.5t27 53.5q-28 -1 -42 12.5t-14 34.5q0 32 18 48t44 16q24 0 38 -13.5t14 -44.5q0 -24 -6.5 -51t-21 -51.5t-37.5 -44.5t-57 -30zM175 -130l-11 38q29 10 48 32.5t27 53.5q-28 -1 -42 12.5t-14 34.5q0 32 18 48t44 16q24 0 38 -13.5t14 -44.5 q0 -24 -6.5 -51t-21 -51.5t-37.5 -44.5t-57 -30z" />
<glyph unicode="&#x2020;" horiz-adv-x="308" d="M255 527h-67l-37 -231h-69l37 231h-67l10 63h66l16 120h78l-23 -120h66z" />
<glyph unicode="&#x2021;" horiz-adv-x="308" d="M44 476h67l9 60h-67l11 63h65l15 111h78l-22 -111h66l-10 -63h-67l-9 -60h67l-10 -63h-66l-16 -117h-77l22 117h-66z" />
<glyph unicode="&#x2022;" horiz-adv-x="422" d="M207 174q-66 0 -102 35.5t-36 95.5q0 39 12.5 71.5t35 55.5t53.5 35.5t68 12.5q66 0 102.5 -35.5t36.5 -95.5q0 -39 -12.5 -71.5t-35 -55.5t-54 -35.5t-68.5 -12.5z" />
<glyph unicode="&#x2026;" horiz-adv-x="676" d="M531 -5q-26 0 -39.5 13t-13.5 36q0 32 18.5 48.5t47.5 16.5q53 0 53 -49q0 -32 -19 -48.5t-47 -16.5zM305 -5q-25 0 -38.5 13t-13.5 36q0 32 18.5 48.5t47.5 16.5q52 0 52 -49q0 -32 -18.5 -48.5t-47.5 -16.5zM80 -5q-26 0 -39.5 13t-13.5 36q0 32 19 48.5t47 16.5 q53 0 53 -49q0 -32 -18.5 -48.5t-47.5 -16.5z" />
<glyph unicode="&#x202f;" horiz-adv-x="189" />
<glyph unicode="&#x2030;" horiz-adv-x="1453" d="M74 0zM830 418q73 0 108 -35.5t35 -113.5q0 -17 -1 -31t-4 -34q-16 -108 -62.5 -161t-135.5 -53q-73 0 -108 35t-35 113q0 14 1.5 31.5t3.5 34.5q16 113 64.5 163.5t133.5 50.5zM824 357q-23 0 -42 -7.5t-34 -25.5t-26 -47.5t-18 -73.5q-2 -17 -4 -33.5t-2 -28.5 q0 -51 20 -70.5t57 -19.5q47 0 77.5 33t44.5 120q2 17 4 33t2 29q0 51 -20.5 71t-58.5 20zM277 711q73 0 108 -35.5t35 -113.5q0 -17 -1 -31t-4 -34q-16 -108 -62.5 -161t-135.5 -53q-73 0 -108 35t-35 113q0 14 1.5 31.5t3.5 34.5q16 113 64.5 163.5t133.5 50.5zM271 650 q-23 0 -42 -7.5t-34 -25.5t-26 -47.5t-18 -73.5q-2 -17 -4 -33.5t-2 -28.5q0 -51 20 -70.5t57 -19.5q47 0 77.5 33t44.5 120q2 17 4 33t2 29q0 51 -20.5 71t-58.5 20zM1247 418q73 0 108 -35.5t35 -113.5q0 -17 -1 -31t-4 -34q-16 -108 -62.5 -161t-135.5 -53q-73 0 -108 35 t-35 113q0 14 1.5 31.5t3.5 34.5q16 113 64.5 163.5t133.5 50.5zM1241 357q-23 0 -42 -7.5t-34 -25.5t-26 -47.5t-18 -73.5q-2 -17 -4 -33.5t-2 -28.5q0 -51 20 -70.5t57 -19.5q47 0 77.5 33t44.5 120q2 17 4 33t2 29q0 51 -20.5 71t-58.5 20zM777 700l-441 -700h-81 l442 700h80z" />
<glyph unicode="&#x2039;" horiz-adv-x="414" d="M206 0l-149 241l1 3l225 243h99l-230 -248l152 -239h-98z" />
<glyph unicode="&#x203a;" horiz-adv-x="414" d="M207 487l149 -241l-1 -3l-225 -243h-99l230 248l-152 239h98z" />
<glyph unicode="&#x2044;" horiz-adv-x="496" d="M502 700l-441 -700h-81l442 700h80z" />
<glyph unicode="&#x205f;" horiz-adv-x="237" />
<glyph unicode="&#x2070;" horiz-adv-x="432" d="M76 284zM279 712q73 0 108 -35.5t35 -113.5q0 -17 -1 -31t-4 -34q-16 -108 -62.5 -161t-135.5 -53q-73 0 -108 35t-35 113q0 14 1.5 31.5t3.5 34.5q16 113 64.5 163.5t133.5 50.5zM273 651q-23 0 -42 -7.5t-34 -25.5t-26 -47.5t-18 -73.5q-2 -17 -4 -33.5t-2 -28.5 q0 -51 20 -70.5t57 -19.5q47 0 77.5 33t44.5 120q2 17 4 33t2 29q0 51 -20.5 71t-58.5 20z" />
<glyph unicode="&#x2074;" horiz-adv-x="395" d="M45 294zM45 391l7 51l169 260h70l-162 -247h141l28 167h67l-26 -167h60l-11 -64h-60l-15 -97h-68l16 97h-216z" />
<glyph unicode="&#x2075;" horiz-adv-x="360" d="M36 284zM174 641l-27 -106q20 9 40.5 13.5t44.5 4.5q51 0 85.5 -24.5t34.5 -82.5q0 -35 -12 -64.5t-35 -51.5t-55.5 -34t-74.5 -12q-105 0 -139 79l54 37q13 -27 33.5 -41.5t55.5 -14.5q45 0 74 26t29 68q0 32 -19.5 46t-55.5 14q-27 0 -49.5 -7.5t-42.5 -20.5l-39 22 l52 210h246l-9 -61h-191z" />
<glyph unicode="&#x2076;" horiz-adv-x="408" d="M73 284zM217 284q-67 0 -105.5 37t-38.5 119q0 16 1.5 32t3.5 33q16 106 67 156.5t132 50.5q51 0 84 -19t46 -54l-52 -36q-19 49 -80 49q-30 0 -52 -11.5t-37 -32.5t-24.5 -49.5t-14.5 -62.5l-2 -13q16 32 47.5 49t71.5 17q57 0 88 -26.5t31 -77.5q0 -32 -10 -61 t-31 -51.5t-52 -35.5t-73 -13zM242 494q-40 0 -67.5 -23t-27.5 -65q0 -28 18 -45.5t53 -17.5q43 0 68 25t25 67q0 28 -17 43.5t-52 15.5z" />
<glyph unicode="&#x2077;" horiz-adv-x="313" d="M80 294zM97 294q7 49 24 97t40.5 92.5t53.5 84t65 69.5l-200 -1l10 65h281l-10 -59q-36 -23 -67 -60.5t-56 -84t-42 -98.5t-26 -105h-73z" />
<glyph unicode="&#x2078;" horiz-adv-x="397" d="M60 284zM197 284q-67 0 -102 26t-35 77t27.5 80.5t64.5 39.5q-45 20 -45 76q0 64 41.5 96.5t113.5 32.5q123 0 123 -94q0 -43 -21.5 -72t-56.5 -42q28 -9 44.5 -29t16.5 -54q0 -65 -46.5 -101t-124.5 -36zM234 534q38 0 61.5 19t23.5 54q0 23 -17 35t-47 12 q-39 0 -61.5 -18t-22.5 -52q0 -50 63 -50zM204 340q41 0 67.5 20.5t26.5 58.5q0 27 -19 41t-53 14q-42 0 -68 -20.5t-26 -58.5q0 -26 18.5 -40.5t53.5 -14.5z" />
<glyph unicode="&#x2079;" horiz-adv-x="408" d="M57 284zM225 499q38 0 66 25t28 67q0 29 -18.5 45t-52.5 16q-38 0 -66 -23.5t-28 -71.5q0 -58 71 -58zM250 712q67 0 105 -36.5t38 -118.5q0 -16 -1.5 -32t-3.5 -33q-16 -106 -67 -157t-132 -51q-51 0 -84.5 18.5t-47.5 51.5q1 1 9 7t17.5 12t17 11.5t9.5 6.5 q20 -47 81 -47q54 0 84.5 38t43.5 119l2 12q-17 -33 -47 -52t-72 -19q-57 0 -88 28t-31 79q0 36 11.5 65.5t33 51.5t52.5 34t70 12z" />
<glyph unicode="&#x207a;" horiz-adv-x="309" d="M61 361zM195 361h-57l14 92h-91l9 53h90l15 93h56l-14 -93h90l-8 -53h-90z" />
<glyph unicode="&#x207b;" horiz-adv-x="309" d="M61 453zM307 506l-8 -53h-238l9 53h237z" />
<glyph unicode="&#x207c;" horiz-adv-x="309" d="M55 408zM314 550l-8 -55h-237l8 55h237zM300 463l-7 -55h-238l8 55h237z" />
<glyph unicode="&#x207d;" horiz-adv-x="214" d="M57 234zM182 234q-125 12 -125 170q0 33 6 75q31 230 194 243l-2 -58q-26 -3 -46.5 -14t-36.5 -32.5t-28 -55.5t-20 -83q-4 -23 -5 -41.5t-1 -35.5q0 -55 19.5 -80t57.5 -31z" />
<glyph unicode="&#x207e;" horiz-adv-x="214" d="M28 234zM90 665l13 57q125 -12 125 -170q0 -33 -6 -75q-31 -230 -194 -243l2 58q25 3 46 14t37 32.5t28 55.5t20 83q4 23 5 41.5t1 35.5q0 55 -19.5 80t-57.5 31z" />
<glyph unicode="&#x2080;" horiz-adv-x="427" d="M233 418q73 0 108 -35.5t35 -113.5q0 -17 -1 -31t-4 -34q-16 -108 -62.5 -161t-135.5 -53q-73 0 -108 35t-35 113q0 14 1.5 31.5t3.5 34.5q16 113 64.5 163.5t133.5 50.5zM227 357q-23 0 -42 -7.5t-34 -25.5t-26 -47.5t-18 -73.5q-2 -17 -4 -33.5t-2 -28.5 q0 -51 20 -70.5t57 -19.5q47 0 77.5 33t44.5 120q2 17 4 33t2 29q0 51 -20.5 71t-58.5 20z" />
<glyph unicode="&#x2081;" horiz-adv-x="223" d="M120 0h-70l50 320l-55 -33l-18 59l113 64h44z" />
<glyph unicode="&#x2082;" horiz-adv-x="366" d="M-5 0l10 61l147 120q47 38 72.5 65t25.5 60q0 51 -68 51q-32 0 -55 -14.5t-43 -44.5l-42 39q29 43 65.5 62t84.5 19q63 0 97.5 -24t34.5 -75q0 -24 -7.5 -45t-23.5 -42t-40 -43.5t-57 -48.5l-93 -74l199 1l-9 -67h-298z" />
<glyph unicode="&#x2083;" horiz-adv-x="367" d="M137 -10q-56 0 -89.5 21.5t-50.5 60.5l56 34q11 -27 32 -41.5t56 -14.5q42 0 68.5 20.5t26.5 58.5q0 26 -15 38.5t-49 12.5h-52l10 60h50q32 0 52.5 19t20.5 50q0 26 -16 37t-51 11q-29 0 -51 -10t-43 -39l-44 38q26 38 62.5 55t87.5 17q62 0 95 -22.5t33 -71.5 q0 -37 -18.5 -67t-53.5 -47q24 -8 38 -26.5t14 -50.5q0 -30 -11 -56t-33 -45.5t-53.5 -30.5t-71.5 -11z" />
<glyph unicode="&#x2084;" horiz-adv-x="392" d="M3 97l7 51l169 260h70l-162 -247h141l28 167h67l-26 -167h60l-11 -64h-60l-15 -97h-68l16 97h-216z" />
<glyph unicode="&#x2085;" horiz-adv-x="356" d="M132 347l-27 -106q20 9 40.5 13.5t44.5 4.5q51 0 85.5 -24.5t34.5 -82.5q0 -35 -12 -64.5t-35 -51.5t-55.5 -34t-74.5 -12q-105 0 -139 79l54 37q13 -27 33.5 -41.5t55.5 -14.5q45 0 74 26t29 68q0 32 -19.5 46t-55.5 14q-27 0 -49.5 -7.5t-42.5 -20.5l-39 22l52 210h246 l-9 -61h-191z" />
<glyph unicode="&#x2086;" horiz-adv-x="403" d="M175 -10q-67 0 -105.5 37t-38.5 119q0 16 1.5 32t3.5 33q16 106 67 156.5t132 50.5q51 0 84 -19t46 -54l-52 -36q-19 49 -80 49q-30 0 -52 -11.5t-37 -32.5t-24.5 -49.5t-14.5 -62.5l-2 -13q16 32 47.5 49t71.5 17q57 0 88 -26.5t31 -77.5q0 -32 -10 -61t-31 -51.5 t-52 -35.5t-73 -13zM200 200q-40 0 -67.5 -23t-27.5 -65q0 -28 18 -45.5t53 -17.5q43 0 68 25t25 67q0 28 -17 43.5t-52 15.5z" />
<glyph unicode="&#x2087;" horiz-adv-x="309" d="M55 0q7 49 24 97t40.5 92.5t53.5 84t65 69.5l-200 -1l10 65h281l-10 -59q-36 -23 -67 -60.5t-56 -84t-42 -98.5t-26 -105h-73z" />
<glyph unicode="&#x2088;" horiz-adv-x="393" d="M155 -10q-67 0 -102 26t-35 77t27.5 80.5t64.5 39.5q-45 20 -45 76q0 64 41.5 96.5t113.5 32.5q123 0 123 -94q0 -43 -21.5 -72t-56.5 -42q28 -9 44.5 -29t16.5 -54q0 -65 -46.5 -101t-124.5 -36zM192 240q38 0 61.5 19t23.5 54q0 23 -17 35t-47 12q-39 0 -61.5 -18 t-22.5 -52q0 -50 63 -50zM162 46q41 0 67.5 20.5t26.5 58.5q0 27 -19 41t-53 14q-42 0 -68 -20.5t-26 -58.5q0 -26 18.5 -40.5t53.5 -14.5z" />
<glyph unicode="&#x2089;" horiz-adv-x="402" d="M183 205q38 0 66 25t28 67q0 29 -18.5 45t-52.5 16q-38 0 -66 -23.5t-28 -71.5q0 -58 71 -58zM208 418q67 0 105 -36.5t38 -118.5q0 -16 -1.5 -32t-3.5 -33q-16 -106 -67 -157t-132 -51q-51 0 -84.5 18.5t-47.5 51.5q1 1 9 7t17.5 12t17 11.5t9.5 6.5q20 -47 81 -47 q54 0 84.5 38t43.5 119l2 12q-17 -33 -47 -52t-72 -19q-57 0 -88 28t-31 79q0 36 11.5 65.5t33 51.5t52.5 34t70 12z" />
<glyph unicode="&#x208a;" horiz-adv-x="309" d="M153 62h-57l14 92h-91l9 53h90l15 93h56l-14 -93h90l-8 -53h-90z" />
<glyph unicode="&#x208b;" horiz-adv-x="309" d="M265 207l-8 -53h-238l9 53h237z" />
<glyph unicode="&#x208c;" horiz-adv-x="309" d="M272 251l-8 -55h-237l8 55h237zM258 164l-7 -55h-238l8 55h237z" />
<glyph unicode="&#x208d;" horiz-adv-x="212" d="M140 -65q-125 12 -125 170q0 33 6 75q31 230 194 243l-2 -58q-26 -3 -46.5 -14t-36.5 -32.5t-28 -55.5t-20 -83q-4 -23 -5 -41.5t-1 -35.5q0 -55 19.5 -80t57.5 -31z" />
<glyph unicode="&#x208e;" horiz-adv-x="212" d="M48 366l13 57q125 -12 125 -170q0 -33 -6 -75q-31 -230 -194 -243l2 58q25 3 46 14t37 32.5t28 55.5t20 83q4 23 5 41.5t1 35.5q0 55 -19.5 80t-57.5 31z" />
<glyph unicode="&#x20ac;" horiz-adv-x="664" d="M455 309l-26 -68h-259q0 -52 12.5 -86.5t35.5 -55.5t57 -30t77 -9q30 0 57.5 4.5t51.5 16t46 31.5t42 51l57 -49q-25 -38 -53.5 -62t-61 -38.5t-69 -20t-75.5 -5.5q-65 0 -114 13.5t-82 44t-49.5 78.5t-17.5 117h-90l11 68h81q1 14 3 28t5 28h-80l11 68h82 q36 148 121 213.5t210 65.5q96 0 149 -37.5t78 -110.5l-77 -41q-19 65 -56.5 91.5t-100.5 26.5q-41 0 -77 -10t-66 -34t-53 -64t-39 -100h310l-27 -68h-297q-4 -13 -5.5 -27.5t-2.5 -28.5h281z" />
<glyph unicode="&#x2122;" horiz-adv-x="673" d="M89 700h243l-8 -47h-93l-39 -247h-54l39 247h-96zM643 406h-53l32 198l-114 -198h-46l-56 194l-29 -194h-54l47 294h58l65 -236l136 236h61z" />
<glyph unicode="&#x2153;" horiz-adv-x="820" d="M66 0zM577 -10q-56 0 -89.5 21.5t-50.5 60.5l56 34q11 -27 32 -41.5t56 -14.5q42 0 68.5 20.5t26.5 58.5q0 26 -15 38.5t-49 12.5h-52l10 60h50q32 0 52.5 19t20.5 50q0 26 -16 37t-51 11q-29 0 -51 -10t-43 -39l-44 38q26 38 62.5 55t87.5 17q62 0 95 -22.5t33 -71.5 q0 -37 -18.5 -67t-53.5 -47q24 -8 38 -26.5t14 -50.5q0 -30 -11 -56t-33 -45.5t-53.5 -30.5t-71.5 -11zM159 293h-70l50 320l-55 -33l-18 59l113 64h44zM609 700l-441 -700h-81l442 700h80z" />
<glyph unicode="&#x2154;" horiz-adv-x="945" d="M34 0zM701 -10q-56 0 -89.5 21.5t-50.5 60.5l56 34q11 -27 32 -41.5t56 -14.5q42 0 68.5 20.5t26.5 58.5q0 26 -15 38.5t-49 12.5h-52l10 60h50q32 0 52.5 19t20.5 50q0 26 -16 37t-51 11q-29 0 -51 -10t-43 -39l-44 38q26 38 62.5 55t87.5 17q62 0 95 -22.5t33 -71.5 q0 -37 -18.5 -67t-53.5 -47q24 -8 38 -26.5t14 -50.5q0 -30 -11 -56t-33 -45.5t-53.5 -30.5t-71.5 -11zM34 293l10 61l147 120q47 38 72.5 65t25.5 60q0 51 -68 51q-32 0 -55 -14.5t-43 -44.5l-42 39q29 43 65.5 62t84.5 19q63 0 97.5 -24t34.5 -75q0 -24 -7.5 -45 t-23.5 -42t-40 -43.5t-57 -48.5l-93 -74l199 1l-9 -67h-298zM734 700l-441 -700h-81l442 700h80z" />
<glyph unicode="&#x2155;" horiz-adv-x="809" d="M66 0zM159 293h-70l50 320l-55 -33l-18 59l113 64h44zM572 347l-27 -106q20 9 40.5 13.5t44.5 4.5q51 0 85.5 -24.5t34.5 -82.5q0 -35 -12 -64.5t-35 -51.5t-55.5 -34t-74.5 -12q-105 0 -139 79l54 37q13 -27 33.5 -41.5t55.5 -14.5q45 0 74 26t29 68q0 32 -19.5 46 t-55.5 14q-27 0 -49.5 -7.5t-42.5 -20.5l-39 22l52 210h246l-9 -61h-191zM609 700l-441 -700h-81l442 700h80z" />
<glyph unicode="&#x2156;" horiz-adv-x="935" d="M34 0zM34 293l10 61l147 120q47 38 72.5 65t25.5 60q0 51 -68 51q-32 0 -55 -14.5t-43 -44.5l-42 39q29 43 65.5 62t84.5 19q63 0 97.5 -24t34.5 -75q0 -24 -7.5 -45t-23.5 -42t-40 -43.5t-57 -48.5l-93 -74l199 1l-9 -67h-298zM698 347l-27 -106q20 9 40.5 13.5 t44.5 4.5q51 0 85.5 -24.5t34.5 -82.5q0 -35 -12 -64.5t-35 -51.5t-55.5 -34t-74.5 -12q-105 0 -139 79l54 37q13 -27 33.5 -41.5t55.5 -14.5q45 0 74 26t29 68q0 32 -19.5 46t-55.5 14q-27 0 -49.5 -7.5t-42.5 -20.5l-39 22l52 210h246l-9 -61h-191zM734 700l-441 -700h-81 l442 700h80z" />
<glyph unicode="&#x2157;" horiz-adv-x="935" d="M35 0zM175 283q-56 0 -89.5 21.5t-50.5 60.5l56 34q11 -27 32 -41.5t56 -14.5q42 0 68.5 20.5t26.5 58.5q0 26 -15 38.5t-49 12.5h-52l10 60h50q32 0 52.5 19t20.5 50q0 26 -16 37t-51 11q-29 0 -51 -10t-43 -39l-44 38q26 38 62.5 55t87.5 17q62 0 95 -22.5t33 -71.5 q0 -37 -18.5 -67t-53.5 -47q24 -8 38 -26.5t14 -50.5q0 -30 -11 -56t-33 -45.5t-53.5 -30.5t-71.5 -11zM697 347l-27 -106q20 9 40.5 13.5t44.5 4.5q51 0 85.5 -24.5t34.5 -82.5q0 -35 -12 -64.5t-35 -51.5t-55.5 -34t-74.5 -12q-105 0 -139 79l54 37q13 -27 33.5 -41.5 t55.5 -14.5q45 0 74 26t29 68q0 32 -19.5 46t-55.5 14q-27 0 -49.5 -7.5t-42.5 -20.5l-39 22l52 210h246l-9 -61h-191zM734 700l-441 -700h-81l442 700h80z" />
<glyph unicode="&#x2158;" horiz-adv-x="958" d="M44 0zM720 347l-27 -106q20 9 40.5 13.5t44.5 4.5q51 0 85.5 -24.5t34.5 -82.5q0 -35 -12 -64.5t-35 -51.5t-55.5 -34t-74.5 -12q-105 0 -139 79l54 37q13 -27 33.5 -41.5t55.5 -14.5q45 0 74 26t29 68q0 32 -19.5 46t-55.5 14q-27 0 -49.5 -7.5t-42.5 -20.5l-39 22 l52 210h246l-9 -61h-191zM758 700l-441 -700h-81l442 700h80zM44 390l7 51l169 260h70l-162 -247h141l28 167h67l-26 -167h60l-11 -64h-60l-15 -97h-68l16 97h-216z" />
<glyph unicode="&#x2159;" horiz-adv-x="858" d="M66 0zM159 293h-70l50 320l-55 -33l-18 59l113 64h44zM616 -10q-67 0 -105.5 37t-38.5 119q0 16 1.5 32t3.5 33q16 106 67 156.5t132 50.5q51 0 84 -19t46 -54l-52 -36q-19 49 -80 49q-30 0 -52 -11.5t-37 -32.5t-24.5 -49.5t-14.5 -62.5l-2 -13q16 32 47.5 49t71.5 17 q57 0 88 -26.5t31 -77.5q0 -32 -10 -61t-31 -51.5t-52 -35.5t-73 -13zM641 200q-40 0 -67.5 -23t-27.5 -65q0 -28 18 -45.5t53 -17.5q43 0 68 25t25 67q0 28 -17 43.5t-52 15.5zM609 700l-441 -700h-81l442 700h80z" />
<glyph unicode="&#x215a;" horiz-adv-x="980" d="M34 0zM172 640l-27 -106q20 9 40.5 13.5t44.5 4.5q51 0 85.5 -24.5t34.5 -82.5q0 -35 -12 -64.5t-35 -51.5t-55.5 -34t-74.5 -12q-105 0 -139 79l54 37q13 -27 33.5 -41.5t55.5 -14.5q45 0 74 26t29 68q0 32 -19.5 46t-55.5 14q-27 0 -49.5 -7.5t-42.5 -20.5l-39 22 l52 210h246l-9 -61h-191zM739 -10q-67 0 -105.5 37t-38.5 119q0 16 1.5 32t3.5 33q16 106 67 156.5t132 50.5q51 0 84 -19t46 -54l-52 -36q-19 49 -80 49q-30 0 -52 -11.5t-37 -32.5t-24.5 -49.5t-14.5 -62.5l-2 -13q16 32 47.5 49t71.5 17q57 0 88 -26.5t31 -77.5 q0 -32 -10 -61t-31 -51.5t-52 -35.5t-73 -13zM764 200q-40 0 -67.5 -23t-27.5 -65q0 -28 18 -45.5t53 -17.5q43 0 68 25t25 67q0 28 -17 43.5t-52 15.5zM734 700l-441 -700h-81l442 700h80z" />
<glyph unicode="&#x215b;" horiz-adv-x="846" d="M66 0zM159 293h-70l50 320l-55 -33l-18 59l113 64h44zM596 -10q-67 0 -102 26t-35 77t27.5 80.5t64.5 39.5q-45 20 -45 76q0 64 41.5 96.5t113.5 32.5q123 0 123 -94q0 -43 -21.5 -72t-56.5 -42q28 -9 44.5 -29t16.5 -54q0 -65 -46.5 -101t-124.5 -36zM633 240 q38 0 61.5 19t23.5 54q0 23 -17 35t-47 12q-39 0 -61.5 -18t-22.5 -52q0 -50 63 -50zM603 46q41 0 67.5 20.5t26.5 58.5q0 27 -19 41t-53 14q-42 0 -68 -20.5t-26 -58.5q0 -26 18.5 -40.5t53.5 -14.5zM609 700l-441 -700h-81l442 700h80z" />
<glyph unicode="&#x215c;" horiz-adv-x="971" d="M35 0zM175 283q-56 0 -89.5 21.5t-50.5 60.5l56 34q11 -27 32 -41.5t56 -14.5q42 0 68.5 20.5t26.5 58.5q0 26 -15 38.5t-49 12.5h-52l10 60h50q32 0 52.5 19t20.5 50q0 26 -16 37t-51 11q-29 0 -51 -10t-43 -39l-44 38q26 38 62.5 55t87.5 17q62 0 95 -22.5t33 -71.5 q0 -37 -18.5 -67t-53.5 -47q24 -8 38 -26.5t14 -50.5q0 -30 -11 -56t-33 -45.5t-53.5 -30.5t-71.5 -11zM720 -10q-67 0 -102 26t-35 77t27.5 80.5t64.5 39.5q-45 20 -45 76q0 64 41.5 96.5t113.5 32.5q123 0 123 -94q0 -43 -21.5 -72t-56.5 -42q28 -9 44.5 -29t16.5 -54 q0 -65 -46.5 -101t-124.5 -36zM757 240q38 0 61.5 19t23.5 54q0 23 -17 35t-47 12q-39 0 -61.5 -18t-22.5 -52q0 -50 63 -50zM727 46q41 0 67.5 20.5t26.5 58.5q0 27 -19 41t-53 14q-42 0 -68 -20.5t-26 -58.5q0 -26 18.5 -40.5t53.5 -14.5zM734 700l-441 -700h-81l442 700 h80z" />
<glyph unicode="&#x215d;" horiz-adv-x="970" d="M34 0zM718 -10q-67 0 -102 26t-35 77t27.5 80.5t64.5 39.5q-45 20 -45 76q0 64 41.5 96.5t113.5 32.5q123 0 123 -94q0 -43 -21.5 -72t-56.5 -42q28 -9 44.5 -29t16.5 -54q0 -65 -46.5 -101t-124.5 -36zM755 240q38 0 61.5 19t23.5 54q0 23 -17 35t-47 12 q-39 0 -61.5 -18t-22.5 -52q0 -50 63 -50zM725 46q41 0 67.5 20.5t26.5 58.5q0 27 -19 41t-53 14q-42 0 -68 -20.5t-26 -58.5q0 -26 18.5 -40.5t53.5 -14.5zM172 640l-27 -106q20 9 40.5 13.5t44.5 4.5q51 0 85.5 -24.5t34.5 -82.5q0 -35 -12 -64.5t-35 -51.5t-55.5 -34 t-74.5 -12q-105 0 -139 79l54 37q13 -27 33.5 -41.5t55.5 -14.5q45 0 74 26t29 68q0 32 -19.5 46t-55.5 14q-27 0 -49.5 -7.5t-42.5 -20.5l-39 22l52 210h246l-9 -61h-191zM734 700l-441 -700h-81l442 700h80z" />
<glyph unicode="&#x215e;" horiz-adv-x="901" d="M78 0zM650 -10q-67 0 -102 26t-35 77t27.5 80.5t64.5 39.5q-45 20 -45 76q0 64 41.5 96.5t113.5 32.5q123 0 123 -94q0 -43 -21.5 -72t-56.5 -42q28 -9 44.5 -29t16.5 -54q0 -65 -46.5 -101t-124.5 -36zM687 240q38 0 61.5 19t23.5 54q0 23 -17 35t-47 12 q-39 0 -61.5 -18t-22.5 -52q0 -50 63 -50zM657 46q41 0 67.5 20.5t26.5 58.5q0 27 -19 41t-53 14q-42 0 -68 -20.5t-26 -58.5q0 -26 18.5 -40.5t53.5 -14.5zM95 293q7 49 24 97t40.5 92.5t53.5 84t65 69.5l-200 -1l10 65h281l-10 -59q-36 -23 -67 -60.5t-56 -84t-42 -98.5 t-26 -105h-73zM664 700l-441 -700h-81l442 700h80z" />
<glyph unicode="&#x215f;" horiz-adv-x="846" d="M66 0zM159 293h-70l50 320l-55 -33l-18 59l113 64h44zM611 700l-441 -700h-81l442 700h80z" />
<glyph unicode="&#x2212;" horiz-adv-x="503" d="M456 345l-12 -71h-398l12 71h398z" />
<glyph unicode="&#x2248;" horiz-adv-x="501" d="M357 398q20 0 52 6t59 23l-11 -72q-24 -13 -57.5 -19.5t-61.5 -6.5q-26 0 -46.5 5.5t-39.5 11.5t-38.5 11.5t-43.5 5.5q-20 0 -52.5 -5.5t-62.5 -22.5l12 72q24 13 56.5 19t60.5 6q27 0 48 -5.5t40.5 -11.5t39.5 -11.5t45 -5.5zM333 248q20 0 52 6t60 23l-11 -72 q-24 -13 -57.5 -19.5t-62.5 -6.5q-26 0 -46.5 5.5t-39 11.5t-38 11.5t-43.5 5.5q-21 0 -53.5 -5.5t-61.5 -22.5l12 72q24 13 56 19t60 6q27 0 48.5 -5.5t41 -11.5t39 -11.5t44.5 -5.5z" />
<glyph unicode="&#x2260;" horiz-adv-x="501" d="M466 417l-11 -71h-135l-64 -73h188l-12 -71h-238l-72 -83h-75l73 83h-86l12 71h135l64 73h-188l11 71h239l74 85h75l-75 -85h85z" />
<glyph unicode="&#x2264;" horiz-adv-x="505" d="M110 315l7 38l295 172l28 -58l-224 -134l180 -135l-44 -55zM46 0l11 71h329l-11 -71h-329z" />
<glyph unicode="&#x2265;" horiz-adv-x="501" d="M416 315l-295 -172l-29 58l225 134l-180 134l44 56l241 -172zM386 71l-11 -71h-329l11 71h329z" />
<glyph unicode="&#x25fc;" horiz-adv-x="485" d="M0 485h485v-485h-485v485z" />
<glyph unicode="&#xf6c3;" horiz-adv-x="600" d="M245 -284l-10 38q25 8 42 27.5t23 47.5q-55 -2 -55 47q0 30 17 45t43 15q24 0 38 -13.5t14 -44.5q0 -26 -7.5 -52.5t-22 -49t-35 -38.5t-47.5 -22z" />
<glyph horiz-adv-x="443" d="M202 -65l131 831h78l-131 -831h-78zM56 -65l131 831h78l-131 -831h-78z" />
<glyph horiz-adv-x="211" d="M202 518l-21 -39q-46 17 -67 57t-21 89q0 53 17.5 75t43.5 22t42 -14t16 -40q0 -34 -19.5 -48t-48.5 -10q0 -31 15 -56t43 -36z" />
<glyph horiz-adv-x="366" d="M202 518l-21 -39q-46 17 -67 57t-21 89q0 53 17.5 75t43.5 22t42 -14t16 -40q0 -12 -4.5 -24t-13 -20.5t-21 -12.5t-29.5 1q0 -32 15 -57.5t43 -36.5zM358 518l-20 -39q-46 17 -67.5 57t-21.5 89q0 53 17.5 75t44.5 22q26 0 42 -14t16 -40q0 -25 -16.5 -44.5t-51.5 -11.5 q0 -32 14.5 -57.5t42.5 -36.5z" />
<glyph horiz-adv-x="603" d="M411 -212q-20 0 -38.5 4t-32.5 14.5t-22.5 28.5t-8.5 45q0 50 26 85t61 52l6 64q-60 -93 -180 -93q-83 0 -126.5 48t-43.5 141q0 15 2 32.5t4 34.5q17 126 81 190.5t167 64.5q54 0 93.5 -22.5t56.5 -67.5l20 78h72l-76 -487h-3q-22 -2 -39.5 -13t-30 -26t-19 -33.5 t-6.5 -35.5q0 -24 12.5 -33.5t35.5 -9.5q36 0 65 18l10 -56q-20 -11 -40.5 -17t-45.5 -6zM426 245q2 15 3 28.5t1 25.5q0 69 -32.5 100t-84.5 31q-69 0 -113 -44t-59 -143q-2 -14 -3.5 -30.5t-1.5 -28.5q0 -127 116 -127q31 0 59.5 10.5t51.5 33.5t39 58.5t24 85.5z" />
<glyph horiz-adv-x="603" d="M426 245q2 15 3 28.5t1 25.5q0 69 -32.5 100t-84.5 31q-69 0 -113 -44t-59 -143q-2 -14 -3.5 -30.5t-1.5 -28.5q0 -127 116 -127q31 0 59.5 10.5t51.5 33.5t39 58.5t24 85.5zM222 -12q-83 0 -126.5 48t-43.5 141q0 15 2 32.5t4 34.5q17 126 81 190.5t167 64.5 q54 0 93.5 -22.5t56.5 -67.5l20 78h72l-76 -487h-77l7 81q-60 -93 -180 -93z" />
<glyph horiz-adv-x="603" d="M52 0zM426 245q2 15 3 28.5t1 25.5q0 69 -32.5 100t-84.5 31q-69 0 -113 -44t-59 -143q-2 -14 -3.5 -30.5t-1.5 -28.5q0 -127 116 -127q31 0 59.5 10.5t51.5 33.5t39 58.5t24 85.5zM222 -12q-83 0 -126.5 48t-43.5 141q0 15 2 32.5t4 34.5q17 126 81 190.5t167 64.5 q54 0 93.5 -22.5t56.5 -67.5l20 78h72l-76 -487h-77l7 81q-60 -93 -180 -93zM302 574l-98 111l1 6h107l57 -113v-4h-67z" />
<glyph horiz-adv-x="603" d="M52 0zM426 245q2 15 3 28.5t1 25.5q0 69 -32.5 100t-84.5 31q-69 0 -113 -44t-59 -143q-2 -14 -3.5 -30.5t-1.5 -28.5q0 -127 116 -127q31 0 59.5 10.5t51.5 33.5t39 58.5t24 85.5zM222 -12q-83 0 -126.5 48t-43.5 141q0 15 2 32.5t4 34.5q17 126 81 190.5t167 64.5 q54 0 93.5 -22.5t56.5 -67.5l20 78h72l-76 -487h-77l7 81q-60 -93 -180 -93zM385 691h109l-1 -6l-127 -111h-76v4z" />
<glyph horiz-adv-x="603" d="M52 0zM340 643l-80 -69h-94v3l137 114h82l101 -114v-3h-91zM426 245q2 15 3 28.5t1 25.5q0 69 -32.5 100t-84.5 31q-69 0 -113 -44t-59 -143q-2 -14 -3.5 -30.5t-1.5 -28.5q0 -127 116 -127q31 0 59.5 10.5t51.5 33.5t39 58.5t24 85.5zM222 -12q-83 0 -126.5 48 t-43.5 141q0 15 2 32.5t4 34.5q17 126 81 190.5t167 64.5q54 0 93.5 -22.5t56.5 -67.5l20 78h72l-76 -487h-77l7 81q-60 -93 -180 -93z" />
<glyph horiz-adv-x="603" d="M52 0zM418 580q-27 0 -39 12t-12 34q0 35 18.5 51t46.5 16q25 0 38.5 -12.5t13.5 -35.5q0 -32 -18.5 -48.5t-47.5 -16.5zM245 580q-50 0 -50 46q0 35 18.5 51t46.5 16q24 0 37.5 -12t13.5 -35q0 -32 -18 -49t-48 -17zM426 245q2 15 3 28.5t1 25.5q0 69 -32.5 100 t-84.5 31q-69 0 -113 -44t-59 -143q-2 -14 -3.5 -30.5t-1.5 -28.5q0 -127 116 -127q31 0 59.5 10.5t51.5 33.5t39 58.5t24 85.5zM222 -12q-83 0 -126.5 48t-43.5 141q0 15 2 32.5t4 34.5q17 126 81 190.5t167 64.5q54 0 93.5 -22.5t56.5 -67.5l20 78h72l-76 -487h-77l7 81 q-60 -93 -180 -93z" />
<glyph horiz-adv-x="603" d="M52 0zM426 245q2 15 3 28.5t1 25.5q0 69 -32.5 100t-84.5 31q-69 0 -113 -44t-59 -143q-2 -14 -3.5 -30.5t-1.5 -28.5q0 -127 116 -127q31 0 59.5 10.5t51.5 33.5t39 58.5t24 85.5zM222 -12q-83 0 -126.5 48t-43.5 141q0 15 2 32.5t4 34.5q17 126 81 190.5t167 64.5 q54 0 93.5 -22.5t56.5 -67.5l20 78h72l-76 -487h-77l7 81q-60 -93 -180 -93zM434 684h64q-2 -29 -12 -48.5t-25 -31t-32.5 -16.5t-33.5 -5q-20 0 -36.5 6.5t-30.5 14t-27 14t-26 6.5q-18 0 -25.5 -11.5t-9.5 -25.5h-65q3 29 13 48.5t24.5 31t31 16.5t33.5 5q21 0 37.5 -6.5 t31 -14t27 -14t25.5 -6.5q18 0 26 11t10 26z" />
<glyph horiz-adv-x="603" d="M52 0zM426 245q2 15 3 28.5t1 25.5q0 69 -32.5 100t-84.5 31q-69 0 -113 -44t-59 -143q-2 -14 -3.5 -30.5t-1.5 -28.5q0 -127 116 -127q31 0 59.5 10.5t51.5 33.5t39 58.5t24 85.5zM222 -12q-83 0 -126.5 48t-43.5 141q0 15 2 32.5t4 34.5q17 126 81 190.5t167 64.5 q54 0 93.5 -22.5t56.5 -67.5l20 78h72l-76 -487h-77l7 81q-60 -93 -180 -93zM327 547q-37 0 -60 21t-23 59q0 47 30.5 77.5t76.5 30.5q37 0 60 -21.5t23 -57.5q0 -48 -31 -78.5t-76 -30.5zM348 694q-24 0 -40.5 -17.5t-16.5 -46.5q0 -19 11 -30.5t28 -11.5q22 0 39.5 17.5 t17.5 46.5q0 19 -11 30.5t-28 11.5z" />
<glyph horiz-adv-x="603" d="M52 0zM426 245q2 15 3 28.5t1 25.5q0 69 -32.5 100t-84.5 31q-69 0 -113 -44t-59 -143q-2 -14 -3.5 -30.5t-1.5 -28.5q0 -127 116 -127q31 0 59.5 10.5t51.5 33.5t39 58.5t24 85.5zM222 -12q-83 0 -126.5 48t-43.5 141q0 15 2 32.5t4 34.5q17 126 81 190.5t167 64.5 q54 0 93.5 -22.5t56.5 -67.5l20 78h72l-76 -487h-77l7 81q-60 -93 -180 -93zM469 660l-10 -59h-249l9 59h250z" />
<glyph horiz-adv-x="603" d="M52 0zM426 245q2 15 3 28.5t1 25.5q0 69 -32.5 100t-84.5 31q-69 0 -113 -44t-59 -143q-2 -14 -3.5 -30.5t-1.5 -28.5q0 -127 116 -127q31 0 59.5 10.5t51.5 33.5t39 58.5t24 85.5zM222 -12q-83 0 -126.5 48t-43.5 141q0 15 2 32.5t4 34.5q17 126 81 190.5t167 64.5 q54 0 93.5 -22.5t56.5 -67.5l20 78h72l-76 -487h-77l7 81q-60 -93 -180 -93zM420 691h66q-5 -35 -18 -59t-33 -38t-46.5 -20t-59.5 -6t-58 6t-41.5 20t-22.5 38t-1 59h66q-7 -39 9 -53t53 -14q38 0 59 14t27 53z" />
<glyph horiz-adv-x="611" d="M397 5l11 71q-35 -48 -81.5 -67.5t-95.5 -19.5q-82 0 -121 40.5t-39 114.5q0 24 3 48l47 295h85l-45 -284q-3 -21 -3 -42q0 -103 99 -103q69 0 114 46.5t61 134.5l40 248h85l-76 -481q-9 -58 -32.5 -100t-58.5 -69t-80 -40t-97 -13q-71 0 -119.5 25t-70.5 90l65 44 q17 -50 48.5 -69.5t81.5 -19.5q34 0 64 8.5t53.5 26.5t39.5 46.5t22 69.5z" />
<glyph horiz-adv-x="611" d="M23 0zM397 5l11 71q-35 -48 -81.5 -67.5t-95.5 -19.5q-82 0 -121 40.5t-39 114.5q0 24 3 48l47 295h85l-45 -284q-3 -21 -3 -42q0 -103 99 -103q69 0 114 46.5t61 134.5l40 248h85l-76 -481q-9 -58 -32.5 -100t-58.5 -69t-80 -40t-97 -13q-71 0 -119.5 25t-70.5 90l65 44 q17 -50 48.5 -69.5t81.5 -19.5q34 0 64 8.5t53.5 26.5t39.5 46.5t22 69.5zM401 691h109l-1 -6l-127 -111h-76v4z" />
<glyph horiz-adv-x="611" d="M23 0zM355 643l-80 -69h-94v3l137 114h82l101 -114v-3h-91zM397 5l11 71q-35 -48 -81.5 -67.5t-95.5 -19.5q-82 0 -121 40.5t-39 114.5q0 24 3 48l47 295h85l-45 -284q-3 -21 -3 -42q0 -103 99 -103q69 0 114 46.5t61 134.5l40 248h85l-76 -481q-9 -58 -32.5 -100 t-58.5 -69t-80 -40t-97 -13q-71 0 -119.5 25t-70.5 90l65 44q17 -50 48.5 -69.5t81.5 -19.5q34 0 64 8.5t53.5 26.5t39.5 46.5t22 69.5z" />
<glyph horiz-adv-x="611" d="M23 0zM434 580q-27 0 -39 12t-12 34q0 35 18.5 51t46.5 16q25 0 38.5 -12.5t13.5 -35.5q0 -32 -18.5 -48.5t-47.5 -16.5zM261 580q-50 0 -50 46q0 35 18.5 51t46.5 16q24 0 37.5 -12t13.5 -35q0 -32 -18 -49t-48 -17zM397 5l11 71q-35 -48 -81.5 -67.5t-95.5 -19.5 q-82 0 -121 40.5t-39 114.5q0 24 3 48l47 295h85l-45 -284q-3 -21 -3 -42q0 -103 99 -103q69 0 114 46.5t61 134.5l40 248h85l-76 -481q-9 -58 -32.5 -100t-58.5 -69t-80 -40t-97 -13q-71 0 -119.5 25t-70.5 90l65 44q17 -50 48.5 -69.5t81.5 -19.5q34 0 64 8.5t53.5 26.5 t39.5 46.5t22 69.5z" />
<glyph horiz-adv-x="385" d="M316 455l45 -31q-26 -43 -64.5 -60t-86.5 -17q-144 0 -144 137q0 21 4 44q14 96 62 140t123 44q60 0 90.5 -24t43.5 -65l-53 -27q-9 27 -27.5 44t-58.5 17q-50 0 -77 -32.5t-37 -96.5q-2 -14 -3 -23t-1 -20q0 -45 20 -64t65 -19q32 0 55.5 10.5t43.5 42.5z" />
<glyph horiz-adv-x="434" d="M326 530q3 19 3 37q0 47 -21.5 68.5t-56.5 21.5q-47 0 -76 -30.5t-40 -97.5q-2 -11 -3 -21t-1 -20q0 -44 20 -65t58 -21q44 0 75.5 30t41.5 98zM245 712q38 0 65 -16.5t39 -49.5l14 54h57l-54 -342h-60l4 55q-41 -66 -124 -66q-59 0 -90 34t-31 101q0 11 1 22.5t3 24.5 q12 91 57.5 137t118.5 46z" />
<glyph horiz-adv-x="600" d="M302 480h-60l41 220h86z" />
<glyph horiz-adv-x="223" d="M39 0l91 504h70l-67 -504h-94zM195 705q25 0 38 -13t13 -36q0 -32 -18.5 -48.5t-47.5 -16.5q-24 0 -37.5 13t-13.5 36q0 32 18.5 48.5t47.5 16.5z" />
<glyph horiz-adv-x="489" d="M24 166q0 113 64 174t174 72l16 99h84l-24 -154h-44q-81 0 -132 -44.5t-51 -136.5q0 -54 35.5 -80.5t101.5 -26.5q57 0 101.5 23.5t86.5 87.5l54 -44q-45 -76 -108.5 -108.5t-149.5 -32.5q-99 0 -153.5 44.5t-54.5 126.5zM350 712q52 0 52 -49q0 -32 -18.5 -48t-47.5 -16 q-52 0 -52 49q0 32 18.5 48t47.5 16z" />
<glyph horiz-adv-x="373" d="M331 291l-12 -72h-277l12 72h277z" />
<glyph horiz-adv-x="680" d="M637 291l-12 -72h-584l12 72h584z" />
<glyph horiz-adv-x="728" d="M333 -12q-125 0 -189 64t-64 200q0 23 2 47.5t6 51.5q13 97 42 165.5t73 112t104 63.5t137 20q99 0 154 -34t81 -103l-76 -41q-20 59 -59 83.5t-107 24.5q-51 0 -93.5 -13.5t-75.5 -46.5t-56.5 -89.5t-36.5 -141.5q-9 -59 -9 -103q0 -54 12 -90t35 -58t56.5 -31.5 t76.5 -9.5q42 0 79.5 11.5t67.5 37.5t50.5 68.5t28.5 105.5h-184l11 70h271l-9 -63q-11 -72 -35.5 -128t-64.5 -94.5t-96.5 -58.5t-131.5 -20z" />
<glyph horiz-adv-x="627" d="M66 0l111 700h89l-111 -700h-89zM476 0l-249 341l1 3l346 356h106l-350 -353l256 -347h-110z" />
<glyph horiz-adv-x="521" d="M51 0l111 700h86l-111 -700h-86zM371 0l-185 236v4l249 247h100l-253 -244l185 -243h-96z" />
<glyph horiz-adv-x="793" d="M69 6zM633 105q-51 -48 -117 -73.5t-151 -25.5q-144 0 -220 75t-76 206q0 88 29 162t81 127.5t124.5 83.5t160.5 30q136 0 207 -68.5t71 -188.5q0 -54 -13 -99t-37 -77.5t-58.5 -50.5t-76.5 -18q-37 0 -59 15t-25 49q-20 -34 -53.5 -53t-78.5 -19q-46 0 -74 21.5 t-28 64.5q0 25 9 47t29 39t51.5 27t76.5 10h83q1 6 1.5 13t0.5 12q0 36 -20 50t-57 14q-35 0 -59.5 -12t-41.5 -31l-27 35q23 29 57.5 43.5t82.5 14.5q55 0 90 -23.5t35 -82.5q0 -15 -3 -34l-15 -92q-1 -3 -2 -11.5t-1 -13.5q0 -43 45 -43q25 0 47.5 13.5t40 40t28 64.5 t10.5 87q0 55 -17 96t-48 68t-74.5 40.5t-96.5 13.5q-72 0 -136.5 -24t-112.5 -70t-76.5 -114.5t-28.5 -156.5q0 -61 18 -106t51.5 -75t80.5 -44.5t106 -14.5q74 0 136.5 21.5t110.5 66.5zM358 228q48 0 79.5 31t42.5 84l-81 1q-50 1 -75.5 -17t-25.5 -53q0 -46 60 -46z" />
<glyph horiz-adv-x="696" d="M91 350q13 96 38.5 165t65 112.5t93.5 64t124 20.5q118 0 175 -58t57 -188q0 -52 -9 -116q-27 -189 -105.5 -275.5t-219.5 -86.5q-117 0 -173 57t-56 185q0 27 2.5 57t7.5 63zM559 464q0 97 -39 137t-112 40q-45 0 -82 -14.5t-65.5 -48t-50 -89.5t-34.5 -140 q-5 -34 -8 -63t-3 -54q0 -49 10 -82.5t29 -53.5t47 -29t64 -9q46 0 83 14t66 47.5t50 90t35 141.5q5 32 7.5 60.5t2.5 52.5z" />
<glyph horiz-adv-x="331" d="M169 0h-85l93 589l-104 -64l-26 69l177 106h56z" />
<glyph horiz-adv-x="592" d="M14 0l12 83l261 214q49 41 84.5 73.5t58 62t32.5 57.5t10 59q0 47 -31 70t-89 23q-68 0 -114 -27t-85 -85l-55 46q48 71 109.5 103.5t150.5 32.5q102 0 152 -40t50 -112q0 -39 -12 -74.5t-38.5 -72.5t-69.5 -79t-106 -94l-199 -166h383l-12 -74h-492z" />
<glyph horiz-adv-x="601" d="M242 -12q-89 0 -143 33.5t-80 95.5l69 44q38 -103 161 -103q43 0 78 10.5t60.5 32.5t39.5 54t14 76q0 46 -28.5 71.5t-88.5 25.5h-98l12 76h95q29 0 54.5 10t44.5 28.5t30 45.5t11 61q0 48 -33.5 70.5t-95.5 22.5q-58 0 -101 -22t-83 -73l-53 52q46 59 106.5 86t147.5 27 q93 0 146 -36.5t53 -114.5q0 -59 -31 -111t-91 -81q88 -34 88 -128q0 -53 -18.5 -99.5t-54.5 -80.5t-89 -53.5t-122 -19.5z" />
<glyph horiz-adv-x="635" d="M17 183l10 60l301 457h89l-295 -441h287l51 319h85l-51 -319h104l-12 -76h-104l-29 -183h-85l29 183h-380z" />
<glyph horiz-adv-x="585" d="M231 624l-55 -219q35 20 76.5 30t83.5 10q41 0 78 -10t64.5 -31t44 -54t16.5 -80q0 -61 -21 -113t-60 -89.5t-95 -58.5t-126 -21q-81 0 -137.5 37.5t-82.5 100.5l69 42q43 -111 163 -111q44 0 81.5 14.5t64.5 41t42.5 64t15.5 82.5q0 60 -37 88.5t-106 28.5 q-54 0 -98.5 -16.5t-83.5 -44.5l-44 26l91 359h399l-12 -76h-331z" />
<glyph horiz-adv-x="653" d="M316 -12q-52 0 -94.5 14.5t-73 45.5t-47.5 80.5t-17 118.5q0 23 1.5 47t5.5 50q26 188 113 278t216 90q86 0 138 -31.5t73 -89.5l-71 -42q-18 48 -55.5 70.5t-90.5 22.5q-58 0 -98.5 -24.5t-68.5 -65.5t-45 -96t-27 -115l-4 -23q15 27 37 49.5t49.5 38t60 24.5t67.5 9 q97 0 149.5 -47t52.5 -132q0 -54 -17 -103.5t-50.5 -87t-84.5 -59.5t-119 -22zM366 368q-39 0 -74 -13t-61 -36.5t-41 -57t-15 -75.5q0 -58 37 -93.5t104 -35.5q41 0 75 13.5t58 38.5t37.5 60.5t13.5 79.5q0 56 -32.5 87.5t-101.5 31.5z" />
<glyph horiz-adv-x="497" d="M119 0q13 83 42 170t70.5 169.5t95 155.5t115.5 129h-350l12 76h461l-13 -82q-63 -31 -119 -96.5t-102 -150t-78.5 -181.5t-47.5 -190h-86z" />
<glyph horiz-adv-x="639" d="M280 -12q-108 0 -165 45.5t-57 126.5q0 43 13 78t35.5 61t53 42.5t64.5 24.5q-42 15 -65 47t-23 80q0 54 18 95t51 68.5t79.5 41.5t103.5 14q99 0 150.5 -38t51.5 -113q0 -76 -38 -127t-101 -72q48 -13 78.5 -46.5t30.5 -90.5q0 -54 -20 -98t-56.5 -75t-88.5 -47.5 t-115 -16.5zM343 401q33 0 62.5 10t52 28.5t36 46.5t13.5 64q0 48 -32.5 71.5t-93.5 23.5q-74 0 -118.5 -37t-44.5 -109q0 -45 31 -71.5t94 -26.5zM288 58q36 0 70 10t60.5 30.5t42.5 50.5t16 71q0 53 -38.5 80.5t-106.5 27.5q-41 0 -75.5 -10.5t-59.5 -31t-39 -50.5 t-14 -69q0 -54 37 -81.5t107 -27.5z" />
<glyph horiz-adv-x="653" d="M323 327q39 0 74 13t61 37.5t41 59t15 77.5q0 58 -37 93.5t-104 35.5q-41 0 -75 -13.5t-58 -38.5t-37.5 -60.5t-13.5 -79.5q0 -58 32.5 -91t101.5 -33zM373 712q52 0 94.5 -14.5t73 -45.5t47.5 -80.5t17 -118.5q0 -23 -1.5 -47t-5.5 -50q-26 -188 -113 -278t-216 -90 q-86 0 -138 31.5t-73 89.5l71 42q18 -48 55.5 -70.5t90.5 -22.5q58 0 98.5 24.5t68.5 65.5t45 96t27 115l4 23q-29 -57 -86 -91.5t-128 -34.5q-97 0 -149.5 48t-52.5 136q0 54 17 103t50.5 86.5t84.5 60t119 22.5z" />
<glyph d="M48 300q12 83 37 142.5t64 97t90.5 55t115.5 17.5q110 0 169 -53t59 -172q0 -20 -1.5 -42t-5.5 -46q-23 -163 -101.5 -237t-207.5 -74q-110 0 -168 53t-58 171q0 20 1.5 42t5.5 46zM500 387q0 87 -39 121t-111 34q-43 0 -78.5 -11.5t-63 -39t-46.5 -74.5t-30 -117 q-4 -26 -6 -47.5t-2 -41.5q0 -44 10 -73t29 -47t47 -25.5t63 -7.5q44 0 79.5 11.5t62.5 39.5t46.5 74.5t30.5 116.5q4 25 6 46.5t2 40.5z" />
<glyph d="M77 78h160l65 411l-95 -64l-26 69l169 106h54l-83 -522h169l-12 -78h-413z" />
<glyph d="M49 0l13 83l222 169q43 33 75 58.5t53 47.5t32.5 43t15.5 45q8 50 -20.5 72.5t-88.5 22.5q-57 0 -99 -26t-76 -82l-53 44q45 68 102.5 101.5t135.5 33.5q103 1 148.5 -41.5t35.5 -119.5q-4 -30 -17 -57.5t-38 -56t-64 -62t-94 -75.5l-166 -127l348 1l-12 -74h-453z" />
<glyph d="M252 -112q-89 0 -143 33.5t-80 95.5l69 44q38 -103 161 -103q43 0 78 10.5t60.5 32.5t39.5 54t14 76q0 46 -28.5 71.5t-88.5 25.5h-98l12 76h95q29 0 54.5 10t44.5 28.5t30 45.5t11 61q0 48 -33.5 70.5t-95.5 22.5q-58 0 -101 -22t-83 -73l-53 52q46 59 106.5 86 t147.5 27q93 0 146 -36.5t53 -114.5q0 -59 -31 -111t-91 -81q88 -34 88 -128q0 -53 -18.5 -99.5t-54.5 -80.5t-89 -53.5t-122 -19.5z" />
<glyph d="M2 83l10 60l301 457h89l-295 -441h287l51 319h85l-51 -319h104l-12 -76h-104l-29 -183h-85l29 183h-380z" />
<glyph d="M236 524l-55 -219q35 20 76.5 30t83.5 10q41 0 78 -10t64.5 -31t44 -54t16.5 -80q0 -61 -21 -113t-60 -89.5t-95 -58.5t-126 -21q-81 0 -137.5 37.5t-82.5 100.5l69 42q43 -111 163 -111q44 0 81.5 14.5t64.5 41t42.5 64t15.5 82.5q0 60 -37 88.5t-106 28.5 q-54 0 -98.5 -16.5t-83.5 -44.5l-44 26l91 359h399l-12 -76h-331z" />
<glyph d="M281 -12q-52 0 -94.5 14.5t-73 45.5t-47.5 80.5t-17 118.5q0 23 1.5 47t5.5 50q26 188 113 278t216 90q86 0 138 -31.5t73 -89.5l-71 -42q-18 48 -55.5 70.5t-90.5 22.5q-58 0 -98.5 -24.5t-68.5 -65.5t-45 -96t-27 -115l-4 -23q15 27 37 49.5t49.5 38t60 24.5t67.5 9 q97 0 149.5 -47t52.5 -132q0 -54 -17 -103.5t-50.5 -87t-84.5 -59.5t-119 -22zM331 368q-39 0 -74 -13t-61 -36.5t-41 -57t-15 -75.5q0 -58 37 -93.5t104 -35.5q41 0 75 13.5t58 38.5t37.5 60.5t13.5 79.5q0 56 -32.5 87.5t-101.5 31.5z" />
<glyph d="M153 -100q13 83 42 170t70.5 169.5t95 155.5t115.5 129h-350l12 76h461l-13 -82q-63 -31 -119 -96.5t-102 -150t-78.5 -181.5t-47.5 -190h-86z" />
<glyph d="M259 -12q-108 0 -165 45.5t-57 126.5q0 43 13 78t35.5 61t53 42.5t64.5 24.5q-42 15 -65 47t-23 80q0 54 18 95t51 68.5t79.5 41.5t103.5 14q99 0 150.5 -38t51.5 -113q0 -76 -38 -127t-101 -72q48 -13 78.5 -46.5t30.5 -90.5q0 -54 -20 -98t-56.5 -75t-88.5 -47.5 t-115 -16.5zM322 401q33 0 62.5 10t52 28.5t36 46.5t13.5 64q0 48 -32.5 71.5t-93.5 23.5q-74 0 -118.5 -37t-44.5 -109q0 -45 31 -71.5t94 -26.5zM267 58q36 0 70 10t60.5 30.5t42.5 50.5t16 71q0 53 -38.5 80.5t-106.5 27.5q-41 0 -75.5 -10.5t-59.5 -31t-39 -50.5 t-14 -69q0 -54 37 -81.5t107 -27.5z" />
<glyph d="M294 227q39 0 74 13t61 37.5t41 59t15 77.5q0 58 -37 93.5t-104 35.5q-41 0 -75 -13.5t-58 -38.5t-37.5 -60.5t-13.5 -79.5q0 -58 32.5 -91t101.5 -33zM344 612q52 0 94.5 -14.5t73 -45.5t47.5 -80.5t17 -118.5q0 -23 -1.5 -47t-5.5 -50q-26 -188 -113 -278t-216 -90 q-86 0 -138 31.5t-73 89.5l71 42q18 -48 55.5 -70.5t90.5 -22.5q58 0 98.5 24.5t68.5 65.5t45 96t27 115l4 23q-29 -57 -86 -91.5t-128 -34.5q-97 0 -149.5 48t-52.5 136q0 54 17 103t50.5 86.5t84.5 60t119 22.5z" />
<glyph horiz-adv-x="609" d="M66 300q12 83 35.5 142.5t59.5 97t84 55t108 17.5q103 0 155.5 -51.5t52.5 -167.5q0 -21 -1.5 -44.5t-5.5 -49.5q-23 -163 -95.5 -237t-193.5 -74q-101 0 -154 52t-53 166q0 21 2 44.5t6 49.5zM479 394q0 83 -34 115.5t-97 32.5q-39 0 -70.5 -11.5t-56.5 -39t-42.5 -74.5 t-28.5 -117q-9 -56 -9 -96q0 -41 8.5 -69t25 -45t41 -24.5t55.5 -7.5q39 0 71 11.5t57 39.5t43 74.5t29 116.5q5 27 6.5 50.5t1.5 43.5z" />
<glyph horiz-adv-x="300" d="M166 0h-82l77 489l-97 -64l-25 69l169 106h53z" />
<glyph horiz-adv-x="504" d="M7 0l11 71l218 185q42 36 72 64.5t48.5 53t27 48t8.5 49.5q0 38 -26 55t-72 17q-51 0 -90 -26.5t-71 -78.5l-54 44q41 65 95 97.5t134 32.5q83 0 125.5 -33.5t42.5 -94.5q0 -33 -11 -64t-34 -64t-60.5 -70t-89.5 -82l-157 -134h307l-11 -70h-413z" />
<glyph horiz-adv-x="572" d="M210 -113q-79 0 -130.5 35.5t-74.5 98.5l65 44q17 -51 52.5 -80t93.5 -29q41 0 76 10.5t60 32.5t39 54t14 76q0 47 -27.5 72.5t-86.5 25.5h-93l12 76h90q27 0 51.5 10t43 29t29.5 46t11 61q0 48 -32 71t-92 23q-53 0 -92.5 -19.5t-77.5 -76.5l-55 52q45 63 103 88t139 25 q90 0 142 -36.5t52 -113.5q0 -60 -30.5 -112t-91.5 -82q89 -34 89 -129q0 -53 -18 -99t-53.5 -80t-87.5 -53.5t-120 -19.5z" />
<glyph horiz-adv-x="595" d="M8 83l9 57l290 460h84l-283 -448h271l52 326h82l-52 -326h97l-11 -69h-97l-29 -183h-82l29 183h-360z" />
<glyph horiz-adv-x="550" d="M211 526l-55 -221q33 20 72 30t78 10t74.5 -9.5t61.5 -30.5t41.5 -54.5t15.5 -81.5q0 -60 -20.5 -111.5t-58.5 -89t-91.5 -59t-118.5 -21.5q-80 0 -133 34t-76 96l64 43q20 -48 57.5 -76.5t98.5 -28.5q41 0 76.5 15t61 42.5t40 65t14.5 82.5q0 114 -138 114 q-48 0 -89 -16t-79 -44l-44 26l92 359h379l-12 -74h-311z" />
<glyph d="M303 -12q-50 0 -91.5 14.5t-70.5 45.5t-45 80.5t-16 118.5q0 23 1.5 47t5.5 50q27 192 107.5 280t207.5 88q81 0 130.5 -31.5t69.5 -89.5l-67 -42q-17 48 -52.5 70.5t-86.5 22.5q-55 0 -93.5 -24t-64.5 -65t-42 -95.5t-26 -114.5l-4 -24q28 54 81.5 87t121.5 33 q94 0 144.5 -47t50.5 -132q0 -54 -16 -103.5t-48.5 -87t-81.5 -59.5t-115 -22zM350 369q-37 0 -69.5 -13t-57 -36.5t-38.5 -57t-14 -75.5q0 -56 34 -93t98 -37q39 0 71 14t55.5 39t36 60.5t12.5 78.5q0 56 -31 88t-97 32z" />
<glyph horiz-adv-x="465" d="M98 -100q13 83 40.5 170t67 169.5t90 155.5t109.5 129h-332l11 76h438l-12 -82q-40 -21 -77 -57t-70.5 -84t-62.5 -105.5t-52.5 -119t-41 -126t-26.5 -126.5h-82z" />
<glyph horiz-adv-x="608" d="M260 -12q-102 0 -155.5 45t-53.5 125q0 44 12.5 79t34.5 60.5t50 42.5t60 25q-39 15 -61.5 47t-22.5 80q0 54 17.5 95.5t50 69t77 41.5t98.5 14q94 0 143 -37.5t49 -112.5q0 -77 -37 -128t-97 -71q45 -13 73.5 -46t28.5 -90q0 -55 -19 -99t-54 -75t-84.5 -48t-109.5 -17z M322 401q33 0 61 10.5t48.5 30t32.5 47.5t12 63q0 93 -116 93q-70 0 -111.5 -37t-41.5 -111q0 -45 28 -70.5t87 -25.5zM267 59q36 0 68.5 10.5t56.5 31.5t38.5 51.5t14.5 69.5q0 51 -35.5 78.5t-98.5 27.5q-79 0 -128.5 -42t-49.5 -121q0 -53 34 -79.5t100 -26.5z" />
<glyph d="M286 227q36 0 68.5 14t56.5 39.5t38.5 60t14.5 76.5q0 57 -34 91.5t-98 34.5q-35 0 -67 -11.5t-56 -35t-38.5 -60t-14.5 -85.5q0 -57 32 -90.5t98 -33.5zM335 612q51 0 91.5 -14t69.5 -44.5t44.5 -78.5t15.5 -117q0 -23 -1.5 -47.5t-5.5 -51.5q-26 -192 -107.5 -281.5 t-208.5 -89.5q-79 0 -129.5 32t-70.5 91l67 41q36 -93 140 -93q38 0 73 13t64.5 46.5t52 91.5t35.5 149l3 21q-27 -57 -79.5 -90.5t-122.5 -33.5q-92 0 -143.5 47.5t-51.5 135.5q0 61 18.5 111t53 86t83.5 56t109 20z" />
<glyph horiz-adv-x="427" d="M10 0zM213 218q73 0 108 -35.5t35 -113.5q0 -17 -1 -31t-4 -34q-16 -108 -62.5 -161t-135.5 -53q-73 0 -108 35t-35 113q0 14 1.5 31.5t3.5 34.5q16 113 64.5 163.5t133.5 50.5zM207 157q-23 0 -42 -7.5t-34 -25.5t-26 -47.5t-18 -73.5q-2 -17 -4 -33.5t-2 -28.5 q0 -51 20 -70.5t57 -19.5q47 0 77.5 33t44.5 120q2 17 4 33t2 29q0 51 -20.5 71t-58.5 20z" />
<glyph horiz-adv-x="223" d="M7 0zM100 -200h-70l50 320l-55 -33l-18 59l113 64h44z" />
<glyph horiz-adv-x="366" d="M0 0zM-25 -200l10 61l147 120q47 38 72.5 65t25.5 60q0 51 -68 51q-32 0 -55 -14.5t-43 -44.5l-42 39q29 43 65.5 62t84.5 19q63 0 97.5 -24t34.5 -75q0 -24 -7.5 -45t-23.5 -42t-40 -43.5t-57 -48.5l-93 -74l199 1l-9 -67h-298z" />
<glyph horiz-adv-x="367" d="M0 0zM117 -210q-56 0 -89.5 21.5t-50.5 60.5l56 34q11 -27 32 -41.5t56 -14.5q42 0 68.5 20.5t26.5 58.5q0 26 -15 38.5t-49 12.5h-52l10 60h50q32 0 52.5 19t20.5 50q0 26 -16 37t-51 11q-29 0 -51 -10t-43 -39l-44 38q26 38 62.5 55t87.5 17q62 0 95 -22.5t33 -71.5 q0 -37 -18.5 -67t-53.5 -47q24 -8 38 -26.5t14 -50.5q0 -30 -11 -56t-33 -45.5t-53.5 -30.5t-71.5 -11z" />
<glyph horiz-adv-x="392" d="M0 0zM-17 -103l7 51l169 260h70l-162 -247h141l28 167h67l-26 -167h60l-11 -64h-60l-15 -97h-68l16 97h-216z" />
<glyph horiz-adv-x="356" d="M0 0zM112 147l-27 -106q20 9 40.5 13.5t44.5 4.5q51 0 85.5 -24.5t34.5 -82.5q0 -35 -12 -64.5t-35 -51.5t-55.5 -34t-74.5 -12q-105 0 -139 79l54 37q13 -27 33.5 -41.5t55.5 -14.5q45 0 74 26t29 68q0 32 -19.5 46t-55.5 14q-27 0 -49.5 -7.5t-42.5 -20.5l-39 22 l52 210h246l-9 -61h-191z" />
<glyph horiz-adv-x="403" d="M11 0zM155 -210q-67 0 -105.5 37t-38.5 119q0 16 1.5 32t3.5 33q16 106 67 156.5t132 50.5q51 0 84 -19t46 -54l-52 -36q-19 49 -80 49q-30 0 -52 -11.5t-37 -32.5t-24.5 -49.5t-14.5 -62.5l-2 -13q16 32 47.5 49t71.5 17q57 0 88 -26.5t31 -77.5q0 -32 -10 -61 t-31 -51.5t-52 -35.5t-73 -13zM180 0q-40 0 -67.5 -23t-27.5 -65q0 -28 18 -45.5t53 -17.5q43 0 68 25t25 67q0 28 -17 43.5t-52 15.5z" />
<glyph horiz-adv-x="309" d="M18 0zM35 -200q7 49 24 97t40.5 92.5t53.5 84t65 69.5l-200 -1l10 65h281l-10 -59q-36 -23 -67 -60.5t-56 -84t-42 -98.5t-26 -105h-73z" />
<glyph horiz-adv-x="393" d="M0 0zM135 -210q-67 0 -102 26t-35 77t27.5 80.5t64.5 39.5q-45 20 -45 76q0 64 41.5 96.5t113.5 32.5q123 0 123 -94q0 -43 -21.5 -72t-56.5 -42q28 -9 44.5 -29t16.5 -54q0 -65 -46.5 -101t-124.5 -36zM172 40q38 0 61.5 19t23.5 54q0 23 -17 35t-47 12q-39 0 -61.5 -18 t-22.5 -52q0 -50 63 -50zM142 -154q41 0 67.5 20.5t26.5 58.5q0 27 -19 41t-53 14q-42 0 -68 -20.5t-26 -58.5q0 -26 18.5 -40.5t53.5 -14.5z" />
<glyph horiz-adv-x="402" d="M0 0zM163 5q38 0 66 25t28 67q0 29 -18.5 45t-52.5 16q-38 0 -66 -23.5t-28 -71.5q0 -58 71 -58zM188 218q67 0 105 -36.5t38 -118.5q0 -16 -1.5 -32t-3.5 -33q-16 -106 -67 -157t-132 -51q-51 0 -84.5 18.5t-47.5 51.5q1 1 9 7t17.5 12t17 11.5t9.5 6.5q20 -47 81 -47 q54 0 84.5 38t43.5 119l2 12q-17 -33 -47 -52t-72 -19q-57 0 -88 28t-31 79q0 36 11.5 65.5t33 51.5t52.5 34t70 12z" />
<glyph horiz-adv-x="309" d="M0 0zM133 -138h-57l14 92h-91l9 53h90l15 93h56l-14 -93h90l-8 -53h-90z" />
<glyph horiz-adv-x="309" d="M0 0zM245 7l-8 -53h-238l9 53h237z" />
<glyph horiz-adv-x="309" d="M0 0zM252 51l-8 -55h-237l8 55h237zM238 -36l-7 -55h-238l8 55h237z" />
<glyph horiz-adv-x="212" d="M0 0zM120 -265q-125 12 -125 170q0 33 6 75q31 230 194 243l-2 -58q-26 -3 -46.5 -14t-36.5 -32.5t-28 -55.5t-20 -83q-4 -23 -5 -41.5t-1 -35.5q0 -55 19.5 -80t57.5 -31z" />
<glyph horiz-adv-x="212" d="M0 0zM28 166l13 57q125 -12 125 -170q0 -33 -6 -75q-31 -230 -194 -243l2 58q25 3 46 14t37 32.5t28 55.5t20 83q4 23 5 41.5t1 35.5q0 55 -19.5 80t-57.5 31z" />
<glyph horiz-adv-x="271" d="M189 581q-26 0 -39 12.5t-13 35.5q0 32 18.5 48.5t47.5 16.5q52 0 52 -49q0 -32 -18.5 -48t-47.5 -16zM131 487h85l-76 -487h-85z" />
<glyph horiz-adv-x="521" d="M51 0zM179 -284l-10 38q25 8 42 27.5t23 47.5q-55 -2 -55 47q0 30 17 45t43 15q24 0 38 -13.5t14 -44.5q0 -26 -7.5 -52.5t-22 -49t-35 -38.5t-47.5 -22zM51 0l111 700h86l-111 -700h-86zM371 0l-185 236v4l249 247h100l-253 -244l185 -243h-96z" />
<glyph horiz-adv-x="728" d="M80 0zM333 -12q-125 0 -189 64t-64 200q0 23 2 47.5t6 51.5q13 97 42 165.5t73 112t104 63.5t137 20q99 0 154 -34t81 -103l-76 -41q-20 59 -59 83.5t-107 24.5q-51 0 -93.5 -13.5t-75.5 -46.5t-56.5 -89.5t-36.5 -141.5q-9 -59 -9 -103q0 -54 12 -90t35 -58t56.5 -31.5 t76.5 -9.5q42 0 79.5 11.5t67.5 37.5t50.5 68.5t28.5 105.5h-184l11 70h271l-9 -63q-11 -72 -35.5 -128t-64.5 -94.5t-96.5 -58.5t-131.5 -20zM545 905h66q-5 -35 -18 -59t-33 -38t-46.5 -20t-59.5 -6t-58 6t-41.5 20t-22.5 38t-1 59h66q-7 -39 9 -53t53 -14q38 0 59 14 t27 53z" />
<glyph horiz-adv-x="728" d="M80 0zM465 857l-80 -69h-94v3l137 114h82l101 -114v-3h-91zM333 -12q-125 0 -189 64t-64 200q0 23 2 47.5t6 51.5q13 97 42 165.5t73 112t104 63.5t137 20q99 0 154 -34t81 -103l-76 -41q-20 59 -59 83.5t-107 24.5q-51 0 -93.5 -13.5t-75.5 -46.5t-56.5 -89.5 t-36.5 -141.5q-9 -59 -9 -103q0 -54 12 -90t35 -58t56.5 -31.5t76.5 -9.5q42 0 79.5 11.5t67.5 37.5t50.5 68.5t28.5 105.5h-184l11 70h271l-9 -63q-11 -72 -35.5 -128t-64.5 -94.5t-96.5 -58.5t-131.5 -20z" />
<glyph horiz-adv-x="728" d="M80 0zM268 -284l-10 38q25 8 42 27.5t23 47.5q-55 -2 -55 47q0 30 17 45t43 15q24 0 38 -13.5t14 -44.5q0 -26 -7.5 -52.5t-22 -49t-35 -38.5t-47.5 -22zM333 -12q-125 0 -189 64t-64 200q0 23 2 47.5t6 51.5q13 97 42 165.5t73 112t104 63.5t137 20q99 0 154 -34 t81 -103l-76 -41q-20 59 -59 83.5t-107 24.5q-51 0 -93.5 -13.5t-75.5 -46.5t-56.5 -89.5t-36.5 -141.5q-9 -59 -9 -103q0 -54 12 -90t35 -58t56.5 -31.5t76.5 -9.5q42 0 79.5 11.5t67.5 37.5t50.5 68.5t28.5 105.5h-184l11 70h271l-9 -63q-11 -72 -35.5 -128t-64.5 -94.5 t-96.5 -58.5t-131.5 -20z" />
<glyph horiz-adv-x="728" d="M80 0zM333 -12q-125 0 -189 64t-64 200q0 23 2 47.5t6 51.5q13 97 42 165.5t73 112t104 63.5t137 20q99 0 154 -34t81 -103l-76 -41q-20 59 -59 83.5t-107 24.5q-51 0 -93.5 -13.5t-75.5 -46.5t-56.5 -89.5t-36.5 -141.5q-9 -59 -9 -103q0 -54 12 -90t35 -58t56.5 -31.5 t76.5 -9.5q42 0 79.5 11.5t67.5 37.5t50.5 68.5t28.5 105.5h-184l11 70h271l-9 -63q-11 -72 -35.5 -128t-64.5 -94.5t-96.5 -58.5t-131.5 -20zM459 794q-27 0 -39 12.5t-12 35.5q0 34 19.5 49.5t45.5 15.5q52 0 52 -49q0 -31 -18.5 -47.5t-47.5 -16.5z" />
<glyph horiz-adv-x="627" d="M66 0zM238 -284l-10 38q25 8 42 27.5t23 47.5q-55 -2 -55 47q0 30 17 45t43 15q24 0 38 -13.5t14 -44.5q0 -26 -7.5 -52.5t-22 -49t-35 -38.5t-47.5 -22zM66 0l111 700h89l-111 -700h-89zM476 0l-249 341l1 3l346 356h106l-350 -353l256 -347h-110z" />
<glyph horiz-adv-x="423" d="M396 385l-12 -72h-327l11 72h328z" />
<glyph horiz-adv-x="577" d="M549 385l-12 -72h-481l12 72h481z" />
<glyph horiz-adv-x="773" d="M745 385l-12 -72h-677l12 72h677z" />
<glyph horiz-adv-x="577" d="M549 385l-12 -72h-481l12 72h481z" />
<glyph horiz-adv-x="268" d="M248 700l-111 -700h-84l111 700h84z" />
<glyph horiz-adv-x="614" d="M594 700l-111 -700h-84l111 700h84zM72 0l66 420h-88l11 67h88l10 59q14 92 59.5 132t117.5 40q20 0 42 -3t38 -11l-25 -72q-13 5 -25.5 8.5t-30.5 3.5q-35 0 -60 -21.5t-35 -81.5l-8 -54h138l-11 -67h-138l-66 -420h-83z" />
<glyph horiz-adv-x="614" d="M0 0z" />
</font>
</defs>
</svg>
