<?xml version="1.0" standalone="no"?>
<!DOCTYPE svg PUBLIC "-//W3C//DTD SVG 1.1//EN" "http://www.w3.org/Graphics/SVG/1.1/DTD/svg11.dtd" >
<svg xmlns="http://www.w3.org/2000/svg" xmlns:xlink="http://www.w3.org/1999/xlink" version="1.1">
<metadata></metadata>
<defs>
<font id="honeywell_sans_webmedium" horiz-adv-x="625" >
<font-face units-per-em="1000" ascent="774" descent="-226" />
<missing-glyph horiz-adv-x="235" />
<glyph unicode="fi" horiz-adv-x="629" d="M432 638q0 28 15.5 42t43.5 14t43.5 -14t15.5 -42t-15.5 -42.5t-43.5 -14.5t-43.5 14.5t-15.5 42.5zM116 0v420h-90v67h90v59q0 92 41.5 132t114.5 40q20 0 41 -3.5t38 -10.5l-14 -72q-14 5 -27 8.5t-32 3.5q-36 0 -57 -21.5t-21 -81.5v-54h141v-67h-141v-420h-84z M448 487h86v-487h-86v487z" />
<glyph unicode="fl" horiz-adv-x="629" d="M116 0v420h-90v67h90v59q0 92 41.5 132t114.5 40q20 0 41 -3.5t38 -10.5l-14 -72q-14 5 -27 8.5t-32 3.5q-36 0 -57 -21.5t-21 -81.5v-54h141v-67h-141v-420h-84zM549 0q-48 0 -77 25t-29 85v590h86v-585q0 -26 10.5 -36.5t36.5 -10.5h45v-68h-72z" />
<glyph horiz-adv-x="176" />
<glyph horiz-adv-x="176" />
<glyph unicode="&#xd;" horiz-adv-x="176" />
<glyph unicode=" "  horiz-adv-x="235" />
<glyph unicode="&#x09;" horiz-adv-x="235" />
<glyph unicode="&#xa0;" horiz-adv-x="235" />
<glyph unicode="!" horiz-adv-x="227" d="M161 700l-12 -506h-71l-12 506h95zM55 52q0 29 15.5 43t43.5 14q27 0 43 -14t16 -43q0 -27 -16 -42t-43 -15q-28 0 -43.5 15t-15.5 42z" />
<glyph unicode="&#x22;" horiz-adv-x="309" d="M184 501l-7 211h81l-8 -211h-66zM130 501h-67l-7 211h80z" />
<glyph unicode="#" horiz-adv-x="724" d="M298 441l-52 -163h190l51 163h-189zM98 441l20 66h112l61 193h88l-61 -193h190l62 193h88l-62 -193h109l-19 -66h-111l-51 -163h119l-20 -66h-121l-66 -212h-88l66 212h-189l-66 -212h-89l67 212h-101l20 66h102l51 163h-111z" />
<glyph unicode="$" horiz-adv-x="588" d="M264 402v207q-109 -9 -109 -94q0 -41 24 -69t85 -44zM335 91q60 7 87.5 34t27.5 74q0 43 -25.5 67t-89.5 41v-216zM335 -62h-71v82q-69 5 -123 34t-92 92l63 42q33 -46 67.5 -68.5t84.5 -27.5v231q-103 26 -146 74t-43 114q0 72 46 117t143 52v86h71v-87q67 -5 111 -32 t73 -76l-66 -43q-21 36 -48.5 55.5t-69.5 24.5v-223q105 -26 151.5 -66.5t46.5 -114.5q0 -86 -52 -131t-146 -53v-82z" />
<glyph unicode="%" horiz-adv-x="1044" d="M43 0zM655 204q0 112 41 163t131 51q89 0 129.5 -51t40.5 -163q0 -111 -41 -162.5t-129 -51.5q-90 0 -131 51t-41 163zM925 204q0 87 -25.5 120t-72.5 33q-24 0 -43 -7.5t-31.5 -25.5t-19 -47.5t-6.5 -73.5q0 -87 25.5 -119.5t73.5 -32.5q24 0 42.5 7.5t31 25t19 47 t6.5 73.5zM43 497q0 112 41 163t131 51q89 0 129.5 -51t40.5 -163q0 -111 -41 -162.5t-129 -51.5q-90 0 -131 51t-41 163zM313 497q0 87 -25.5 120t-72.5 33q-24 0 -43 -7.5t-31.5 -25.5t-19 -47.5t-6.5 -73.5q0 -87 25.5 -119.5t73.5 -32.5q24 0 42.5 7.5t31 25t19 47 t6.5 73.5zM726 700l-338 -700h-81l339 700h80z" />
<glyph unicode="&#x26;" horiz-adv-x="708" d="M564 476h82q0 -106 -20.5 -190.5t-59.5 -146.5q31 -22 64.5 -44t71.5 -46l-41 -61q-40 25 -75.5 47t-67.5 45q-46 -45 -106.5 -68.5t-136.5 -23.5q-50 0 -94 11t-76 33.5t-50.5 57.5t-18.5 84q0 40 11.5 69.5t31.5 52.5t46 42t55 37q-45 60 -60 105t-15 77q0 74 47 114.5 t141 40.5q88 0 127 -34.5t39 -97.5q0 -35 -11.5 -64t-33.5 -54.5t-52.5 -49.5t-69.5 -49q35 -38 86.5 -82.5t123.5 -96.5q32 52 48 125t14 167zM187 553q0 -24 12 -58t47 -79q34 22 59 41t41.5 36.5t24 35.5t7.5 39q0 76 -89 76q-52 0 -77 -24t-25 -67zM281 57q51 0 95 16.5 t79 50.5q-78 57 -134 105.5t-95 91.5q-23 -14 -42 -28.5t-32.5 -31.5t-21.5 -37.5t-8 -45.5q0 -56 41.5 -88.5t117.5 -32.5z" />
<glyph unicode="'" horiz-adv-x="187" d="M63 501l-7 211h80l-6 -211h-67z" />
<glyph unicode="(" horiz-adv-x="344" d="M305 -17l-6 -64q-131 13 -192.5 112t-61.5 291t61.5 291t192.5 112l6 -64q-44 -7 -78 -28t-56.5 -61t-34 -101.5t-11.5 -148.5t11.5 -148.5t34 -101.5t56.5 -61t78 -28z" />
<glyph unicode=")" horiz-adv-x="344" d="M39 -17q44 7 78 28t56.5 61t34 101.5t11.5 148.5t-11.5 148.5t-34 101.5t-56.5 61t-78 28l6 64q131 -13 192.5 -112t61.5 -291t-61.5 -291t-192.5 -112z" />
<glyph unicode="*" horiz-adv-x="417" d="M120 349l-57 45l91 109l-129 33l19 69l127 -44l-7 151h79l-9 -151l129 44l19 -68l-128 -34l90 -109l-57 -45l-84 116z" />
<glyph unicode="+" horiz-adv-x="506" d="M291 110h-75v164h-166v71h166v165h75v-165h165v-71h-165v-164z" />
<glyph unicode="," horiz-adv-x="230" d="M72 -130l-17 39q29 10 46 33.5t20 55.5q-24 -3 -44.5 10t-20.5 45q0 29 15.5 42.5t41.5 13.5q29 0 45 -19t16 -64q0 -27 -6 -52t-19 -46t-32 -36t-45 -22z" />
<glyph unicode="-" horiz-adv-x="431" d="M383 291v-72h-334v72h334z" />
<glyph unicode="." horiz-adv-x="230" d="M56 52q0 29 16 43t44 14q27 0 42.5 -14t15.5 -43q0 -27 -15.5 -42t-42.5 -15q-28 0 -44 15t-16 42z" />
<glyph unicode="/" horiz-adv-x="506" d="M501 700l-404 -700h-92l403 700h93z" />
<glyph unicode="0" d="M34 350q0 96 16.5 165t50.5 112.5t86 64t124 20.5t125 -20.5t87 -64t50.5 -112.5t16.5 -165q0 -189 -67.5 -275.5t-211.5 -86.5q-72 0 -124 20.5t-86 64.5t-50.5 112.5t-16.5 164.5zM502 351q0 81 -12.5 136.5t-36.5 89.5t-60 49t-82 15t-81 -14.5t-59 -48t-36.5 -89.5 t-12.5 -140t12.5 -140t36.5 -89.5t59 -47.5t81 -14t82 14t60 47.5t36.5 90t12.5 141.5z" />
<glyph unicode="1" d="M89 0v78h174v511l-94 -64l-38 69l163 106h55v-622h186v-78h-446z" />
<glyph unicode="2" d="M63 0v83l232 214q40 36 68.5 66t46.5 56.5t26.5 51.5t8.5 52q0 60 -36.5 89.5t-103.5 29.5q-69 0 -111.5 -29.5t-71.5 -92.5l-64 46q38 76 98.5 111t155.5 35q109 0 164.5 -48.5t55.5 -136.5q0 -33 -9.5 -64.5t-31 -65.5t-56 -72t-83.5 -85l-177 -167l391 1v-74h-503z " />
<glyph unicode="3" d="M308 -12q-90 0 -150 29t-96 90l62 49q56 -98 181 -98q82 0 126 35.5t44 108.5q0 60 -33.5 93t-104.5 33h-99v76h96q55 0 88.5 31.5t33.5 88.5q0 62 -39 90t-110 28q-60 0 -99.5 -24t-71.5 -81l-62 47q37 66 94.5 97t146.5 31q52 0 94 -11t72 -34t46 -57.5t16 -82.5 q0 -49 -24 -91t-72 -67q57 -17 86.5 -58.5t29.5 -102.5q0 -47 -15 -87.5t-46 -70t-79.5 -46t-114.5 -16.5z" />
<glyph unicode="4" d="M22 183v60l234 457h91l-230 -441h293v319h87v-319h106v-76h-106v-183h-87v183h-388z" />
<glyph unicode="5" d="M191 624l-21 -219q32 20 74 30t85 10q47 0 89.5 -12t75 -38t52 -67.5t19.5 -99.5q0 -53 -17 -97t-50.5 -76t-83 -49.5t-114.5 -17.5q-81 0 -143 29t-97 91l63 50q59 -101 178 -101q85 0 131 45.5t46 123.5q0 76 -44 113t-123 37q-56 0 -98.5 -16.5t-77.5 -44.5l-49 26 l35 359h407v-76h-337z" />
<glyph unicode="6" d="M330 -12q-62 0 -113.5 20.5t-88.5 64t-57 112t-20 163.5q0 96 19 165t55.5 113t89 65t119.5 21q82 0 138.5 -27.5t87.5 -86.5l-65 -47q-27 48 -68 69.5t-97 21.5q-41 0 -76.5 -14t-61.5 -48.5t-40.5 -93t-14.5 -146.5v-26q21 59 76 92t126 33q112 0 173.5 -56.5 t61.5 -161.5q0 -52 -15.5 -95t-46 -73.5t-76.5 -47.5t-106 -17zM161 209q0 -68 43.5 -110t121.5 -42q35 0 64.5 9.5t51 28.5t33.5 48.5t12 69.5q0 75 -40 115.5t-123 40.5q-37 0 -67 -11.5t-51.5 -32.5t-33 -50.5t-11.5 -65.5z" />
<glyph unicode="7" d="M206 0q0 83 15.5 170t45 169.5t72 155.5t97.5 129h-358v76h469v-77q-59 -35 -106 -100.5t-80 -149.5t-50.5 -180.5t-17.5 -192.5h-87z" />
<glyph unicode="8" d="M312 -12q-121 0 -187 54.5t-66 149.5q0 73 38.5 115.5t96.5 56.5q-51 17 -81 57.5t-30 102.5q0 94 58.5 141t170.5 47t171 -47t59 -140q0 -62 -29.5 -103t-80.5 -58q57 -14 95.5 -56.5t38.5 -115.5q0 -95 -66.5 -149.5t-187.5 -54.5zM458 524q0 60 -37.5 90.5 t-108.5 30.5t-108 -30.5t-37 -90.5q0 -57 36.5 -90t108.5 -33q74 0 110 33.5t36 89.5zM480 195q0 65 -45 99t-122 34q-78 0 -123 -34t-45 -99q0 -68 43.5 -102.5t123.5 -34.5t124 34.5t44 102.5z" />
<glyph unicode="9" d="M464 491q0 68 -43.5 110t-121.5 42q-71 0 -116 -39.5t-45 -121.5q0 -75 40 -115.5t123 -40.5q74 0 118.5 45.5t44.5 119.5zM291 -12q-82 0 -138.5 27.5t-87.5 86.5l65 47q27 -48 68 -69.5t97 -21.5q41 0 76.5 14t61.5 48.5t40.5 93t14.5 146.5v26q-21 -61 -76 -95.5 t-126 -34.5q-112 0 -173.5 58t-61.5 165q0 52 15.5 95t46 73.5t76.5 47.5t106 17q62 0 113.5 -20.5t88 -64t57 -112t20.5 -163.5q0 -96 -19 -165t-55.5 -113t-89 -65t-119.5 -21z" />
<glyph unicode=":" horiz-adv-x="230" d="M56 0zM56 52q0 29 16 43t44 14q27 0 42.5 -14t15.5 -43q0 -27 -15.5 -42t-42.5 -15q-28 0 -44 15t-16 42zM56 429q0 29 16 43t44 14q27 0 42.5 -14t15.5 -43q0 -27 -15.5 -42t-42.5 -15q-28 0 -44 15t-16 42z" />
<glyph unicode=";" horiz-adv-x="230" d="M55 0zM72 -130l-17 39q29 10 46 33.5t20 55.5q-24 -3 -44.5 10t-20.5 45q0 29 15.5 42.5t41.5 13.5q29 0 45 -19t16 -64q0 -27 -6 -52t-19 -46t-32 -36t-45 -22zM57 429q0 29 16 43t44 14q27 0 42.5 -14t15.5 -43q0 -27 -15.5 -42t-42.5 -15q-28 0 -44 15t-16 42z" />
<glyph unicode="&#x3c;" horiz-adv-x="490" d="M361 524l42 -56l-219 -158l220 -157l-44 -60l-277 196v39z" />
<glyph unicode="=" horiz-adv-x="506" d="M456 417v-71h-406v71h406zM456 273v-71h-406v71h406z" />
<glyph unicode="&#x3e;" horiz-adv-x="490" d="M129 93l-42 56l220 158l-221 158l44 59l277 -196v-38z" />
<glyph unicode="?" horiz-adv-x="507" d="M196 194v155h44q161 0 161 150q0 69 -41.5 104t-118.5 35q-59 0 -100.5 -25t-73.5 -89l-62 45q36 76 96 109.5t150 33.5q54 0 98 -14.5t74.5 -41t47.5 -65t17 -86.5q0 -95 -52.5 -148.5t-153.5 -61.5v-101h-86zM179 52q0 29 16 43t44 14q27 0 42.5 -14t15.5 -43 q0 -27 -15.5 -42t-42.5 -15q-28 0 -44 15t-16 42z" />
<glyph unicode="@" horiz-adv-x="818" d="M683 -2q-45 -48 -111 -73.5t-153 -25.5q-82 0 -146.5 24.5t-109 69.5t-68 108.5t-23.5 140.5t23.5 140t68 107.5t109 69t146.5 24.5q79 0 140 -22.5t102.5 -63.5t62.5 -98.5t21 -127.5q0 -88 -39 -139t-114 -51q-38 0 -64 15t-34 50q-16 -35 -47 -54t-77 -19 q-50 0 -82.5 25.5t-32.5 76.5q0 23 8.5 42.5t26.5 34t47 22.5t70 8h82q-2 52 -24 70.5t-67 18.5q-37 0 -59.5 -11.5t-36.5 -31.5l-32 35q19 29 51.5 43.5t82.5 14.5q32 0 58.5 -7.5t45.5 -24t29.5 -43t10.5 -65.5v-94q0 -33 13 -49.5t45 -16.5q42 0 69 37t27 111 q0 69 -20.5 120.5t-58 86t-89.5 51.5t-115 17q-68 0 -123.5 -19t-95.5 -57t-62 -94.5t-22 -131.5t22 -132t62 -95t96 -57t124 -19q75 0 135 21.5t102 66.5zM383 121q46 0 75 30.5t30 84.5v1h-83q-46 0 -68.5 -14t-22.5 -46q0 -56 69 -56z" />
<glyph unicode="A" horiz-adv-x="622" d="M308 619l-134 -401h270zM518 0l-48 143h-321l-48 -143h-91l245 700h112l245 -700h-94z" />
<glyph unicode="B" horiz-adv-x="691" d="M110 0v700h293q56 0 95 -13t64 -37t36 -57.5t11 -73.5q0 -58 -27 -98t-75 -58q31 -6 53.5 -22t37.5 -38.5t22 -49t7 -53.5q0 -99 -58 -149.5t-177 -50.5h-282zM403 626h-206v-230h202q33 0 56 9.5t37.5 25t21.5 36.5t7 45q0 60 -31.5 87t-86.5 27zM400 319h-203v-245h200 q142 0 142 127q0 57 -32.5 87.5t-106.5 30.5z" />
<glyph unicode="C" horiz-adv-x="699" d="M392 -12q-78 0 -137 20t-98.5 63.5t-59.5 112.5t-20 167t20 166.5t59.5 112t98.5 63t137 19.5q94 0 156.5 -30t98.5 -102l-70 -47q-29 61 -73.5 84t-111.5 23q-54 0 -96 -13t-71 -46t-44 -88.5t-15 -140.5t15 -141t44 -89.5t71 -47.5t96 -14q68 0 117 26t84 91l66 -45 q-43 -78 -109 -111t-158 -33z" />
<glyph unicode="D" horiz-adv-x="753" d="M373 0h-263v700h264q153 0 228 -82.5t75 -263.5t-76.5 -267.5t-227.5 -86.5zM199 76h171q50 0 90 13.5t68.5 45.5t44 85t15.5 131q0 76 -14 128.5t-41 84.5t-66.5 46t-89.5 14h-178v-548z" />
<glyph unicode="E" horiz-adv-x="666" d="M110 0v700h506v-76h-419v-233h367v-78h-367v-237h429v-76h-516z" />
<glyph unicode="F" horiz-adv-x="614" d="M110 0v700h488v-76h-399v-236h358v-78h-358v-310h-89z" />
<glyph unicode="G" horiz-adv-x="743" d="M377 -12q-146 0 -223 87.5t-77 275.5q0 98 20 166.5t59.5 112t98.5 63t137 19.5q94 0 156 -30.5t98 -97.5l-71 -48q-29 56 -73 80t-110 24q-54 0 -96.5 -12.5t-71 -45t-43.5 -88.5t-15 -143q0 -84 14.5 -139.5t43 -89.5t70 -48t94.5 -14q34 0 68.5 9.5t62.5 32t46.5 60.5 t19.5 96v25h-191v70h273v-353h-74l-6 99q-29 -53 -85 -82t-125 -29z" />
<glyph unicode="H" horiz-adv-x="795" d="M596 0v313h-397v-313h-89v700h89v-309h397v309h89v-700h-89z" />
<glyph unicode="I" horiz-adv-x="309" d="M110 0v700h89v-700h-89z" />
<glyph unicode="J" horiz-adv-x="509" d="M174 -12q-43 0 -83 11.5t-75 37.5l41 67q26 -21 58 -31.5t66 -10.5q66 0 106.5 43.5t40.5 145.5v449h89v-442q0 -77 -18 -129t-50.5 -83.5t-77 -44.5t-97.5 -13z" />
<glyph unicode="K" horiz-adv-x="641" d="M110 0v700h89v-389l319 389h106l-262 -313l277 -387h-106l-230 322l-104 -123v-199h-89z" />
<glyph unicode="L" horiz-adv-x="633" d="M199 76h407v-76h-496v700h89v-624z" />
<glyph unicode="M" horiz-adv-x="949" d="M439 0l-247 547l3 -547h-85v700h96l270 -599l268 599h95v-700h-86l4 547l-247 -547h-71z" />
<glyph unicode="N" horiz-adv-x="783" d="M581 0l-388 569l3 -569h-86v700h90l389 -569l-2 569h86v-700h-92z" />
<glyph unicode="O" horiz-adv-x="782" d="M391 -12q-80 0 -139 20.5t-98 65t-58 113t-19 164.5t19.5 164.5t58.5 112t98 64t138 20.5q82 0 141.5 -20.5t98 -64t57 -112t18.5 -164.5q0 -192 -79 -277.5t-236 -85.5zM391 640q-55 0 -97 -13.5t-70.5 -46.5t-43 -89t-14.5 -141q0 -83 14.5 -138.5t43 -89.5t70.5 -48 t97 -14t97.5 14t71 47.5t43 89.5t14.5 141q0 82 -14.5 137.5t-43 89t-71 47.5t-97.5 14z" />
<glyph unicode="P" horiz-adv-x="672" d="M110 0v700h279q121 0 180.5 -57t59.5 -163q0 -116 -63 -175.5t-187 -59.5h-180v-245h-89zM390 624h-191v-303h190q71 0 111 39t40 117q0 71 -37 109t-113 38z" />
<glyph unicode="Q" horiz-adv-x="779" d="M568 26l87 -118h-101l-66 90q-43 -10 -97 -10q-80 0 -139 20.5t-98 65t-58 113t-19 164.5t19.5 164.5t58.5 112t98 64t138 20.5q82 0 141.5 -20.5t98 -64t57 -112t18.5 -164.5q0 -128 -34.5 -207.5t-103.5 -117.5zM391 640q-55 0 -97 -13.5t-70.5 -46.5t-43 -89 t-14.5 -141q0 -83 14.5 -138.5t43 -89.5t70.5 -48t97 -14q25 0 48 3l-95 129h102l75 -103q48 29 72.5 91t24.5 172q0 82 -15 137.5t-43.5 89t-71 47.5t-97.5 14z" />
<glyph unicode="R" horiz-adv-x="676" d="M388 624h-189v-282h188q69 0 108 35.5t39 109.5q0 66 -35.5 101.5t-110.5 35.5zM199 265v-265h-89v700h278q119 0 177 -54.5t58 -155.5q0 -83 -36 -135t-102 -75l150 -280h-98l-142 265h-196z" />
<glyph unicode="S" horiz-adv-x="629" d="M552 588l-70 -44q-28 51 -68.5 75t-106.5 24q-44 0 -74 -9t-49 -25.5t-27 -38.5t-8 -48q0 -20 6 -38t21 -33t39.5 -26.5t61.5 -19.5l71 -15q116 -25 168.5 -72t52.5 -129q0 -98 -67.5 -149.5t-189.5 -51.5q-44 0 -83.5 7t-74 23t-64 42t-52.5 64l70 44q39 -58 85 -84.5 t117 -26.5q92 0 133 32.5t41 90.5q0 27 -7 46.5t-24 34t-46 25.5t-72 21l-71 16q-198 45 -198 195q0 43 15.5 79t46 61.5t75.5 39.5t104 14q98 0 154 -32.5t91 -91.5z" />
<glyph unicode="T" horiz-adv-x="571" d="M12 700h547v-76h-229v-624h-89v624h-229v76z" />
<glyph unicode="U" horiz-adv-x="752" d="M571 271v429h89v-425q0 -142 -75.5 -214.5t-208.5 -72.5q-135 0 -209.5 72t-74.5 215v425h89v-429q0 -56 14 -96t39.5 -65.5t61.5 -37.5t80 -12t80 12t61.5 37.5t39.5 65.5t14 96z" />
<glyph unicode="V" horiz-adv-x="616" d="M7 700h94l208 -619l209 619h91l-245 -700h-112z" />
<glyph unicode="W" horiz-adv-x="911" d="M413 698h87l158 -569l160 571h86l-205 -700h-85l-159 572l-158 -572h-86l-204 700h91l157 -575z" />
<glyph unicode="X" horiz-adv-x="634" d="M517 0l-202 291l-203 -291h-99l252 358l-236 342h103l188 -275l186 275h99l-236 -340l252 -360h-104z" />
<glyph unicode="Y" horiz-adv-x="610" d="M261 280l-251 420h96l201 -346l200 346h93l-250 -420v-280h-89v280z" />
<glyph unicode="Z" horiz-adv-x="570" d="M20 0v67l423 558l-398 -1v76h504v-67l-426 -558l429 1v-76h-532z" />
<glyph unicode="[" horiz-adv-x="339" d="M72 -105v821h224v-65h-146v-691h149v-65h-227z" />
<glyph unicode="\" horiz-adv-x="511" d="M408 0l-403 700h89l403 -700h-89z" />
<glyph unicode="]" horiz-adv-x="339" d="M40 -105v65h149v691h-146v65h224v-821h-227z" />
<glyph unicode="^" horiz-adv-x="434" d="M175 700h85l149 -315v-2h-88l-104 231l-107 -231h-85v2z" />
<glyph unicode="_" horiz-adv-x="480" d="M485 0v-66h-490v66h490z" />
<glyph unicode="`" horiz-adv-x="600" d="M275 574l-115 111v6h111l77 -113v-4h-73z" />
<glyph unicode="a" horiz-adv-x="572" d="M247 57q68 0 110 45t43 127v2h-125q-70 0 -100.5 -23t-30.5 -71q0 -38 24.5 -59t78.5 -21zM405 89q-23 -47 -67.5 -74t-109.5 -27q-37 0 -67.5 9.5t-53 28t-35 46t-12.5 62.5q0 34 11 63.5t36.5 51.5t66 35t100.5 13h126q-2 76 -34 104.5t-97 28.5q-54 0 -87 -18t-54 -47 l-48 52q28 41 76.5 61.5t120.5 20.5q47 0 85.5 -10t66 -33.5t42.5 -62t15 -95.5v-298h-74z" />
<glyph unicode="b" horiz-adv-x="614" d="M179 700v-295q25 48 69 71t105 23q100 0 152 -63.5t52 -191.5q0 -125 -56 -190.5t-161 -65.5q-55 0 -97 21.5t-68 69.5l-5 -79h-77v700h86zM179 242q0 -49 11 -84t30.5 -57.5t47 -33t59.5 -10.5q72 0 108 44.5t36 141.5t-36 142t-105 45q-66 0 -108.5 -44.5t-42.5 -143.5 z" />
<glyph unicode="c" horiz-adv-x="532" d="M289 -12q-111 0 -171.5 60.5t-60.5 195.5q0 132 60.5 193.5t172.5 61.5q76 0 123.5 -28t76.5 -81l-62 -40q-20 38 -54.5 59t-83.5 21q-38 0 -66 -9.5t-46 -31.5t-26.5 -58t-8.5 -88q0 -103 36 -144.5t110 -41.5q53 0 86 19t56 67l65 -34q-29 -64 -81 -92.5t-126 -28.5z " />
<glyph unicode="d" horiz-adv-x="614" d="M435 245q0 49 -11.5 84t-31.5 57.5t-47 33t-59 10.5q-73 0 -108 -45t-35 -142t35.5 -141.5t106.5 -44.5q32 0 59.5 10.5t47.5 33.5t31.5 58.5t11.5 85.5zM442 0l-5 87q-24 -50 -68.5 -74.5t-106.5 -24.5q-100 0 -152.5 65.5t-52.5 190.5t55.5 190t160.5 65q110 0 162 -82 v283h86v-700h-79z" />
<glyph unicode="e" horiz-adv-x="547" d="M287 -12q-110 0 -170 61.5t-60 193.5q0 126 59 191t173 65q54 0 93 -17.5t64.5 -49t38 -74.5t12.5 -94q0 -11 -0.5 -22.5t-1.5 -23.5h-353q5 -89 41.5 -125t105.5 -36q52 0 86 17.5t57 67.5l64 -33q-29 -64 -83 -92.5t-126 -28.5zM285 431q-63 0 -99 -33.5t-43 -113.5 h269q-3 79 -36 113t-91 34z" />
<glyph unicode="f" horiz-adv-x="353" d="M26 487h90v59q0 92 41.5 132t114.5 40q20 0 41 -3.5t38 -10.5l-14 -72q-14 5 -27 8.5t-32 3.5q-36 0 -57 -21.5t-21 -81.5v-54h141v-67h-141v-420h-84v420h-90v67z" />
<glyph unicode="g" horiz-adv-x="613" d="M434 253q0 48 -11.5 81.5t-31.5 55t-47.5 31.5t-59.5 10q-72 0 -106.5 -43t-34.5 -136q0 -94 35 -137.5t106 -43.5q32 0 59.5 10t47.5 32t31.5 56.5t11.5 83.5zM520 487v-473q0 -61 -18 -104.5t-50.5 -71.5t-77.5 -41t-99 -13q-72 0 -125.5 25t-84.5 90l62 44 q25 -50 61 -69.5t87 -19.5q35 0 64 8.5t50 26.5t33 46.5t12 69.5v88q-24 -47 -67 -69.5t-103 -22.5q-98 0 -152.5 63t-54.5 187q0 121 53 184.5t155 63.5q60 0 104 -22.5t68 -68.5l9 79h74z" />
<glyph unicode="h" horiz-adv-x="630" d="M179 700v-307q27 57 77.5 81.5t107.5 24.5q92 0 136 -49t44 -146v-304h-86v282q0 78 -31.5 111t-88.5 33q-72 0 -114.5 -47.5t-44.5 -135.5v-243h-86v700h86z" />
<glyph unicode="i" horiz-adv-x="276" d="M79 638q0 28 15.5 42t43.5 14t43.5 -14t15.5 -42t-15.5 -42.5t-43.5 -14.5t-43.5 14.5t-15.5 42.5zM95 487h86v-487h-86v487z" />
<glyph unicode="j" horiz-adv-x="276" d="M79 638q0 28 15.5 42t43.5 14t43.5 -14t15.5 -42t-15.5 -42.5t-43.5 -14.5t-43.5 14.5t-15.5 42.5zM95 -33v520h86v-531q0 -90 -40.5 -131t-112.5 -41q-20 0 -37 2.5t-40 10.5l14 72q14 -5 26.5 -8t31.5 -3q17 0 30.5 5t22.5 17.5t14 33.5t5 53z" />
<glyph unicode="k" horiz-adv-x="524" d="M93 0v700h86v-475l232 262h104l-201 -218l203 -269h-102l-156 211l-80 -85v-126h-86z" />
<glyph unicode="l" horiz-adv-x="281" d="M196 0q-48 0 -77 25t-29 85v590h86v-585q0 -26 10.5 -36.5t36.5 -10.5h45v-68h-72z" />
<glyph unicode="m" horiz-adv-x="929" d="M93 0v487h74l9 -90q27 56 73.5 79t94.5 23q66 0 102.5 -34t47.5 -85q25 64 76 91.5t110 27.5q84 0 123.5 -48.5t39.5 -142.5v-308h-86v286q0 76 -26.5 107.5t-76.5 31.5q-64 0 -103 -43.5t-41 -128.5v-253h-86v282q0 78 -27.5 110.5t-79.5 32.5q-62 0 -99 -43.5 t-39 -130.5v-251h-86z" />
<glyph unicode="n" horiz-adv-x="630" d="M93 487h75l9 -93q28 57 77.5 81t109.5 24q92 0 136 -49t44 -146v-304h-86v284q0 77 -31 109.5t-89 32.5q-72 0 -114.5 -47.5t-44.5 -135.5v-243h-86v487z" />
<glyph unicode="o" horiz-adv-x="586" d="M57 245q0 132 61.5 193t174.5 61q119 0 177.5 -60t58.5 -194q0 -132 -60 -194.5t-176 -62.5q-115 0 -175.5 61t-60.5 196zM443 244q0 52 -9 87.5t-27.5 57.5t-47 31.5t-66.5 9.5q-39 0 -67.5 -9.5t-46.5 -31.5t-27 -57.5t-9 -87.5q0 -103 36.5 -145t113.5 -42t113.5 42 t36.5 145z" />
<glyph unicode="p" horiz-adv-x="614" d="M179 243q0 -98 41 -142t106 -44q73 0 109 45.5t36 141.5q0 97 -35.5 141.5t-105.5 44.5q-33 0 -60.5 -10.5t-47.5 -33.5t-31.5 -58.5t-11.5 -84.5zM93 487h74l9 -88q24 50 69 75t108 25q100 0 152 -64.5t52 -189.5t-56 -191t-162 -66q-54 0 -94.5 20t-65.5 61v-256h-86 v674z" />
<glyph unicode="q" horiz-adv-x="614" d="M521 -186h-86v267q-52 -93 -174 -93q-99 0 -151.5 63.5t-52.5 191.5q0 125 55.5 190.5t160.5 65.5q56 0 97.5 -22.5t66.5 -69.5l9 80h75v-673zM435 245q0 49 -11 84t-31 57.5t-47.5 33t-59.5 10.5q-72 0 -107.5 -44.5t-35.5 -141.5t36 -142t106 -45q33 0 60.5 10.5 t47.5 33.5t31 58.5t11 85.5z" />
<glyph unicode="r" horiz-adv-x="381" d="M93 0v487h74l9 -103q26 60 74.5 88t111.5 23v-82q-91 9 -136 -38t-47 -141v-234h-86z" />
<glyph unicode="s" horiz-adv-x="511" d="M249 53q61 0 87.5 20t26.5 52q0 35 -22 51t-72 26l-53 11q-84 17 -118.5 54.5t-34.5 87.5q0 31 11 57t34 45.5t58 30.5t83 11q65 0 105.5 -20t71.5 -58l-55 -53q-26 32 -53.5 48t-74.5 16q-50 0 -75 -17.5t-25 -48.5q0 -14 4 -25.5t14 -21.5t27.5 -18t43.5 -14l55 -12 q46 -10 76 -24t48 -31.5t25.5 -39.5t7.5 -49q0 -26 -10 -52t-32.5 -46t-60.5 -32.5t-93 -12.5q-72 0 -123.5 22t-84.5 77l61 44q26 -44 61 -61t87 -17z" />
<glyph unicode="t" horiz-adv-x="360" d="M17 487h86v143h84v-143h141v-67h-141v-255q0 -32 6 -52.5t17 -31.5t26 -15t33 -4q19 0 32 2.5t27 7.5l14 -70q-26 -9 -44 -11.5t-39 -2.5q-72 0 -114 41t-42 133v258h-86v67z" />
<glyph unicode="u" horiz-adv-x="626" d="M459 0l-7 86q-29 -53 -76.5 -75.5t-101.5 -22.5q-97 0 -142.5 53t-45.5 150v296h86v-284q0 -145 122 -145q71 0 111 46t42 134v249h86v-487h-74z" />
<glyph unicode="v" horiz-adv-x="502" d="M7 487h91l155 -405l154 405h88l-196 -487h-95z" />
<glyph unicode="w" horiz-adv-x="732" d="M324 484h89l115 -387l115 390h82l-155 -487h-91l-113 387l-111 -387h-91l-157 487h86l117 -389z" />
<glyph unicode="x" horiz-adv-x="504" d="M19 487h102l134 -180l132 180h99l-184 -238l195 -249h-102l-145 190l-144 -190h-99l196 250z" />
<glyph unicode="y" horiz-adv-x="502" d="M186 -65l20 56l-201 496h91l155 -406l155 406h89l-235 -580q-29 -71 -73.5 -97t-101.5 -26q-20 0 -37.5 2.5t-40.5 10.5l14 72q17 -5 31 -8t34 -3q12 0 25 2t26.5 10t26 23.5t22.5 41.5z" />
<glyph unicode="z" horiz-adv-x="489" d="M40 0v64l297 354h-292v69h394v-65l-299 -353h307v-69h-407z" />
<glyph unicode="{" horiz-adv-x="347" d="M293 -82q-76 7 -115 41t-39 103q0 32 5 61t5 58q0 57 -25.5 82.5t-79.5 25.5h-35v65h35q54 0 79.5 25.5t25.5 82.5q0 29 -5 58t-5 62q0 69 39 102.5t115 40.5l6 -65q-39 -5 -60 -24t-21 -61q0 -31 4.5 -60.5t4.5 -61.5q0 -98 -87 -131q87 -35 87 -132q0 -32 -4.5 -61.5 t-4.5 -59.5q0 -42 21 -61.5t60 -24.5z" />
<glyph unicode="|" horiz-adv-x="297" d="M110 -65v831h78v-831h-78z" />
<glyph unicode="}" horiz-adv-x="347" d="M46 -17q39 5 60 24.5t21 61.5q0 30 -4.5 59.5t-4.5 61.5q0 97 87 132q-87 33 -87 131q0 32 4.5 61.5t4.5 60.5q0 42 -21 61t-60 24l6 65q76 -7 115 -40.5t39 -102.5q0 -33 -5 -62t-5 -58q0 -57 25.5 -82.5t79.5 -25.5h35v-65h-35q-54 0 -79.5 -25.5t-25.5 -82.5 q0 -29 5 -58t5 -61q0 -69 -39 -103t-115 -41z" />
<glyph unicode="~" horiz-adv-x="532" d="M432 415l76 -10q-4 -68 -40 -101t-94 -33q-32 0 -62.5 12t-58.5 26q-23 11 -45.5 20.5t-44.5 9.5q-25 0 -41.5 -16t-19.5 -50l-76 10q4 69 40.5 101.5t95.5 32.5q34 0 64 -11.5t57 -25.5q23 -11 45 -20t43 -9q26 0 42.5 15.5t18.5 48.5z" />
<glyph unicode="&#xa1;" horiz-adv-x="227" d="M66 -202l12 506h71l12 -506h-95zM172 446q0 -29 -15.5 -43t-43.5 -14q-27 0 -43 14t-16 43q0 27 16 42t43 15q28 0 43.5 -15t15.5 -42z" />
<glyph unicode="&#xa2;" horiz-adv-x="549" d="M152 256q0 -83 25.5 -122.5t79.5 -48.5v343q-55 -9 -80 -48.5t-25 -123.5zM257 -62v77q-92 10 -141.5 67.5t-49.5 174.5q0 115 49 173t142 68v80h71v-79q60 -5 98.5 -31.5t62.5 -71.5l-62 -40q-31 61 -99 72v-345q38 5 62.5 23.5t44.5 56.5l65 -34q-25 -55 -68.5 -82.5 t-103.5 -32.5v-76h-71z" />
<glyph unicode="&#xa3;" horiz-adv-x="569" d="M34 0v69h38q36 0 44.5 29.5t6.5 83.5l-4 120h-85v68h83l-3 117q-3 114 53 169.5t161 55.5q71 0 117.5 -30t75.5 -87l-66 -43q-20 44 -51 67.5t-78 23.5q-66 0 -97 -38t-29 -119l4 -116h188v-68h-185l3 -124q1 -37 -4 -65t-19 -44h177q46 0 77 14t57 47l48 -48 q-33 -45 -75 -63.5t-105 -18.5h-332z" />
<glyph unicode="&#xa5;" horiz-adv-x="610" d="M547 287v-68h-197v-219h-89v219h-197v68h193l-34 56h-159v68h119l-173 289h96l201 -346l200 346h93l-172 -289h119v-68h-160l-33 -56h193z" />
<glyph unicode="&#xa6;" horiz-adv-x="297" d="M110 388v378h78v-378h-78zM110 -65v379h78v-379h-78z" />
<glyph unicode="&#xa7;" horiz-adv-x="519" d="M382 333q1 29 -20 51t-80 33l-30 6q-26 4 -44.5 -0.5t-30.5 -15t-18 -24.5t-6 -29q-1 -24 17.5 -48t64.5 -32l30 -6q53 -10 84.5 7.5t32.5 57.5zM260 -23q-65 0 -114 19.5t-81 73.5l61 41q25 -39 55.5 -54.5t78.5 -15.5q60 0 84 20t24 54q0 28 -21 46.5t-77 31.5l-44 10 q-83 20 -116 58t-33 88q0 34 17.5 66t65.5 46q-37 21 -52.5 50t-15.5 63q0 26 8 51t27.5 44.5t52 31t81.5 11.5q60 0 96.5 -17t66.5 -52l-54 -50q-23 29 -47.5 42.5t-64.5 13.5q-50 0 -70.5 -19.5t-20.5 -52.5q0 -24 18.5 -46t66.5 -34l53 -13q86 -22 122 -55t36 -89 q0 -34 -18.5 -65t-67.5 -46q37 -19 54 -46t17 -66q0 -26 -8.5 -50.5t-30 -44.5t-58 -32.5t-91.5 -12.5z" />
<glyph unicode="&#xa8;" horiz-adv-x="600" d="M332 637q0 28 16 42t44 14t43.5 -14t15.5 -42t-15.5 -42.5t-43.5 -14.5t-44 14.5t-16 42.5zM159 637q0 28 16 42t44 14t43.5 -14t15.5 -42t-15.5 -42.5t-43.5 -14.5t-44 14.5t-16 42.5z" />
<glyph unicode="&#xa9;" horiz-adv-x="833" d="M72 350q0 77 23 140t67.5 107.5t108.5 69t146 24.5q81 0 145 -24.5t108.5 -69t67.5 -107.5t23 -140t-23 -140t-67.5 -108t-108.5 -69.5t-145 -24.5q-82 0 -146 24.5t-108.5 69.5t-67.5 108t-23 140zM116 350q0 -75 22 -131.5t61.5 -94.5t95 -57t122.5 -19t122.5 19t95 57 t61.5 94.5t22 131.5t-22 131.5t-61.5 94.5t-95 57t-122.5 19t-122.5 -19t-95 -57t-61.5 -94.5t-22 -131.5zM421 176q-84 0 -127 43t-43 134t43 135t127 44q55 0 90 -20t55 -57l-48 -31q-14 26 -38 41t-59 15q-54 0 -79.5 -30t-25.5 -97t25.5 -95t79.5 -28q38 0 60.5 12.5 t38.5 44.5l50 -26q-20 -45 -57.5 -65t-91.5 -20z" />
<glyph unicode="&#xaa;" horiz-adv-x="410" d="M181 403q47 0 75.5 30.5t28.5 83.5v2h-85q-48 0 -69.5 -15t-21.5 -47q0 -25 17.5 -39.5t54.5 -14.5zM288 417q-16 -32 -47 -50.5t-78 -18.5q-52 0 -85.5 27.5t-33.5 80.5q0 24 8.5 44t27 35t48.5 23.5t73 8.5h84q-2 53 -24.5 71.5t-66.5 18.5q-37 0 -61 -13t-39 -33 l-36 42q42 59 143 59q34 0 61.5 -7.5t47.5 -24t31 -44.5t11 -68v-209h-59z" />
<glyph unicode="&#xab;" horiz-adv-x="634" d="M466 0l-198 244v3l192 240h99l-194 -239l201 -248h-100zM247 0l-192 242v3l191 242h98l-192 -241l196 -246h-101z" />
<glyph unicode="&#xad;" horiz-adv-x="410" d="M362 291v-72h-313v72h313z" />
<glyph unicode="&#xae;" horiz-adv-x="473" d="M48 525q0 84 49.5 135.5t139.5 51.5q45 0 80 -13.5t59 -38t37 -59t13 -76.5t-13 -76.5t-37 -59t-59 -38t-80 -13.5q-90 0 -139.5 51.5t-49.5 135.5zM78 525q0 -80 44 -121t115 -41q70 0 114 41t44 121q0 79 -44 120t-114 41q-71 0 -115 -41t-44 -120zM243 592h-44v-65h39 q19 0 29 7t10 26q0 32 -34 32zM165 437v184h78q34 0 51.5 -16t17.5 -43q0 -24 -10 -38t-27 -21l36 -66h-38l-33 61h-41v-61h-34z" />
<glyph unicode="&#xaf;" horiz-adv-x="600" d="M431 660v-59h-254v59h254z" />
<glyph unicode="&#xb0;" horiz-adv-x="467" d="M235 350q-88 0 -135.5 50t-47.5 131q0 82 47.5 131.5t135.5 49.5q86 0 134 -49.5t48 -131.5q0 -41 -12.5 -74t-36 -57t-57 -37t-76.5 -13zM235 654q-53 0 -84.5 -31t-31.5 -92t31.5 -92t84.5 -31q51 0 82.5 31t31.5 92t-31.5 92t-82.5 31z" />
<glyph unicode="&#xb1;" horiz-adv-x="506" d="M291 136h-75v151h-166v70h166v153h75v-153h165v-70h-165v-151zM456 71v-71h-406v71h406z" />
<glyph unicode="&#xb2;" horiz-adv-x="370" d="M26 294zM33 294v61l133 119q42 38 61 63t19 53q0 32 -19 46t-53 14q-38 0 -59.5 -15t-38.5 -48l-50 37q24 48 61.5 68t93.5 20q63 0 100.5 -28.5t37.5 -86.5q0 -20 -6 -38.5t-18 -37.5t-31.5 -40t-46.5 -45l-85 -78l203 3v-67h-302z" />
<glyph unicode="&#xb3;" horiz-adv-x="372" d="M25 284zM177 284q-108 0 -152 74l51 39q32 -53 96 -53q42 0 64.5 16.5t22.5 51.5q0 29 -18 45.5t-56 16.5h-53v60h52q30 0 46.5 15t16.5 43q0 59 -74 59q-32 0 -53 -12t-38 -43l-49 35q22 43 57.5 62t89.5 19q65 0 102.5 -28.5t37.5 -85.5q0 -61 -56 -92q31 -11 48.5 -34 t17.5 -59q0 -57 -37.5 -93t-115.5 -36z" />
<glyph unicode="&#xb4;" horiz-adv-x="600" d="M436 685l-114 -111h-73v4l76 113h111v-6z" />
<glyph unicode="&#xb6;" horiz-adv-x="660" d="M174 477q0 -78 40 -116.5t111 -38.5h24v303h-25q-76 0 -113 -38.5t-37 -109.5zM509 625h-73v-303h73v303zM595 700v-700h-86v245h-73v-245h-87v245h-5q-127 0 -191.5 59.5t-64.5 175.5q0 106 60.5 163t185.5 57h261z" />
<glyph unicode="&#xb7;" horiz-adv-x="230" d="M56 280zM56 337q0 29 16 43t44 14q27 0 42.5 -14t15.5 -43q0 -27 -15.5 -42t-42.5 -15q-28 0 -44 15t-16 42z" />
<glyph unicode="&#xb8;" horiz-adv-x="600" d="M300 0h61l-17 -61h3q35 0 61 -21t26 -63q0 -23 -9.5 -40.5t-25 -29t-36.5 -17t-44 -5.5q-38 0 -68.5 14t-49.5 45l42 40q14 -23 30 -34.5t43 -11.5q23 0 38.5 9.5t15.5 29.5t-14.5 31t-39.5 11q-6 0 -11.5 -0.5t-11.5 -1.5l-16 15z" />
<glyph unicode="&#xb9;" horiz-adv-x="225" d="M11 294zM162 294h-72v320l-51 -32l-28 57l105 64h46v-409z" />
<glyph unicode="&#xba;" horiz-adv-x="424" d="M42 531q0 94 44.5 137.5t125.5 43.5q85 0 127.5 -42.5t42.5 -138.5q0 -94 -43.5 -138.5t-126.5 -44.5q-82 0 -126 43t-44 140zM315 531q0 69 -25.5 98.5t-77.5 29.5q-53 0 -78 -29.5t-25 -98.5q0 -71 25.5 -100t77.5 -29t77.5 29t25.5 100z" />
<glyph unicode="&#xbb;" horiz-adv-x="634" d="M168 487l198 -244v-3l-192 -240h-99l194 239l-201 248h100zM387 487l192 -242v-3l-191 -242h-98l192 241l-196 246h101z" />
<glyph unicode="&#xbc;" horiz-adv-x="852" d="M11 0zM162 293h-72v320l-51 -32l-28 57l105 64h46v-409zM556 700l-338 -700h-81l339 700h80zM482 97v51l130 260h72l-126 -247h150v167h67v-167h57v-64h-57v-97h-67v97h-226z" />
<glyph unicode="&#xbd;" horiz-adv-x="827" d="M11 0zM490 0v61l133 119q42 38 61 63t19 53q0 32 -19 46t-53 14q-38 0 -59.5 -15t-38.5 -48l-50 37q24 48 61.5 68t93.5 20q63 0 100.5 -28.5t37.5 -86.5q0 -20 -6 -38.5t-18 -37.5t-31.5 -40t-46.5 -45l-85 -78l203 3v-67h-302zM162 293h-72v320l-51 -32l-28 57l105 64 h46v-409zM556 700l-338 -700h-81l339 700h80z" />
<glyph unicode="&#xbe;" horiz-adv-x="952" d="M25 0zM177 283q-108 0 -152 74l51 39q32 -53 96 -53q42 0 64.5 16.5t22.5 51.5q0 29 -18 45.5t-56 16.5h-53v60h52q30 0 46.5 15t16.5 43q0 59 -74 59q-32 0 -53 -12t-38 -43l-49 35q22 43 57.5 62t89.5 19q65 0 102.5 -28.5t37.5 -85.5q0 -61 -56 -92q31 -11 48.5 -34 t17.5 -59q0 -57 -37.5 -93t-115.5 -36zM681 700l-338 -700h-81l339 700h80zM582 97v51l130 260h72l-126 -247h150v167h67v-167h57v-64h-57v-97h-67v97h-226z" />
<glyph unicode="&#xbf;" horiz-adv-x="507" d="M303 304v-155h-44q-161 0 -161 -150q0 -69 41.5 -104t118.5 -35q59 0 100.5 24.5t73.5 89.5l62 -45q-36 -76 -96 -109.5t-150 -33.5q-54 0 -98 14.5t-74.5 41t-47.5 65t-17 86.5q0 95 52.5 148.5t153.5 61.5v101h86zM320 446q0 -29 -16 -43t-44 -14q-27 0 -42.5 14 t-15.5 43q0 27 15.5 42t42.5 15q28 0 44 -15t16 -42z" />
<glyph unicode="&#xc0;" horiz-adv-x="622" d="M10 0zM308 619l-134 -401h270zM518 0l-48 143h-321l-48 -143h-91l245 700h112l245 -700h-94zM286 789l-115 111v6h111l77 -113v-4h-73z" />
<glyph unicode="&#xc1;" horiz-adv-x="622" d="M10 0zM308 619l-134 -401h270zM518 0l-48 143h-321l-48 -143h-91l245 700h112l245 -700h-94zM462 899l-114 -111h-73v4l76 113h111v-6z" />
<glyph unicode="&#xc2;" horiz-adv-x="622" d="M10 0zM308 619l-134 -401h270zM518 0l-48 143h-321l-48 -143h-91l245 700h112l245 -700h-94zM316 857l-70 -69h-93v3l122 114h83l123 -114v-3h-98z" />
<glyph unicode="&#xc3;" horiz-adv-x="622" d="M10 0zM308 619l-134 -401h270zM518 0l-48 143h-321l-48 -143h-91l245 700h112l245 -700h-94zM406 898h65q2 -29 -5.5 -48.5t-20.5 -31t-29.5 -16.5t-32.5 -5q-21 0 -39 6.5t-34 14t-30.5 14t-27.5 6.5q-18 0 -23.5 -11.5t-5.5 -25.5h-66q-2 29 5.5 48.5t20 31t28.5 16.5 t33 5q22 0 40.5 -6.5t34.5 -14t30 -14t28 -6.5q18 0 23.5 11t5.5 26z" />
<glyph unicode="&#xc4;" horiz-adv-x="622" d="M10 0zM308 619l-134 -401h270zM518 0l-48 143h-321l-48 -143h-91l245 700h112l245 -700h-94zM341 851q0 28 16 42t44 14t43.5 -14t15.5 -42t-15.5 -42.5t-43.5 -14.5t-44 14.5t-16 42.5zM168 851q0 28 16 42t44 14t43.5 -14t15.5 -42t-15.5 -42.5t-43.5 -14.5t-44 14.5 t-16 42.5z" />
<glyph unicode="&#xc5;" horiz-adv-x="622" d="M10 0zM308 619l-134 -401h270zM518 0l-48 143h-321l-48 -143h-91l245 700h112l245 -700h-94zM219 855q0 44 27.5 69t69.5 25t69 -25t27 -69t-27.5 -69t-69.5 -25t-69 25t-27 69zM267 855q0 -23 13.5 -38t34.5 -15t35 15t14 38t-14 37.5t-34 14.5q-22 0 -35.5 -14.5 t-13.5 -37.5z" />
<glyph unicode="&#xc6;" horiz-adv-x="927" d="M314 623l-138 -405h266zM511 0l-46 143h-316l-48 -143h-91l249 700h618v-76h-474l76 -233h345v-78h-320l77 -237h306v-76h-376z" />
<glyph unicode="&#xc7;" horiz-adv-x="699" d="M381 -237q-38 0 -68.5 14t-49.5 45l42 40q14 -23 30 -34.5t43 -11.5q23 0 38.5 9.5t15.5 29.5t-14.5 31t-39.5 11q-6 0 -11.5 -0.5t-11.5 -1.5l-16 15l20 79q-70 4 -122.5 26t-88 66t-53.5 110.5t-18 159.5q0 98 20 166.5t59.5 112t98.5 63t137 19.5q94 0 156.5 -30 t98.5 -102l-70 -47q-29 61 -73.5 84t-111.5 23q-54 0 -96 -13t-71 -46t-44 -88.5t-15 -140.5t15 -141t44 -89.5t71 -47.5t96 -14q68 0 117 26t84 91l66 -45q-40 -72 -99 -105t-140 -38l-14 -50h3q35 0 61 -21t26 -63q0 -23 -9.5 -40.5t-25 -29t-36.5 -17t-44 -5.5z" />
<glyph unicode="&#xc8;" horiz-adv-x="666" d="M110 0zM110 0v700h506v-76h-419v-233h367v-78h-367v-237h429v-76h-516zM345 789l-115 111v6h111l77 -113v-4h-73z" />
<glyph unicode="&#xc9;" horiz-adv-x="666" d="M110 0zM521 899l-114 -111h-73v4l76 113h111v-6zM110 0v700h506v-76h-419v-233h367v-78h-367v-237h429v-76h-516z" />
<glyph unicode="&#xca;" horiz-adv-x="666" d="M110 0zM375 857l-70 -69h-93v3l122 114h83l123 -114v-3h-98zM110 0v700h506v-76h-419v-233h367v-78h-367v-237h429v-76h-516z" />
<glyph unicode="&#xcb;" horiz-adv-x="666" d="M110 0zM400 851q0 28 16 42t44 14t43.5 -14t15.5 -42t-15.5 -42.5t-43.5 -14.5t-44 14.5t-16 42.5zM227 851q0 28 16 42t44 14t43.5 -14t15.5 -42t-15.5 -42.5t-43.5 -14.5t-44 14.5t-16 42.5zM110 0v700h506v-76h-419v-233h367v-78h-367v-237h429v-76h-516z" />
<glyph unicode="&#xcc;" horiz-adv-x="309" d="M10 0zM110 0v700h89v-700h-89zM125 789l-115 111v6h111l77 -113v-4h-73z" />
<glyph unicode="&#xcd;" horiz-adv-x="309" d="M110 0zM110 0v700h89v-700h-89zM301 899l-114 -111h-73v4l76 113h111v-6z" />
<glyph unicode="&#xce;" horiz-adv-x="309" d="M0 0zM110 0v700h89v-700h-89zM155 857l-70 -69h-93v3l122 114h83l123 -114v-3h-98z" />
<glyph unicode="&#xcf;" horiz-adv-x="309" d="M7 0zM110 0v700h89v-700h-89zM180 851q0 28 16 42t44 14t43.5 -14t15.5 -42t-15.5 -42.5t-43.5 -14.5t-44 14.5t-16 42.5zM7 851q0 28 16 42t44 14t43.5 -14t15.5 -42t-15.5 -42.5t-43.5 -14.5t-44 14.5t-16 42.5z" />
<glyph unicode="&#xd0;" horiz-adv-x="773" d="M393 0h-263v323h-82v71h82v306h264q153 0 228 -82.5t75 -263.5t-76.5 -267.5t-227.5 -86.5zM219 76h171q50 0 90 13.5t68.5 45.5t44 85t15.5 131q0 76 -14 128.5t-41 84.5t-66.5 46t-89.5 14h-178v-230h160v-71h-160v-247z" />
<glyph unicode="&#xd1;" horiz-adv-x="783" d="M110 0zM581 0l-388 569l3 -569h-86v700h90l389 -569l-2 569h86v-700h-92zM481 898h65q2 -29 -5.5 -48.5t-20.5 -31t-29.5 -16.5t-32.5 -5q-21 0 -39 6.5t-34 14t-30.5 14t-27.5 6.5q-18 0 -23.5 -11.5t-5.5 -25.5h-66q-2 29 5.5 48.5t20 31t28.5 16.5t33 5 q22 0 40.5 -6.5t34.5 -14t30 -14t28 -6.5q18 0 23.5 11t5.5 26z" />
<glyph unicode="&#xd2;" horiz-adv-x="782" d="M77 0zM391 -12q-80 0 -139 20.5t-98 65t-58 113t-19 164.5t19.5 164.5t58.5 112t98 64t138 20.5q82 0 141.5 -20.5t98 -64t57 -112t18.5 -164.5q0 -192 -79 -277.5t-236 -85.5zM391 640q-55 0 -97 -13.5t-70.5 -46.5t-43 -89t-14.5 -141q0 -83 14.5 -138.5t43 -89.5 t70.5 -48t97 -14t97.5 14t71 47.5t43 89.5t14.5 141q0 82 -14.5 137.5t-43 89t-71 47.5t-97.5 14zM362 790l-115 111v6h111l77 -113v-4h-73z" />
<glyph unicode="&#xd3;" horiz-adv-x="782" d="M77 0zM538 899l-114 -111h-73v4l76 113h111v-6zM391 -12q-80 0 -139 20.5t-98 65t-58 113t-19 164.5t19.5 164.5t58.5 112t98 64t138 20.5q82 0 141.5 -20.5t98 -64t57 -112t18.5 -164.5q0 -192 -79 -277.5t-236 -85.5zM391 640q-55 0 -97 -13.5t-70.5 -46.5t-43 -89 t-14.5 -141q0 -83 14.5 -138.5t43 -89.5t70.5 -48t97 -14t97.5 14t71 47.5t43 89.5t14.5 141q0 82 -14.5 137.5t-43 89t-71 47.5t-97.5 14z" />
<glyph unicode="&#xd4;" horiz-adv-x="782" d="M77 0zM392 857l-70 -69h-93v3l122 114h83l123 -114v-3h-98zM391 -12q-80 0 -139 20.5t-98 65t-58 113t-19 164.5t19.5 164.5t58.5 112t98 64t138 20.5q82 0 141.5 -20.5t98 -64t57 -112t18.5 -164.5q0 -192 -79 -277.5t-236 -85.5zM391 640q-55 0 -97 -13.5t-70.5 -46.5 t-43 -89t-14.5 -141q0 -83 14.5 -138.5t43 -89.5t70.5 -48t97 -14t97.5 14t71 47.5t43 89.5t14.5 141q0 82 -14.5 137.5t-43 89t-71 47.5t-97.5 14z" />
<glyph unicode="&#xd5;" horiz-adv-x="782" d="M77 0zM391 -12q-80 0 -139 20.5t-98 65t-58 113t-19 164.5t19.5 164.5t58.5 112t98 64t138 20.5q82 0 141.5 -20.5t98 -64t57 -112t18.5 -164.5q0 -192 -79 -277.5t-236 -85.5zM391 640q-55 0 -97 -13.5t-70.5 -46.5t-43 -89t-14.5 -141q0 -83 14.5 -138.5t43 -89.5 t70.5 -48t97 -14t97.5 14t71 47.5t43 89.5t14.5 141q0 82 -14.5 137.5t-43 89t-71 47.5t-97.5 14zM482 898h65q2 -29 -5.5 -48.5t-20.5 -31t-29.5 -16.5t-32.5 -5q-21 0 -39 6.5t-34 14t-30.5 14t-27.5 6.5q-18 0 -23.5 -11.5t-5.5 -25.5h-66q-2 29 5.5 48.5t20 31 t28.5 16.5t33 5q22 0 40.5 -6.5t34.5 -14t30 -14t28 -6.5q18 0 23.5 11t5.5 26z" />
<glyph unicode="&#xd6;" horiz-adv-x="782" d="M77 0zM417 851q0 28 16 42t44 14t43.5 -14t15.5 -42t-15.5 -42.5t-43.5 -14.5t-44 14.5t-16 42.5zM244 851q0 28 16 42t44 14t43.5 -14t15.5 -42t-15.5 -42.5t-43.5 -14.5t-44 14.5t-16 42.5zM391 -12q-80 0 -139 20.5t-98 65t-58 113t-19 164.5t19.5 164.5t58.5 112 t98 64t138 20.5q82 0 141.5 -20.5t98 -64t57 -112t18.5 -164.5q0 -192 -79 -277.5t-236 -85.5zM391 640q-55 0 -97 -13.5t-70.5 -46.5t-43 -89t-14.5 -141q0 -83 14.5 -138.5t43 -89.5t70.5 -48t97 -14t97.5 14t71 47.5t43 89.5t14.5 141q0 82 -14.5 137.5t-43 89t-71 47.5 t-97.5 14z" />
<glyph unicode="&#xd7;" horiz-adv-x="493" d="M120 140l-49 49l125 124l-126 127l52 52l126 -127l126 126l48 -48l-126 -126l127 -126l-52 -52l-127 126z" />
<glyph unicode="&#xd8;" horiz-adv-x="792" d="M140 0h-95l91 104q-54 87 -54 247q0 96 19.5 164.5t58.5 112t98 64t138 20.5q72 0 126 -15.5t92 -48.5l46 52h94l-94 -107q51 -87 51 -242q0 -192 -79 -277.5t-236 -85.5q-69 0 -122 14.5t-91 46.5zM559 584q-29 30 -69.5 43t-93.5 13q-55 0 -97 -13.5t-70.5 -46.5 t-43 -89t-14.5 -141q0 -112 27 -176zM238 111q28 -28 67.5 -39.5t90.5 -11.5q55 0 97.5 14t71 47.5t43 89.5t14.5 141q0 107 -25 169z" />
<glyph unicode="&#xd9;" horiz-adv-x="752" d="M92 0zM571 271v429h89v-425q0 -142 -75.5 -214.5t-208.5 -72.5q-135 0 -209.5 72t-74.5 215v425h89v-429q0 -56 14 -96t39.5 -65.5t61.5 -37.5t80 -12t80 12t61.5 37.5t39.5 65.5t14 96zM349 790l-115 111v6h111l77 -113v-4h-73z" />
<glyph unicode="&#xda;" horiz-adv-x="752" d="M92 0zM524 899l-114 -111h-73v4l76 113h111v-6zM571 271v429h89v-425q0 -142 -75.5 -214.5t-208.5 -72.5q-135 0 -209.5 72t-74.5 215v425h89v-429q0 -56 14 -96t39.5 -65.5t61.5 -37.5t80 -12t80 12t61.5 37.5t39.5 65.5t14 96z" />
<glyph unicode="&#xdb;" horiz-adv-x="752" d="M92 0zM378 857l-70 -69h-93v3l122 114h83l123 -114v-3h-98zM571 271v429h89v-425q0 -142 -75.5 -214.5t-208.5 -72.5q-135 0 -209.5 72t-74.5 215v425h89v-429q0 -56 14 -96t39.5 -65.5t61.5 -37.5t80 -12t80 12t61.5 37.5t39.5 65.5t14 96z" />
<glyph unicode="&#xdc;" horiz-adv-x="752" d="M92 0zM404 851q0 28 16 42t44 14t43.5 -14t15.5 -42t-15.5 -42.5t-43.5 -14.5t-44 14.5t-16 42.5zM231 851q0 28 16 42t44 14t43.5 -14t15.5 -42t-15.5 -42.5t-43.5 -14.5t-44 14.5t-16 42.5zM571 271v429h89v-425q0 -142 -75.5 -214.5t-208.5 -72.5q-135 0 -209.5 72 t-74.5 215v425h89v-429q0 -56 14 -96t39.5 -65.5t61.5 -37.5t80 -12t80 12t61.5 37.5t39.5 65.5t14 96z" />
<glyph unicode="&#xdd;" horiz-adv-x="610" d="M10 0zM261 280l-251 420h96l201 -346l200 346h93l-250 -420v-280h-89v280zM453 899l-114 -111h-73v4l76 113h111v-6z" />
<glyph unicode="&#xde;" horiz-adv-x="653" d="M110 0v700h89v-131h186q115 0 170 -53t55 -151q0 -109 -61.5 -163.5t-174.5 -54.5h-175v-147h-89zM385 492h-186v-269h185q66 0 101.5 33.5t35.5 102.5q0 64 -33 98.5t-103 34.5z" />
<glyph unicode="&#xdf;" horiz-adv-x="622" d="M342 342h-51v68h51q29 0 49 9t32.5 25t18 36.5t5.5 44.5q0 62 -34.5 89t-96.5 27q-70 0 -106 -41.5t-36 -119.5v-480h-86v487q0 109 60.5 167t166.5 58q104 0 160.5 -48.5t56.5 -135.5q0 -50 -18.5 -86t-50.5 -58q57 -18 86.5 -63t29.5 -111q0 -48 -15 -87.5t-43.5 -68 t-69 -44.5t-91.5 -16q-28 0 -50.5 3.5t-47.5 13.5l17 69q19 -7 34.5 -10.5t35.5 -3.5q70 0 107.5 35t37.5 106q0 30 -7.5 54.5t-25 42.5t-47 28t-72.5 10z" />
<glyph unicode="&#xe0;" horiz-adv-x="572" d="M60 0zM247 57q68 0 110 45t43 127v2h-125q-70 0 -100.5 -23t-30.5 -71q0 -38 24.5 -59t78.5 -21zM405 89q-23 -47 -67.5 -74t-109.5 -27q-37 0 -67.5 9.5t-53 28t-35 46t-12.5 62.5q0 34 11 63.5t36.5 51.5t66 35t100.5 13h126q-2 76 -34 104.5t-97 28.5q-54 0 -87 -18 t-54 -47l-48 52q28 41 76.5 61.5t120.5 20.5q47 0 85.5 -10t66 -33.5t42.5 -62t15 -95.5v-298h-74zM245 574l-115 111v6h111l77 -113v-4h-73z" />
<glyph unicode="&#xe1;" horiz-adv-x="572" d="M60 0zM247 57q68 0 110 45t43 127v2h-125q-70 0 -100.5 -23t-30.5 -71q0 -38 24.5 -59t78.5 -21zM405 89q-23 -47 -67.5 -74t-109.5 -27q-37 0 -67.5 9.5t-53 28t-35 46t-12.5 62.5q0 34 11 63.5t36.5 51.5t66 35t100.5 13h126q-2 76 -34 104.5t-97 28.5q-54 0 -87 -18 t-54 -47l-48 52q28 41 76.5 61.5t120.5 20.5q47 0 85.5 -10t66 -33.5t42.5 -62t15 -95.5v-298h-74zM421 685l-114 -111h-73v4l76 113h111v-6z" />
<glyph unicode="&#xe2;" horiz-adv-x="572" d="M60 0zM247 57q68 0 110 45t43 127v2h-125q-70 0 -100.5 -23t-30.5 -71q0 -38 24.5 -59t78.5 -21zM405 89q-23 -47 -67.5 -74t-109.5 -27q-37 0 -67.5 9.5t-53 28t-35 46t-12.5 62.5q0 34 11 63.5t36.5 51.5t66 35t100.5 13h126q-2 76 -34 104.5t-97 28.5q-54 0 -87 -18 t-54 -47l-48 52q28 41 76.5 61.5t120.5 20.5q47 0 85.5 -10t66 -33.5t42.5 -62t15 -95.5v-298h-74zM275 643l-70 -69h-93v3l122 114h83l123 -114v-3h-98z" />
<glyph unicode="&#xe3;" horiz-adv-x="572" d="M60 0zM247 57q68 0 110 45t43 127v2h-125q-70 0 -100.5 -23t-30.5 -71q0 -38 24.5 -59t78.5 -21zM405 89q-23 -47 -67.5 -74t-109.5 -27q-37 0 -67.5 9.5t-53 28t-35 46t-12.5 62.5q0 34 11 63.5t36.5 51.5t66 35t100.5 13h126q-2 76 -34 104.5t-97 28.5q-54 0 -87 -18 t-54 -47l-48 52q28 41 76.5 61.5t120.5 20.5q47 0 85.5 -10t66 -33.5t42.5 -62t15 -95.5v-298h-74zM365 684h65q2 -29 -5.5 -48.5t-20.5 -31t-29.5 -16.5t-32.5 -5q-21 0 -39 6.5t-34 14t-30.5 14t-27.5 6.5q-18 0 -23.5 -11.5t-5.5 -25.5h-66q-2 29 5.5 48.5t20 31 t28.5 16.5t33 5q22 0 40.5 -6.5t34.5 -14t30 -14t28 -6.5q18 0 23.5 11t5.5 26z" />
<glyph unicode="&#xe4;" horiz-adv-x="572" d="M60 0zM247 57q68 0 110 45t43 127v2h-125q-70 0 -100.5 -23t-30.5 -71q0 -38 24.5 -59t78.5 -21zM405 89q-23 -47 -67.5 -74t-109.5 -27q-37 0 -67.5 9.5t-53 28t-35 46t-12.5 62.5q0 34 11 63.5t36.5 51.5t66 35t100.5 13h126q-2 76 -34 104.5t-97 28.5q-54 0 -87 -18 t-54 -47l-48 52q28 41 76.5 61.5t120.5 20.5q47 0 85.5 -10t66 -33.5t42.5 -62t15 -95.5v-298h-74zM300 637q0 28 16 42t44 14t43.5 -14t15.5 -42t-15.5 -42.5t-43.5 -14.5t-44 14.5t-16 42.5zM127 637q0 28 16 42t44 14t43.5 -14t15.5 -42t-15.5 -42.5t-43.5 -14.5 t-44 14.5t-16 42.5z" />
<glyph unicode="&#xe5;" horiz-adv-x="572" d="M60 0zM247 57q68 0 110 45t43 127v2h-125q-70 0 -100.5 -23t-30.5 -71q0 -38 24.5 -59t78.5 -21zM405 89q-23 -47 -67.5 -74t-109.5 -27q-37 0 -67.5 9.5t-53 28t-35 46t-12.5 62.5q0 34 11 63.5t36.5 51.5t66 35t100.5 13h126q-2 76 -34 104.5t-97 28.5q-54 0 -87 -18 t-54 -47l-48 52q28 41 76.5 61.5t120.5 20.5q47 0 85.5 -10t66 -33.5t42.5 -62t15 -95.5v-298h-74zM178 641q0 44 27.5 69t69.5 25t69 -25t27 -69t-27.5 -69t-69.5 -25t-69 25t-27 69zM226 641q0 -23 13.5 -38t34.5 -15t35 15t14 38t-14 37.5t-34 14.5q-22 0 -35.5 -14.5 t-13.5 -37.5z" />
<glyph unicode="&#xe6;" horiz-adv-x="891" d="M629 -12q-72 0 -121.5 27.5t-74.5 86.5q-24 -53 -75.5 -83.5t-129.5 -30.5q-37 0 -67.5 9.5t-53 28t-35 46t-12.5 62.5q0 33 11 61.5t36.5 50t66 34t100.5 12.5h126q-1 79 -33 108.5t-98 29.5q-54 0 -87 -18t-54 -47l-48 52q28 41 76.5 61.5t120.5 20.5q60 0 105.5 -18.5 t69.5 -65.5q57 84 179 84q54 0 93 -17.5t64.5 -48t37.5 -72.5t12 -90v-23q0 -11 -2 -22h-353q3 -93 40.5 -131t107.5 -38q52 0 86 17.5t57 67.5l64 -33q-29 -64 -83 -92.5t-126 -28.5zM247 57q66 0 109 44.5t44 124.5h-125q-70 0 -100.5 -23t-30.5 -71q0 -35 24.5 -55 t78.5 -20zM627 431q-62 0 -98 -32t-44 -107h268q-5 77 -37 108t-89 31z" />
<glyph unicode="&#xe7;" horiz-adv-x="532" d="M282 -237q-38 0 -68.5 14t-49.5 45l42 40q14 -23 30 -34.5t43 -11.5q23 0 38.5 9.5t15.5 29.5t-14.5 31t-39.5 11q-6 0 -11.5 -0.5t-11.5 -1.5l-16 15l20 79q-98 7 -150.5 68t-52.5 187q0 132 60.5 193.5t172.5 61.5q76 0 123.5 -28t76.5 -81l-62 -40q-20 38 -54.5 59 t-83.5 21q-38 0 -66 -9.5t-46 -31.5t-26.5 -58t-8.5 -88q0 -103 36 -144.5t110 -41.5q53 0 86 19t56 67l65 -34q-26 -57 -69.5 -85.5t-105.5 -34.5l-14 -50h3q35 0 61 -21t26 -63q0 -23 -9.5 -40.5t-25 -29t-36.5 -17t-44 -5.5z" />
<glyph unicode="&#xe8;" horiz-adv-x="547" d="M57 0zM287 -12q-110 0 -170 61.5t-60 193.5q0 126 59 191t173 65q54 0 93 -17.5t64.5 -49t38 -74.5t12.5 -94q0 -11 -0.5 -22.5t-1.5 -23.5h-353q5 -89 41.5 -125t105.5 -36q52 0 86 17.5t57 67.5l64 -33q-29 -64 -83 -92.5t-126 -28.5zM285 431q-63 0 -99 -33.5 t-43 -113.5h269q-3 79 -36 113t-91 34zM254 574l-115 111v6h111l77 -113v-4h-73z" />
<glyph unicode="&#xe9;" horiz-adv-x="547" d="M57 0zM430 685l-114 -111h-73v4l76 113h111v-6zM287 -12q-110 0 -170 61.5t-60 193.5q0 126 59 191t173 65q54 0 93 -17.5t64.5 -49t38 -74.5t12.5 -94q0 -11 -0.5 -22.5t-1.5 -23.5h-353q5 -89 41.5 -125t105.5 -36q52 0 86 17.5t57 67.5l64 -33q-29 -64 -83 -92.5 t-126 -28.5zM285 431q-63 0 -99 -33.5t-43 -113.5h269q-3 79 -36 113t-91 34z" />
<glyph unicode="&#xea;" horiz-adv-x="547" d="M57 0zM284 643l-70 -69h-93v3l122 114h83l123 -114v-3h-98zM287 -12q-110 0 -170 61.5t-60 193.5q0 126 59 191t173 65q54 0 93 -17.5t64.5 -49t38 -74.5t12.5 -94q0 -11 -0.5 -22.5t-1.5 -23.5h-353q5 -89 41.5 -125t105.5 -36q52 0 86 17.5t57 67.5l64 -33 q-29 -64 -83 -92.5t-126 -28.5zM285 431q-63 0 -99 -33.5t-43 -113.5h269q-3 79 -36 113t-91 34z" />
<glyph unicode="&#xeb;" horiz-adv-x="547" d="M57 0zM309 637q0 28 16 42t44 14t43.5 -14t15.5 -42t-15.5 -42.5t-43.5 -14.5t-44 14.5t-16 42.5zM136 637q0 28 16 42t44 14t43.5 -14t15.5 -42t-15.5 -42.5t-43.5 -14.5t-44 14.5t-16 42.5zM287 -12q-110 0 -170 61.5t-60 193.5q0 126 59 191t173 65q54 0 93 -17.5 t64.5 -49t38 -74.5t12.5 -94q0 -11 -0.5 -22.5t-1.5 -23.5h-353q5 -89 41.5 -125t105.5 -36q52 0 86 17.5t57 67.5l64 -33q-29 -64 -83 -92.5t-126 -28.5zM285 431q-63 0 -99 -33.5t-43 -113.5h269q-3 79 -36 113t-91 34z" />
<glyph unicode="&#xec;" horiz-adv-x="276" d="M0 0zM95 487h86v-487h-86v487zM109 574l-115 111v6h111l77 -113v-4h-73z" />
<glyph unicode="&#xed;" horiz-adv-x="276" d="M95 0zM285 685l-114 -111h-73v4l76 113h111v-6zM95 487h86v-487h-86v487z" />
<glyph unicode="&#xee;" horiz-adv-x="276" d="M0 0zM139 643l-70 -69h-93v3l122 114h83l123 -114v-3h-98zM95 487h86v-487h-86v487z" />
<glyph unicode="&#xef;" horiz-adv-x="276" d="M0 0zM164 637q0 28 16 42t44 14t43.5 -14t15.5 -42t-15.5 -42.5t-43.5 -14.5t-44 14.5t-16 42.5zM-9 637q0 28 16 42t44 14t43.5 -14t15.5 -42t-15.5 -42.5t-43.5 -14.5t-44 14.5t-16 42.5zM95 487h86v-487h-86v487z" />
<glyph unicode="&#xf0;" horiz-adv-x="592" d="M479 718l32 -47l-80 -51q54 -65 76.5 -156.5t22.5 -209.5v-12q0 -131 -59.5 -192.5t-175.5 -61.5q-115 0 -176.5 60t-61.5 194q0 132 62.5 193t175.5 61q87 0 135 -47q-9 38 -25 70.5t-40 59.5l-83 -53l-31 47l72 47q-52 40 -131 61l28 59q104 -24 170 -80zM444 242 q0 101 -36.5 143.5t-112.5 42.5q-78 0 -115 -42.5t-37 -143.5t37.5 -143t114.5 -42q76 0 112.5 42t36.5 143z" />
<glyph unicode="&#xf1;" horiz-adv-x="630" d="M93 0zM93 487h75l9 -93q28 57 77.5 81t109.5 24q92 0 136 -49t44 -146v-304h-86v284q0 77 -31 109.5t-89 32.5q-72 0 -114.5 -47.5t-44.5 -135.5v-243h-86v487zM422 684h65q2 -29 -5.5 -48.5t-20.5 -31t-29.5 -16.5t-32.5 -5q-21 0 -39 6.5t-34 14t-30.5 14t-27.5 6.5 q-18 0 -23.5 -11.5t-5.5 -25.5h-66q-2 29 5.5 48.5t20 31t28.5 16.5t33 5q22 0 40.5 -6.5t34.5 -14t30 -14t28 -6.5q18 0 23.5 11t5.5 26z" />
<glyph unicode="&#xf2;" horiz-adv-x="586" d="M57 0zM57 245q0 132 61.5 193t174.5 61q119 0 177.5 -60t58.5 -194q0 -132 -60 -194.5t-176 -62.5q-115 0 -175.5 61t-60.5 196zM443 244q0 52 -9 87.5t-27.5 57.5t-47 31.5t-66.5 9.5q-39 0 -67.5 -9.5t-46.5 -31.5t-27 -57.5t-9 -87.5q0 -103 36.5 -145t113.5 -42 t113.5 42t36.5 145zM264 574l-115 111v6h111l77 -113v-4h-73z" />
<glyph unicode="&#xf3;" horiz-adv-x="586" d="M57 0zM440 685l-114 -111h-73v4l76 113h111v-6zM57 245q0 132 61.5 193t174.5 61q119 0 177.5 -60t58.5 -194q0 -132 -60 -194.5t-176 -62.5q-115 0 -175.5 61t-60.5 196zM443 244q0 52 -9 87.5t-27.5 57.5t-47 31.5t-66.5 9.5q-39 0 -67.5 -9.5t-46.5 -31.5t-27 -57.5 t-9 -87.5q0 -103 36.5 -145t113.5 -42t113.5 42t36.5 145z" />
<glyph unicode="&#xf4;" horiz-adv-x="586" d="M57 0zM293 643l-70 -69h-93v3l122 114h83l123 -114v-3h-98zM57 245q0 132 61.5 193t174.5 61q119 0 177.5 -60t58.5 -194q0 -132 -60 -194.5t-176 -62.5q-115 0 -175.5 61t-60.5 196zM443 244q0 52 -9 87.5t-27.5 57.5t-47 31.5t-66.5 9.5q-39 0 -67.5 -9.5t-46.5 -31.5 t-27 -57.5t-9 -87.5q0 -103 36.5 -145t113.5 -42t113.5 42t36.5 145z" />
<glyph unicode="&#xf5;" horiz-adv-x="586" d="M57 0zM57 245q0 132 61.5 193t174.5 61q119 0 177.5 -60t58.5 -194q0 -132 -60 -194.5t-176 -62.5q-115 0 -175.5 61t-60.5 196zM443 244q0 52 -9 87.5t-27.5 57.5t-47 31.5t-66.5 9.5q-39 0 -67.5 -9.5t-46.5 -31.5t-27 -57.5t-9 -87.5q0 -103 36.5 -145t113.5 -42 t113.5 42t36.5 145zM383 684h65q2 -29 -5.5 -48.5t-20.5 -31t-29.5 -16.5t-32.5 -5q-21 0 -39 6.5t-34 14t-30.5 14t-27.5 6.5q-18 0 -23.5 -11.5t-5.5 -25.5h-66q-2 29 5.5 48.5t20 31t28.5 16.5t33 5q22 0 40.5 -6.5t34.5 -14t30 -14t28 -6.5q18 0 23.5 11t5.5 26z" />
<glyph unicode="&#xf6;" horiz-adv-x="586" d="M57 0zM319 637q0 28 16 42t44 14t43.5 -14t15.5 -42t-15.5 -42.5t-43.5 -14.5t-44 14.5t-16 42.5zM146 637q0 28 16 42t44 14t43.5 -14t15.5 -42t-15.5 -42.5t-43.5 -14.5t-44 14.5t-16 42.5zM57 245q0 132 61.5 193t174.5 61q119 0 177.5 -60t58.5 -194 q0 -132 -60 -194.5t-176 -62.5q-115 0 -175.5 61t-60.5 196zM443 244q0 52 -9 87.5t-27.5 57.5t-47 31.5t-66.5 9.5q-39 0 -67.5 -9.5t-46.5 -31.5t-27 -57.5t-9 -87.5q0 -103 36.5 -145t113.5 -42t113.5 42t36.5 145z" />
<glyph unicode="&#xf7;" horiz-adv-x="506" d="M193 475q0 28 15.5 42.5t43.5 14.5t44 -14.5t16 -42.5q0 -27 -16 -42t-44 -15t-43.5 15t-15.5 42zM456 345v-71h-406v71h406zM193 147q0 29 15.5 43t43.5 14t44 -14t16 -43q0 -28 -16 -42.5t-44 -14.5t-43.5 14.5t-15.5 42.5z" />
<glyph unicode="&#xf8;" horiz-adv-x="596" d="M580 487l-81 -83q35 -61 35 -159q0 -132 -60 -194.5t-176 -62.5q-99 0 -157 46l-33 -34h-87l78 81q-37 59 -37 164q0 132 61.5 193t174.5 61q102 0 161 -47l34 35h87zM160 144l244 252q-18 18 -44.5 26t-61.5 8q-39 0 -67.5 -9.5t-46.5 -31.5t-27 -57.5t-9 -87.5 q0 -61 12 -100zM448 244q0 29 -3 52t-8 43l-243 -250q19 -17 44.5 -24.5t59.5 -7.5q77 0 113.5 42t36.5 145z" />
<glyph unicode="&#xf9;" horiz-adv-x="626" d="M86 0zM459 0l-7 86q-29 -53 -76.5 -75.5t-101.5 -22.5q-97 0 -142.5 53t-45.5 150v296h86v-284q0 -145 122 -145q71 0 111 46t42 134v249h86v-487h-74zM280 574l-115 111v6h111l77 -113v-4h-73z" />
<glyph unicode="&#xfa;" horiz-adv-x="626" d="M86 0zM456 685l-114 -111h-73v4l76 113h111v-6zM459 0l-7 86q-29 -53 -76.5 -75.5t-101.5 -22.5q-97 0 -142.5 53t-45.5 150v296h86v-284q0 -145 122 -145q71 0 111 46t42 134v249h86v-487h-74z" />
<glyph unicode="&#xfb;" horiz-adv-x="626" d="M86 0zM309 643l-70 -69h-93v3l122 114h83l123 -114v-3h-98zM459 0l-7 86q-29 -53 -76.5 -75.5t-101.5 -22.5q-97 0 -142.5 53t-45.5 150v296h86v-284q0 -145 122 -145q71 0 111 46t42 134v249h86v-487h-74z" />
<glyph unicode="&#xfc;" horiz-adv-x="626" d="M86 0zM335 637q0 28 16 42t44 14t43.5 -14t15.5 -42t-15.5 -42.5t-43.5 -14.5t-44 14.5t-16 42.5zM162 637q0 28 16 42t44 14t43.5 -14t15.5 -42t-15.5 -42.5t-43.5 -14.5t-44 14.5t-16 42.5zM459 0l-7 86q-29 -53 -76.5 -75.5t-101.5 -22.5q-97 0 -142.5 53t-45.5 150 v296h86v-284q0 -145 122 -145q71 0 111 46t42 134v249h86v-487h-74z" />
<glyph unicode="&#xfd;" horiz-adv-x="502" d="M5 0zM186 -65l20 56l-201 496h91l155 -406l155 406h89l-235 -580q-29 -71 -73.5 -97t-101.5 -26q-20 0 -37.5 2.5t-40.5 10.5l14 72q17 -5 31 -8t34 -3q12 0 25 2t26.5 10t26 23.5t22.5 41.5zM397 685l-114 -111h-73v4l76 113h111v-6z" />
<glyph unicode="&#xfe;" horiz-adv-x="615" d="M179 243q0 -98 41 -142t106 -44q73 0 109 45.5t36 141.5q0 97 -35.5 141.5t-105.5 44.5q-33 0 -60.5 -10.5t-47.5 -33.5t-31.5 -58.5t-11.5 -84.5zM179 700v-295q25 47 69.5 70.5t104.5 23.5q100 0 152 -64.5t52 -189.5t-56 -191t-162 -66q-54 0 -94.5 20t-65.5 61v-256 h-86v887h86z" />
<glyph unicode="&#xff;" horiz-adv-x="502" d="M5 0zM186 -65l20 56l-201 496h91l155 -406l155 406h89l-235 -580q-29 -71 -73.5 -97t-101.5 -26q-20 0 -37.5 2.5t-40.5 10.5l14 72q17 -5 31 -8t34 -3q12 0 25 2t26.5 10t26 23.5t22.5 41.5zM276 637q0 28 16 42t44 14t43.5 -14t15.5 -42t-15.5 -42.5t-43.5 -14.5 t-44 14.5t-16 42.5zM103 637q0 28 16 42t44 14t43.5 -14t15.5 -42t-15.5 -42.5t-43.5 -14.5t-44 14.5t-16 42.5z" />
<glyph unicode="&#x100;" horiz-adv-x="622" d="M10 0zM308 619l-134 -401h270zM518 0l-48 143h-321l-48 -143h-91l245 700h112l245 -700h-94zM442 874v-59h-254v59h254z" />
<glyph unicode="&#x101;" horiz-adv-x="572" d="M60 0zM247 57q68 0 110 45t43 127v2h-125q-70 0 -100.5 -23t-30.5 -71q0 -38 24.5 -59t78.5 -21zM405 89q-23 -47 -67.5 -74t-109.5 -27q-37 0 -67.5 9.5t-53 28t-35 46t-12.5 62.5q0 34 11 63.5t36.5 51.5t66 35t100.5 13h126q-2 76 -34 104.5t-97 28.5q-54 0 -87 -18 t-54 -47l-48 52q28 41 76.5 61.5t120.5 20.5q47 0 85.5 -10t66 -33.5t42.5 -62t15 -95.5v-298h-74zM401 660v-59h-254v59h254z" />
<glyph unicode="&#x102;" horiz-adv-x="622" d="M10 0zM308 619l-134 -401h270zM518 0l-48 143h-321l-48 -143h-91l245 700h112l245 -700h-94zM391 905h66q0 -35 -10 -59t-28 -38t-44.5 -20t-59.5 -6t-59.5 6t-45 20t-28.5 38t-10 59h66q0 -39 19 -53.5t57 -14.5t57.5 14.5t19.5 53.5z" />
<glyph unicode="&#x103;" horiz-adv-x="572" d="M60 0zM247 57q68 0 110 45t43 127v2h-125q-70 0 -100.5 -23t-30.5 -71q0 -38 24.5 -59t78.5 -21zM405 89q-23 -47 -67.5 -74t-109.5 -27q-37 0 -67.5 9.5t-53 28t-35 46t-12.5 62.5q0 34 11 63.5t36.5 51.5t66 35t100.5 13h126q-2 76 -34 104.5t-97 28.5q-54 0 -87 -18 t-54 -47l-48 52q28 41 76.5 61.5t120.5 20.5q47 0 85.5 -10t66 -33.5t42.5 -62t15 -95.5v-298h-74zM350 691h66q0 -35 -10 -59t-28 -38t-44.5 -20t-59.5 -6t-59.5 6t-45 20t-28.5 38t-10 59h66q0 -39 19 -53.5t57 -14.5t57.5 14.5t19.5 53.5z" />
<glyph unicode="&#x104;" horiz-adv-x="622" d="M509 24l-40 119h-320l-48 -143h-91l245 700h112l245 -700h-34q-23 -2 -41 -11.5t-30 -23.5t-18.5 -31.5t-6.5 -34.5q0 -28 15 -39t43 -11q36 0 66 18l13 -56q-38 -23 -86 -23q-22 0 -43 5t-37 16.5t-26 31t-10 48.5q0 51 27.5 84.5t64.5 50.5zM309 619l-135 -401h270z " />
<glyph unicode="&#x105;" horiz-adv-x="572" d="M526 -189q-38 -23 -86 -23q-22 0 -43 5t-37 16.5t-26 31t-10 48.5q0 49 25.5 82t60.5 50l-5 68q-23 -47 -67.5 -74t-109.5 -27q-37 0 -67.5 9.5t-53 28t-35 46t-12.5 62.5q0 34 11 63.5t36.5 51.5t66 35t100.5 13h126q-2 76 -34 104.5t-97 28.5q-54 0 -87 -18t-54 -47 l-48 52q28 41 76.5 61.5t120.5 20.5q47 0 85.5 -10t66 -33.5t42.5 -62t15 -95.5v-298h-1q-23 -2 -41 -11.5t-30 -23.5t-18.5 -31.5t-6.5 -34.5q0 -28 15 -39t43 -11q36 0 66 18zM247 57q68 0 110 45t43 127v2h-125q-70 0 -100.5 -23t-30.5 -71q0 -38 24.5 -59t78.5 -21z" />
<glyph unicode="&#x106;" horiz-adv-x="699" d="M77 0zM539 900l-114 -111h-73v4l76 113h111v-6zM392 -12q-78 0 -137 20t-98.5 63.5t-59.5 112.5t-20 167t20 166.5t59.5 112t98.5 63t137 19.5q94 0 156.5 -30t98.5 -102l-70 -47q-29 61 -73.5 84t-111.5 23q-54 0 -96 -13t-71 -46t-44 -88.5t-15 -140.5t15 -141 t44 -89.5t71 -47.5t96 -14q68 0 117 26t84 91l66 -45q-43 -78 -109 -111t-158 -33z" />
<glyph unicode="&#x107;" horiz-adv-x="532" d="M57 0zM436 685l-114 -111h-73v4l76 113h111v-6zM289 -12q-111 0 -171.5 60.5t-60.5 195.5q0 132 60.5 193.5t172.5 61.5q76 0 123.5 -28t76.5 -81l-62 -40q-20 38 -54.5 59t-83.5 21q-38 0 -66 -9.5t-46 -31.5t-26.5 -58t-8.5 -88q0 -103 36 -144.5t110 -41.5q53 0 86 19 t56 67l65 -34q-29 -64 -81 -92.5t-126 -28.5z" />
<glyph unicode="&#x108;" horiz-adv-x="699" d="M77 0zM394 858l-70 -69h-93v3l122 114h83l123 -114v-3h-98zM392 -12q-78 0 -137 20t-98.5 63.5t-59.5 112.5t-20 167t20 166.5t59.5 112t98.5 63t137 19.5q94 0 156.5 -30t98.5 -102l-70 -47q-29 61 -73.5 84t-111.5 23q-54 0 -96 -13t-71 -46t-44 -88.5t-15 -140.5 t15 -141t44 -89.5t71 -47.5t96 -14q68 0 117 26t84 91l66 -45q-43 -78 -109 -111t-158 -33z" />
<glyph unicode="&#x109;" horiz-adv-x="532" d="M57 0zM290 643l-70 -69h-93v3l122 114h83l123 -114v-3h-98zM289 -12q-111 0 -171.5 60.5t-60.5 195.5q0 132 60.5 193.5t172.5 61.5q76 0 123.5 -28t76.5 -81l-62 -40q-20 38 -54.5 59t-83.5 21q-38 0 -66 -9.5t-46 -31.5t-26.5 -58t-8.5 -88q0 -103 36 -144.5t110 -41.5 q53 0 86 19t56 67l65 -34q-29 -64 -81 -92.5t-126 -28.5z" />
<glyph unicode="&#x10a;" horiz-adv-x="699" d="M77 0zM392 -12q-78 0 -137 20t-98.5 63.5t-59.5 112.5t-20 167t20 166.5t59.5 112t98.5 63t137 19.5q94 0 156.5 -30t98.5 -102l-70 -47q-29 61 -73.5 84t-111.5 23q-54 0 -96 -13t-71 -46t-44 -88.5t-15 -140.5t15 -141t44 -89.5t71 -47.5t96 -14q68 0 117 26t84 91 l66 -45q-43 -78 -109 -111t-158 -33zM334 852q0 28 16 42t44 14t43.5 -14t15.5 -42t-15.5 -42.5t-43.5 -14.5t-44 14.5t-16 42.5z" />
<glyph unicode="&#x10b;" horiz-adv-x="532" d="M57 0zM289 -12q-111 0 -171.5 60.5t-60.5 195.5q0 132 60.5 193.5t172.5 61.5q76 0 123.5 -28t76.5 -81l-62 -40q-20 38 -54.5 59t-83.5 21q-38 0 -66 -9.5t-46 -31.5t-26.5 -58t-8.5 -88q0 -103 36 -144.5t110 -41.5q53 0 86 19t56 67l65 -34q-29 -64 -81 -92.5 t-126 -28.5zM231 637q0 28 16 42t44 14t43.5 -14t15.5 -42t-15.5 -42.5t-43.5 -14.5t-44 14.5t-16 42.5z" />
<glyph unicode="&#x10c;" horiz-adv-x="699" d="M77 0zM393 839l71 67h93v-2l-123 -115h-83l-122 115v2h96zM392 -12q-78 0 -137 20t-98.5 63.5t-59.5 112.5t-20 167t20 166.5t59.5 112t98.5 63t137 19.5q94 0 156.5 -30t98.5 -102l-70 -47q-29 61 -73.5 84t-111.5 23q-54 0 -96 -13t-71 -46t-44 -88.5t-15 -140.5 t15 -141t44 -89.5t71 -47.5t96 -14q68 0 117 26t84 91l66 -45q-43 -78 -109 -111t-158 -33z" />
<glyph unicode="&#x10d;" horiz-adv-x="532" d="M57 0zM290 624l71 67h93v-2l-123 -115h-83l-122 115v2h96zM289 -12q-111 0 -171.5 60.5t-60.5 195.5q0 132 60.5 193.5t172.5 61.5q76 0 123.5 -28t76.5 -81l-62 -40q-20 38 -54.5 59t-83.5 21q-38 0 -66 -9.5t-46 -31.5t-26.5 -58t-8.5 -88q0 -103 36 -144.5t110 -41.5 q53 0 86 19t56 67l65 -34q-29 -64 -81 -92.5t-126 -28.5z" />
<glyph unicode="&#x10e;" horiz-adv-x="753" d="M110 0zM386 838l71 67h93v-2l-123 -115h-83l-122 115v2h96zM373 0h-263v700h264q153 0 228 -82.5t75 -263.5t-76.5 -267.5t-227.5 -86.5zM199 76h171q50 0 90 13.5t68.5 45.5t44 85t15.5 131q0 76 -14 128.5t-41 84.5t-66.5 46t-89.5 14h-178v-548z" />
<glyph unicode="&#x10f;" horiz-adv-x="662" d="M57 0zM665 480h-59l7 220h84zM435 245q0 49 -11.5 84t-31.5 57.5t-47 33t-59 10.5q-73 0 -108 -45t-35 -142t35.5 -141.5t106.5 -44.5q32 0 59.5 10.5t47.5 33.5t31.5 58.5t11.5 85.5zM442 0l-5 87q-24 -50 -68.5 -74.5t-106.5 -24.5q-100 0 -152.5 65.5t-52.5 190.5 t55.5 190t160.5 65q110 0 162 -82v283h86v-700h-79z" />
<glyph unicode="&#x110;" horiz-adv-x="773" d="M393 0h-263v323h-82v71h82v306h264q153 0 228 -82.5t75 -263.5t-76.5 -267.5t-227.5 -86.5zM219 76h171q50 0 90 13.5t68.5 45.5t44 85t15.5 131q0 76 -14 128.5t-41 84.5t-66.5 46t-89.5 14h-178v-230h160v-71h-160v-247z" />
<glyph unicode="&#x111;" horiz-adv-x="631" d="M435 245q0 49 -11.5 84t-31.5 57.5t-47 33.5t-59 11q-73 0 -108 -45.5t-35 -142.5q0 -96 35.5 -141t106.5 -45q32 0 59.5 11t47.5 33.5t31.5 58t11.5 85.5zM600 615v-58h-79v-557h-79l-5 87q-24 -49 -68.5 -74t-106.5 -25q-100 0 -152.5 65.5t-52.5 190.5t55.5 190 t160.5 65q54 0 95 -20t67 -61v139h-157v58h157v85h86v-85h79z" />
<glyph unicode="&#x112;" horiz-adv-x="666" d="M110 0zM110 0v700h506v-76h-419v-233h367v-78h-367v-237h429v-76h-516zM501 874v-59h-254v59h254z" />
<glyph unicode="&#x113;" horiz-adv-x="547" d="M57 0zM287 -12q-110 0 -170 61.5t-60 193.5q0 126 59 191t173 65q54 0 93 -17.5t64.5 -49t38 -74.5t12.5 -94q0 -11 -0.5 -22.5t-1.5 -23.5h-353q5 -89 41.5 -125t105.5 -36q52 0 86 17.5t57 67.5l64 -33q-29 -64 -83 -92.5t-126 -28.5zM285 431q-63 0 -99 -33.5 t-43 -113.5h269q-3 79 -36 113t-91 34zM411 660v-59h-254v59h254z" />
<glyph unicode="&#x114;" horiz-adv-x="666" d="M110 0zM110 0v700h506v-76h-419v-233h367v-78h-367v-237h429v-76h-516zM450 905h66q0 -35 -10 -59t-28 -38t-44.5 -20t-59.5 -6t-59.5 6t-45 20t-28.5 38t-10 59h66q0 -39 19 -53.5t57 -14.5t57.5 14.5t19.5 53.5z" />
<glyph unicode="&#x115;" horiz-adv-x="547" d="M57 0zM287 -12q-110 0 -170 61.5t-60 193.5q0 126 59 191t173 65q54 0 93 -17.5t64.5 -49t38 -74.5t12.5 -94q0 -11 -0.5 -22.5t-1.5 -23.5h-353q5 -89 41.5 -125t105.5 -36q52 0 86 17.5t57 67.5l64 -33q-29 -64 -83 -92.5t-126 -28.5zM285 431q-63 0 -99 -33.5 t-43 -113.5h269q-3 79 -36 113t-91 34zM359 691h66q0 -35 -10 -59t-28 -38t-44.5 -20t-59.5 -6t-59.5 6t-45 20t-28.5 38t-10 59h66q0 -39 19 -53.5t57 -14.5t57.5 14.5t19.5 53.5z" />
<glyph unicode="&#x116;" horiz-adv-x="666" d="M110 0zM110 0v700h506v-76h-419v-233h367v-78h-367v-237h429v-76h-516zM316 851q0 28 16 42t44 14t43.5 -14t15.5 -42t-15.5 -42.5t-43.5 -14.5t-44 14.5t-16 42.5z" />
<glyph unicode="&#x117;" horiz-adv-x="547" d="M57 0zM287 -12q-110 0 -170 61.5t-60 193.5q0 126 59 191t173 65q54 0 93 -17.5t64.5 -49t38 -74.5t12.5 -94q0 -11 -0.5 -22.5t-1.5 -23.5h-353q5 -89 41.5 -125t105.5 -36q52 0 86 17.5t57 67.5l64 -33q-29 -64 -83 -92.5t-126 -28.5zM285 431q-63 0 -99 -33.5 t-43 -113.5h269q-3 79 -36 113t-91 34zM225 637q0 28 16 42t44 14t43.5 -14t15.5 -42t-15.5 -42.5t-43.5 -14.5t-44 14.5t-16 42.5z" />
<glyph unicode="&#x118;" horiz-adv-x="666" d="M110 0v700h506v-75h-418v-234h366v-78h-366v-238h428v-75q-28 -2 -48.5 -11.5t-34 -23.5t-20 -31.5t-6.5 -34.5q0 -28 15.5 -39t42.5 -11q36 0 66 18l13 -56q-19 -11 -39.5 -17t-46.5 -6q-22 0 -43 5t-37 16.5t-25.5 31t-9.5 48.5q0 37 14.5 65t38.5 46h-396z" />
<glyph unicode="&#x119;" horiz-adv-x="547" d="M222 -111q0 32 11 57t29 43q-99 7 -152 68t-53 186q0 126 59 191t173 65q54 0 93 -17.5t64.5 -49t38 -74.5t12.5 -94q0 -11 -0.5 -22.5t-1.5 -23.5h-354q5 -89 42 -125t106 -36q52 0 86 17.5t57 67.5l64 -33q-21 -46 -54.5 -73.5t-78.5 -38.5q-37 -10 -56.5 -38.5 t-19.5 -59.5q0 -28 15 -39t43 -11q36 0 66 18l13 -56q-38 -23 -86 -23q-22 0 -43 5t-37 16.5t-26 31t-10 48.5zM285 431q-63 0 -99.5 -33.5t-43.5 -113.5h270q-3 79 -36 113t-91 34z" />
<glyph unicode="&#x11a;" horiz-adv-x="666" d="M110 0zM374 838l71 67h93v-2l-123 -115h-83l-122 115v2h96zM110 0v700h506v-76h-419v-233h367v-78h-367v-237h429v-76h-516z" />
<glyph unicode="&#x11b;" horiz-adv-x="547" d="M57 0zM284 624l71 67h93v-2l-123 -115h-83l-122 115v2h96zM287 -12q-110 0 -170 61.5t-60 193.5q0 126 59 191t173 65q54 0 93 -17.5t64.5 -49t38 -74.5t12.5 -94q0 -11 -0.5 -22.5t-1.5 -23.5h-353q5 -89 41.5 -125t105.5 -36q52 0 86 17.5t57 67.5l64 -33 q-29 -64 -83 -92.5t-126 -28.5zM285 431q-63 0 -99 -33.5t-43 -113.5h269q-3 79 -36 113t-91 34z" />
<glyph unicode="&#x11c;" horiz-adv-x="743" d="M77 0zM390 857l-70 -69h-93v3l122 114h83l123 -114v-3h-98zM377 -12q-146 0 -223 87.5t-77 275.5q0 98 20 166.5t59.5 112t98.5 63t137 19.5q94 0 156 -30.5t98 -97.5l-71 -48q-29 56 -73 80t-110 24q-54 0 -96.5 -12.5t-71 -45t-43.5 -88.5t-15 -143q0 -84 14.5 -139.5 t43 -89.5t70 -48t94.5 -14q34 0 68.5 9.5t62.5 32t46.5 60.5t19.5 96v25h-191v70h273v-353h-74l-6 99q-29 -53 -85 -82t-125 -29z" />
<glyph unicode="&#x11d;" horiz-adv-x="613" d="M57 0zM279 643l-70 -69h-93v3l122 114h83l123 -114v-3h-98zM434 253q0 48 -11.5 81.5t-31.5 55t-47.5 31.5t-59.5 10q-72 0 -106.5 -43t-34.5 -136q0 -94 35 -137.5t106 -43.5q32 0 59.5 10t47.5 32t31.5 56.5t11.5 83.5zM520 487v-473q0 -61 -18 -104.5t-50.5 -71.5 t-77.5 -41t-99 -13q-72 0 -125.5 25t-84.5 90l62 44q25 -50 61 -69.5t87 -19.5q35 0 64 8.5t50 26.5t33 46.5t12 69.5v88q-24 -47 -67 -69.5t-103 -22.5q-98 0 -152.5 63t-54.5 187q0 121 53 184.5t155 63.5q60 0 104 -22.5t68 -68.5l9 79h74z" />
<glyph unicode="&#x11e;" horiz-adv-x="743" d="M77 0zM377 -12q-146 0 -223 87.5t-77 275.5q0 98 20 166.5t59.5 112t98.5 63t137 19.5q94 0 156 -30.5t98 -97.5l-71 -48q-29 56 -73 80t-110 24q-54 0 -96.5 -12.5t-71 -45t-43.5 -88.5t-15 -143q0 -84 14.5 -139.5t43 -89.5t70 -48t94.5 -14q34 0 68.5 9.5t62.5 32 t46.5 60.5t19.5 96v25h-191v70h273v-353h-74l-6 99q-29 -53 -85 -82t-125 -29zM464 905h66q0 -35 -10 -59t-28 -38t-44.5 -20t-59.5 -6t-59.5 6t-45 20t-28.5 38t-10 59h66q0 -39 19 -53.5t57 -14.5t57.5 14.5t19.5 53.5z" />
<glyph unicode="&#x11f;" horiz-adv-x="613" d="M57 0zM434 253q0 48 -11.5 81.5t-31.5 55t-47.5 31.5t-59.5 10q-72 0 -106.5 -43t-34.5 -136q0 -94 35 -137.5t106 -43.5q32 0 59.5 10t47.5 32t31.5 56.5t11.5 83.5zM520 487v-473q0 -61 -18 -104.5t-50.5 -71.5t-77.5 -41t-99 -13q-72 0 -125.5 25t-84.5 90l62 44 q25 -50 61 -69.5t87 -19.5q35 0 64 8.5t50 26.5t33 46.5t12 69.5v88q-24 -47 -67 -69.5t-103 -22.5q-98 0 -152.5 63t-54.5 187q0 121 53 184.5t155 63.5q60 0 104 -22.5t68 -68.5l9 79h74zM353 691h66q0 -35 -10 -59t-28 -38t-44.5 -20t-59.5 -6t-59.5 6t-45 20t-28.5 38 t-10 59h66q0 -39 19 -53.5t57 -14.5t57.5 14.5t19.5 53.5z" />
<glyph unicode="&#x120;" horiz-adv-x="743" d="M77 0zM377 -12q-146 0 -223 87.5t-77 275.5q0 98 20 166.5t59.5 112t98.5 63t137 19.5q94 0 156 -30.5t98 -97.5l-71 -48q-29 56 -73 80t-110 24q-54 0 -96.5 -12.5t-71 -45t-43.5 -88.5t-15 -143q0 -84 14.5 -139.5t43 -89.5t70 -48t94.5 -14q34 0 68.5 9.5t62.5 32 t46.5 60.5t19.5 96v25h-191v70h273v-353h-74l-6 99q-29 -53 -85 -82t-125 -29zM330 851q0 28 16 42t44 14t43.5 -14t15.5 -42t-15.5 -42.5t-43.5 -14.5t-44 14.5t-16 42.5z" />
<glyph unicode="&#x121;" horiz-adv-x="613" d="M57 0zM434 253q0 48 -11.5 81.5t-31.5 55t-47.5 31.5t-59.5 10q-72 0 -106.5 -43t-34.5 -136q0 -94 35 -137.5t106 -43.5q32 0 59.5 10t47.5 32t31.5 56.5t11.5 83.5zM520 487v-473q0 -61 -18 -104.5t-50.5 -71.5t-77.5 -41t-99 -13q-72 0 -125.5 25t-84.5 90l62 44 q25 -50 61 -69.5t87 -19.5q35 0 64 8.5t50 26.5t33 46.5t12 69.5v88q-24 -47 -67 -69.5t-103 -22.5q-98 0 -152.5 63t-54.5 187q0 121 53 184.5t155 63.5q60 0 104 -22.5t68 -68.5l9 79h74zM219 637q0 28 16 42t44 14t43.5 -14t15.5 -42t-15.5 -42.5t-43.5 -14.5t-44 14.5 t-16 42.5z" />
<glyph unicode="&#x122;" horiz-adv-x="743" d="M77 0zM344 -292l-17 40q29 8 44.5 29.5t18.5 50.5h-5q-59 0 -59 55q0 26 15 39.5t41 13.5q29 0 45 -18.5t16 -62.5q0 -51 -24 -92t-75 -55zM377 -12q-146 0 -223 87.5t-77 275.5q0 98 20 166.5t59.5 112t98.5 63t137 19.5q94 0 156 -30.5t98 -97.5l-71 -48q-29 56 -73 80 t-110 24q-54 0 -96.5 -12.5t-71 -45t-43.5 -88.5t-15 -143q0 -84 14.5 -139.5t43 -89.5t70 -48t94.5 -14q34 0 68.5 9.5t62.5 32t46.5 60.5t19.5 96v25h-191v70h273v-353h-74l-6 99q-29 -53 -85 -82t-125 -29z" />
<glyph unicode="&#x123;" horiz-adv-x="613" d="M318 792l17 -40q-29 -8 -44.5 -29.5t-18.5 -50.5h5q59 0 59 -55q0 -26 -15 -39.5t-41 -13.5q-29 0 -45 18.5t-16 62.5q0 51 24 92t75 55zM434 253q0 48 -11.5 81.5t-31.5 55t-47.5 31.5t-59.5 10q-72 0 -106.5 -43t-34.5 -136q0 -94 35 -137.5t106 -43.5q32 0 59.5 10 t47.5 32t31.5 56.5t11.5 83.5zM520 487v-473q0 -61 -18 -104.5t-50.5 -71.5t-77.5 -41t-99 -13q-72 0 -125.5 25t-84.5 90l62 44q25 -50 61 -69.5t87 -19.5q35 0 64 8.5t50 26.5t33 46.5t12 69.5v88q-24 -47 -67 -69.5t-103 -22.5q-98 0 -152.5 63t-54.5 187q0 121 53 184.5 t155 63.5q60 0 104 -22.5t68 -68.5l9 79h74z" />
<glyph unicode="&#x124;" horiz-adv-x="795" d="M110 0zM399 858l-70 -69h-93v3l122 114h83l123 -114v-3h-98zM596 0v313h-397v-313h-89v700h89v-309h397v309h89v-700h-89z" />
<glyph unicode="&#x125;" horiz-adv-x="630" d="M0 0zM143 823l-70 -69h-93v3l122 114h83l123 -114v-3h-98zM179 700v-307q27 57 77.5 81.5t107.5 24.5q92 0 136 -49t44 -146v-304h-86v282q0 78 -31.5 111t-88.5 33q-72 0 -114.5 -47.5t-44.5 -135.5v-243h-86v700h86z" />
<glyph unicode="&#x126;" horiz-adv-x="815" d="M209 391h397v99h-397v-99zM606 0v313h-397v-313h-89v490h-72v61h72v149h89v-149h397v149h89v-149h72v-61h-72v-490h-89z" />
<glyph unicode="&#x127;" horiz-adv-x="645" d="M30 557v58h78v85h86v-85h157v-58h-157v-165q27 58 77.5 83t107.5 25q92 0 136 -49.5t44 -146.5v-304h-86v282q0 78 -31.5 110.5t-88.5 32.5q-72 0 -114.5 -47t-44.5 -135v-243h-86v557h-78z" />
<glyph unicode="&#x128;" horiz-adv-x="309" d="M0 0zM110 0v700h89v-700h-89zM246 898h65q2 -29 -5.5 -48.5t-20.5 -31t-29.5 -16.5t-32.5 -5q-21 0 -39 6.5t-34 14t-30.5 14t-27.5 6.5q-18 0 -23.5 -11.5t-5.5 -25.5h-66q-2 29 5.5 48.5t20 31t28.5 16.5t33 5q22 0 40.5 -6.5t34.5 -14t30 -14t28 -6.5q18 0 23.5 11 t5.5 26z" />
<glyph unicode="&#x129;" horiz-adv-x="276" d="M0 0zM95 487h86v-487h-86v487zM229 684h65q2 -29 -5.5 -48.5t-20.5 -31t-29.5 -16.5t-32.5 -5q-21 0 -39 6.5t-34 14t-30.5 14t-27.5 6.5q-18 0 -23.5 -11.5t-5.5 -25.5h-66q-2 29 5.5 48.5t20 31t28.5 16.5t33 5q22 0 40.5 -6.5t34.5 -14t30 -14t28 -6.5q18 0 23.5 11 t5.5 26z" />
<glyph unicode="&#x12a;" horiz-adv-x="309" d="M28 0zM110 0v700h89v-700h-89zM282 874v-59h-254v59h254z" />
<glyph unicode="&#x12b;" horiz-adv-x="276" d="M12 0zM95 487h86v-487h-86v487zM266 660v-59h-254v59h254z" />
<glyph unicode="&#x12c;" horiz-adv-x="309" d="M11 0zM110 0v700h89v-700h-89zM230 905h66q0 -35 -10 -59t-28 -38t-44.5 -20t-59.5 -6t-59.5 6t-45 20t-28.5 38t-10 59h66q0 -39 19 -53.5t57 -14.5t57.5 14.5t19.5 53.5z" />
<glyph unicode="&#x12d;" horiz-adv-x="276" d="M0 0zM95 487h86v-487h-86v487zM214 691h66q0 -35 -10 -59t-28 -38t-44.5 -20t-59.5 -6t-59.5 6t-45 20t-28.5 38t-10 59h66q0 -39 19 -53.5t57 -14.5t57.5 14.5t19.5 53.5z" />
<glyph unicode="&#x12e;" horiz-adv-x="309" d="M113 -212q-22 0 -43 5t-37 16.5t-25.5 31t-9.5 48.5t9.5 52.5t25 41t35.5 29.5t42 18v670h89v-700h-41q-23 -2 -41 -11.5t-30 -23.5t-18.5 -31.5t-6.5 -34.5q0 -28 15.5 -39t42.5 -11q36 0 66 18l13 -56q-19 -11 -39.5 -17t-46.5 -6z" />
<glyph unicode="&#x12f;" horiz-adv-x="276" d="M79 638q0 28 15.5 42t43.5 14t43.5 -14t15.5 -42t-15.5 -42.5t-43.5 -14.5t-43.5 14.5t-15.5 42.5zM100 -212q-22 0 -42.5 5t-36.5 16.5t-26 31t-10 48.5q0 28 9 51.5t24.5 41t35.5 30t41 18.5v457h86v-487h-35q-23 -2 -41 -11.5t-30 -23.5t-18.5 -31.5t-6.5 -34.5 q0 -28 15 -39t43 -11q35 0 65 18l14 -56q-38 -23 -87 -23z" />
<glyph unicode="&#x130;" horiz-adv-x="309" d="M96 0zM110 0v700h89v-700h-89zM96 851q0 28 16 42t44 14t43.5 -14t15.5 -42t-15.5 -42.5t-43.5 -14.5t-44 14.5t-16 42.5z" />
<glyph unicode="&#x131;" horiz-adv-x="276" d="M95 487h86v-487h-86v487z" />
<glyph unicode="&#x132;" horiz-adv-x="822" d="M110 0zM110 0v700h89v-700h-89zM487 -12q-43 0 -83 11.5t-75 37.5l41 67q26 -21 58 -31.5t66 -10.5q66 0 106.5 43.5t40.5 145.5v449h89v-442q0 -77 -18 -129t-50.5 -83.5t-77 -44.5t-97.5 -13z" />
<glyph unicode="&#x133;" horiz-adv-x="551" d="M79 0zM79 638q0 28 15.5 42t43.5 14t43.5 -14t15.5 -42t-15.5 -42.5t-43.5 -14.5t-43.5 14.5t-15.5 42.5zM95 487h86v-487h-86v487zM355 638q0 28 15.5 42t43.5 14t43.5 -14t15.5 -42t-15.5 -42.5t-43.5 -14.5t-43.5 14.5t-15.5 42.5zM371 -33v520h86v-531 q0 -90 -40.5 -131t-112.5 -41q-20 0 -37 2.5t-40 10.5l14 72q14 -5 26.5 -8t31.5 -3q17 0 30.5 5t22.5 17.5t14 33.5t5 53z" />
<glyph unicode="&#x134;" horiz-adv-x="509" d="M16 0zM375 857l-70 -69h-93v3l122 114h83l123 -114v-3h-98zM174 -12q-43 0 -83 11.5t-75 37.5l41 67q26 -21 58 -31.5t66 -10.5q66 0 106.5 43.5t40.5 145.5v449h89v-442q0 -77 -18 -129t-50.5 -83.5t-77 -44.5t-97.5 -13z" />
<glyph unicode="&#x135;" horiz-adv-x="276" d="M0 0zM95 -33v520h86v-531q0 -90 -40.5 -131t-112.5 -41q-20 0 -37 2.5t-40 10.5l14 72q14 -5 26.5 -8t31.5 -3q17 0 30.5 5t22.5 17.5t14 33.5t5 53zM138 643l-70 -69h-93v3l122 114h83l123 -114v-3h-98z" />
<glyph unicode="&#x136;" horiz-adv-x="641" d="M110 0zM307 -292l-17 40q29 8 44.5 29.5t18.5 50.5h-5q-59 0 -59 55q0 26 15 39.5t41 13.5q29 0 45 -18.5t16 -62.5q0 -51 -24 -92t-75 -55zM110 0v700h89v-389l319 389h106l-262 -313l277 -387h-106l-230 322l-104 -123v-199h-89z" />
<glyph unicode="&#x137;" horiz-adv-x="524" d="M93 0zM244 -292l-17 40q29 8 44.5 29.5t18.5 50.5h-5q-59 0 -59 55q0 26 15 39.5t41 13.5q29 0 45 -18.5t16 -62.5q0 -51 -24 -92t-75 -55zM93 0v700h86v-475l232 262h104l-201 -218l203 -269h-102l-156 211l-80 -85v-126h-86z" />
<glyph unicode="&#x138;" horiz-adv-x="524" d="M93 0v487h86v-261l232 261h104l-201 -218l203 -269h-102l-155 211l-81 -85v-126h-86z" />
<glyph unicode="&#x139;" horiz-adv-x="633" d="M110 0zM300 899l-114 -111h-73v4l76 113h111v-6zM199 76h407v-76h-496v700h89v-624z" />
<glyph unicode="&#x13a;" horiz-adv-x="281" d="M89 0zM276 900l-114 -111h-73v4l76 113h111v-6zM196 0q-48 0 -77 25t-29 85v590h86v-585q0 -26 10.5 -36.5t36.5 -10.5h45v-68h-72z" />
<glyph unicode="&#x13b;" horiz-adv-x="633" d="M110 0zM319 -292l-17 40q29 8 44.5 29.5t18.5 50.5h-5q-59 0 -59 55q0 26 15 39.5t41 13.5q29 0 45 -18.5t16 -62.5q0 -51 -24 -92t-75 -55zM199 76h407v-76h-496v700h89v-624z" />
<glyph unicode="&#x13c;" horiz-adv-x="281" d="M90 0zM196 0q-48 0 -77 25t-29 85v590h86v-585q0 -26 10.5 -36.5t36.5 -10.5h45v-68h-72zM135 -292l-17 40q29 8 44.5 29.5t18.5 50.5h-5q-59 0 -59 55q0 26 15 39.5t41 13.5q29 0 45 -18.5t16 -62.5q0 -51 -24 -92t-75 -55z" />
<glyph unicode="&#x13d;" horiz-adv-x="633" d="M110 0zM454 481h-59l7 220h84zM199 76h407v-76h-496v700h89v-624z" />
<glyph unicode="&#x13e;" horiz-adv-x="320" d="M90 0zM323 481h-59l7 220h84zM196 0q-48 0 -77 25t-29 85v590h86v-585q0 -26 10.5 -36.5t36.5 -10.5h45v-68h-72z" />
<glyph unicode="&#x13f;" horiz-adv-x="633" d="M110 0zM199 76h407v-76h-496v700h89v-624zM395 359q0 28 16 42t44 14t43.5 -14t15.5 -42t-15.5 -42.5t-43.5 -14.5t-44 14.5t-16 42.5z" />
<glyph unicode="&#x140;" horiz-adv-x="359" d="M90 0zM196 0q-48 0 -77 25t-29 85v590h86v-585q0 -26 10.5 -36.5t36.5 -10.5h45v-68h-72zM251 306q0 28 16 42t44 14t43.5 -14t15.5 -42t-15.5 -42.5t-43.5 -14.5t-44 14.5t-16 42.5z" />
<glyph unicode="&#x141;" horiz-adv-x="653" d="M219 76h407v-76h-496v251l-105 -66v81l105 66v368h89v-312l177 111v-82l-177 -111v-230z" />
<glyph unicode="&#x142;" horiz-adv-x="306" d="M288 68v-68h-72q-48 0 -77 25t-29 85v153l-97 -75v81l97 76v355h86v-289l108 85v-82l-108 -84v-215q0 -26 10.5 -36.5t36.5 -10.5h45z" />
<glyph unicode="&#x143;" horiz-adv-x="783" d="M110 0zM537 899l-114 -111h-73v4l76 113h111v-6zM581 0l-388 569l3 -569h-86v700h90l389 -569l-2 569h86v-700h-92z" />
<glyph unicode="&#x144;" horiz-adv-x="630" d="M93 0zM478 685l-114 -111h-73v4l76 113h111v-6zM93 487h75l9 -93q28 57 77.5 81t109.5 24q92 0 136 -49t44 -146v-304h-86v284q0 77 -31 109.5t-89 32.5q-72 0 -114.5 -47.5t-44.5 -135.5v-243h-86v487z" />
<glyph unicode="&#x145;" horiz-adv-x="783" d="M110 0zM353 -292l-17 40q29 8 44.5 29.5t18.5 50.5h-5q-59 0 -59 55q0 26 15 39.5t41 13.5q29 0 45 -18.5t16 -62.5q0 -51 -24 -92t-75 -55zM581 0l-388 569l3 -569h-86v700h90l389 -569l-2 569h86v-700h-92z" />
<glyph unicode="&#x146;" horiz-adv-x="630" d="M93 0zM286 -292l-17 40q29 8 44.5 29.5t18.5 50.5h-5q-59 0 -59 55q0 26 15 39.5t41 13.5q29 0 45 -18.5t16 -62.5q0 -51 -24 -92t-75 -55zM93 487h75l9 -93q28 57 77.5 81t109.5 24q92 0 136 -49t44 -146v-304h-86v284q0 77 -31 109.5t-89 32.5q-72 0 -114.5 -47.5 t-44.5 -135.5v-243h-86v487z" />
<glyph unicode="&#x147;" horiz-adv-x="783" d="M110 0zM391 838l71 67h93v-2l-123 -115h-83l-122 115v2h96zM581 0l-388 569l3 -569h-86v700h90l389 -569l-2 569h86v-700h-92z" />
<glyph unicode="&#x148;" horiz-adv-x="630" d="M93 0zM332 624l71 67h93v-2l-123 -115h-83l-122 115v2h96zM93 487h75l9 -93q28 57 77.5 81t109.5 24q92 0 136 -49t44 -146v-304h-86v284q0 77 -31 109.5t-89 32.5q-72 0 -114.5 -47.5t-44.5 -135.5v-243h-86v487z" />
<glyph unicode="&#x14a;" horiz-adv-x="783" d="M585 -33v27l-392 575l3 -569h-86v700h90l389 -569l-2 569h86v-744q0 -90 -41 -131t-112 -41q-20 0 -37 2.5t-40 10.5l14 72q14 -5 26.5 -8t30.5 -3q17 0 30 5t22 17.5t14 33.5t5 53z" />
<glyph unicode="&#x14b;" horiz-adv-x="630" d="M458 -33v317q0 77 -31 109.5t-89 32.5q-72 0 -114.5 -47.5t-44.5 -135.5v-243h-86v487h75l10 -91q27 56 77 79.5t109 23.5q92 0 136 -49t44 -146v-348q0 -90 -40.5 -131t-112.5 -41q-20 0 -36.5 2.5t-39.5 10.5l14 72q13 -5 25.5 -8t31.5 -3q17 0 30.5 5t22.5 17.5 t14 33.5t5 53z" />
<glyph unicode="&#x14c;" horiz-adv-x="782" d="M77 0zM519 874v-59h-254v59h254zM391 -12q-80 0 -139 20.5t-98 65t-58 113t-19 164.5t19.5 164.5t58.5 112t98 64t138 20.5q82 0 141.5 -20.5t98 -64t57 -112t18.5 -164.5q0 -192 -79 -277.5t-236 -85.5zM391 640q-55 0 -97 -13.5t-70.5 -46.5t-43 -89t-14.5 -141 q0 -83 14.5 -138.5t43 -89.5t70.5 -48t97 -14t97.5 14t71 47.5t43 89.5t14.5 141q0 82 -14.5 137.5t-43 89t-71 47.5t-97.5 14z" />
<glyph unicode="&#x14d;" horiz-adv-x="586" d="M57 0zM420 660v-59h-254v59h254zM57 245q0 132 61.5 193t174.5 61q119 0 177.5 -60t58.5 -194q0 -132 -60 -194.5t-176 -62.5q-115 0 -175.5 61t-60.5 196zM443 244q0 52 -9 87.5t-27.5 57.5t-47 31.5t-66.5 9.5q-39 0 -67.5 -9.5t-46.5 -31.5t-27 -57.5t-9 -87.5 q0 -103 36.5 -145t113.5 -42t113.5 42t36.5 145z" />
<glyph unicode="&#x14e;" horiz-adv-x="782" d="M77 0zM391 -12q-80 0 -139 20.5t-98 65t-58 113t-19 164.5t19.5 164.5t58.5 112t98 64t138 20.5q82 0 141.5 -20.5t98 -64t57 -112t18.5 -164.5q0 -192 -79 -277.5t-236 -85.5zM391 640q-55 0 -97 -13.5t-70.5 -46.5t-43 -89t-14.5 -141q0 -83 14.5 -138.5t43 -89.5 t70.5 -48t97 -14t97.5 14t71 47.5t43 89.5t14.5 141q0 82 -14.5 137.5t-43 89t-71 47.5t-97.5 14zM467 905h66q0 -35 -10 -59t-28 -38t-44.5 -20t-59.5 -6t-59.5 6t-45 20t-28.5 38t-10 59h66q0 -39 19 -53.5t57 -14.5t57.5 14.5t19.5 53.5z" />
<glyph unicode="&#x14f;" horiz-adv-x="586" d="M57 0zM57 245q0 132 61.5 193t174.5 61q119 0 177.5 -60t58.5 -194q0 -132 -60 -194.5t-176 -62.5q-115 0 -175.5 61t-60.5 196zM443 244q0 52 -9 87.5t-27.5 57.5t-47 31.5t-66.5 9.5q-39 0 -67.5 -9.5t-46.5 -31.5t-27 -57.5t-9 -87.5q0 -103 36.5 -145t113.5 -42 t113.5 42t36.5 145zM368 691h66q0 -35 -10 -59t-28 -38t-44.5 -20t-59.5 -6t-59.5 6t-45 20t-28.5 38t-10 59h66q0 -39 19 -53.5t57 -14.5t57.5 14.5t19.5 53.5z" />
<glyph unicode="&#x150;" horiz-adv-x="782" d="M77 0zM601 899l-120 -111h-70v4l77 113h113v-6zM444 899l-92 -111h-70v4l62 113h100v-6zM391 -12q-80 0 -139 20.5t-98 65t-58 113t-19 164.5t19.5 164.5t58.5 112t98 64t138 20.5q82 0 141.5 -20.5t98 -64t57 -112t18.5 -164.5q0 -192 -79 -277.5t-236 -85.5zM391 640 q-55 0 -97 -13.5t-70.5 -46.5t-43 -89t-14.5 -141q0 -83 14.5 -138.5t43 -89.5t70.5 -48t97 -14t97.5 14t71 47.5t43 89.5t14.5 141q0 82 -14.5 137.5t-43 89t-71 47.5t-97.5 14z" />
<glyph unicode="&#x151;" horiz-adv-x="586" d="M57 0zM501 685l-120 -111h-70v4l77 113h113v-6zM344 685l-92 -111h-70v4l62 113h100v-6zM57 245q0 132 61.5 193t174.5 61q119 0 177.5 -60t58.5 -194q0 -132 -60 -194.5t-176 -62.5q-115 0 -175.5 61t-60.5 196zM443 244q0 52 -9 87.5t-27.5 57.5t-47 31.5t-66.5 9.5 q-39 0 -67.5 -9.5t-46.5 -31.5t-27 -57.5t-9 -87.5q0 -103 36.5 -145t113.5 -42t113.5 42t36.5 145z" />
<glyph unicode="&#x152;" horiz-adv-x="1104" d="M1064 0h-681q-156 0 -231.5 86t-75.5 268q0 181 76 263.5t233 82.5h669v-76h-411v-233h359v-78h-359v-237h421v-76zM386 76h168v548h-172q-52 0 -92.5 -14t-68 -46t-42 -84.5t-14.5 -128.5q0 -78 15 -131t43.5 -85t69.5 -45.5t93 -13.5z" />
<glyph unicode="&#x153;" horiz-adv-x="937" d="M57 245q0 132 61.5 193t174.5 61q143 0 196 -92q56 92 189 92q54 0 93 -17.5t64.5 -49t38 -74.5t12.5 -94q0 -11 -0.5 -22.5t-1.5 -23.5h-354q5 -89 42 -125t106 -36q52 0 86 17.5t57 67.5l64 -33q-29 -64 -83 -92.5t-126 -28.5q-66 0 -113.5 22t-75.5 70 q-56 -92 -194 -92q-115 0 -175.5 61t-60.5 196zM531 284h270q-3 79 -36 113t-91 34q-63 0 -99.5 -33.5t-43.5 -113.5zM293 57q77 0 113.5 42t36.5 145q0 52 -9 87.5t-27.5 57.5t-47 31.5t-66.5 9.5q-39 0 -67.5 -9.5t-46.5 -31.5t-27 -57.5t-9 -87.5q0 -103 36.5 -145 t113.5 -42z" />
<glyph unicode="&#x154;" horiz-adv-x="676" d="M110 0zM511 899l-114 -111h-73v4l76 113h111v-6zM388 624h-189v-282h188q69 0 108 35.5t39 109.5q0 66 -35.5 101.5t-110.5 35.5zM199 265v-265h-89v700h278q119 0 177 -54.5t58 -155.5q0 -83 -36 -135t-102 -75l150 -280h-98l-142 265h-196z" />
<glyph unicode="&#x155;" horiz-adv-x="381" d="M93 0zM362 685l-114 -111h-73v4l76 113h111v-6zM93 0v487h74l9 -103q26 60 74.5 88t111.5 23v-82q-91 9 -136 -38t-47 -141v-234h-86z" />
<glyph unicode="&#x156;" horiz-adv-x="676" d="M110 0zM307 -292l-17 40q29 8 44.5 29.5t18.5 50.5h-5q-59 0 -59 55q0 26 15 39.5t41 13.5q29 0 45 -18.5t16 -62.5q0 -51 -24 -92t-75 -55zM388 624h-189v-282h188q69 0 108 35.5t39 109.5q0 66 -35.5 101.5t-110.5 35.5zM199 265v-265h-89v700h278q119 0 177 -54.5 t58 -155.5q0 -83 -36 -135t-102 -75l150 -280h-98l-142 265h-196z" />
<glyph unicode="&#x157;" horiz-adv-x="381" d="M78 0zM96 -292l-17 40q29 8 44.5 29.5t18.5 50.5h-5q-59 0 -59 55q0 26 15 39.5t41 13.5q29 0 45 -18.5t16 -62.5q0 -51 -24 -92t-75 -55zM93 0v487h74l9 -103q26 60 74.5 88t111.5 23v-82q-91 9 -136 -38t-47 -141v-234h-86z" />
<glyph unicode="&#x158;" horiz-adv-x="676" d="M110 0zM365 838l71 67h93v-2l-123 -115h-83l-122 115v2h96zM388 624h-189v-282h188q69 0 108 35.5t39 109.5q0 66 -35.5 101.5t-110.5 35.5zM199 265v-265h-89v700h278q119 0 177 -54.5t58 -155.5q0 -83 -36 -135t-102 -75l150 -280h-98l-142 265h-196z" />
<glyph unicode="&#x159;" horiz-adv-x="381" d="M62 0zM226 624l71 67h93v-2l-123 -115h-83l-122 115v2h96zM93 0v487h74l9 -103q26 60 74.5 88t111.5 23v-82q-91 9 -136 -38t-47 -141v-234h-86z" />
<glyph unicode="&#x15a;" horiz-adv-x="629" d="M38 0zM456 899l-114 -111h-73v4l76 113h111v-6zM552 588l-70 -44q-28 51 -68.5 75t-106.5 24q-44 0 -74 -9t-49 -25.5t-27 -38.5t-8 -48q0 -20 6 -38t21 -33t39.5 -26.5t61.5 -19.5l71 -15q116 -25 168.5 -72t52.5 -129q0 -98 -67.5 -149.5t-189.5 -51.5q-44 0 -83.5 7 t-74 23t-64 42t-52.5 64l70 44q39 -58 85 -84.5t117 -26.5q92 0 133 32.5t41 90.5q0 27 -7 46.5t-24 34t-46 25.5t-72 21l-71 16q-198 45 -198 195q0 43 15.5 79t46 61.5t75.5 39.5t104 14q98 0 154 -32.5t91 -91.5z" />
<glyph unicode="&#x15b;" horiz-adv-x="511" d="M40 0zM389 685l-114 -111h-73v4l76 113h111v-6zM249 53q61 0 87.5 20t26.5 52q0 35 -22 51t-72 26l-53 11q-84 17 -118.5 54.5t-34.5 87.5q0 31 11 57t34 45.5t58 30.5t83 11q65 0 105.5 -20t71.5 -58l-55 -53q-26 32 -53.5 48t-74.5 16q-50 0 -75 -17.5t-25 -48.5 q0 -14 4 -25.5t14 -21.5t27.5 -18t43.5 -14l55 -12q46 -10 76 -24t48 -31.5t25.5 -39.5t7.5 -49q0 -26 -10 -52t-32.5 -46t-60.5 -32.5t-93 -12.5q-72 0 -123.5 22t-84.5 77l61 44q26 -44 61 -61t87 -17z" />
<glyph unicode="&#x15c;" horiz-adv-x="629" d="M38 0zM310 857l-70 -69h-93v3l122 114h83l123 -114v-3h-98zM552 588l-70 -44q-28 51 -68.5 75t-106.5 24q-44 0 -74 -9t-49 -25.5t-27 -38.5t-8 -48q0 -20 6 -38t21 -33t39.5 -26.5t61.5 -19.5l71 -15q116 -25 168.5 -72t52.5 -129q0 -98 -67.5 -149.5t-189.5 -51.5 q-44 0 -83.5 7t-74 23t-64 42t-52.5 64l70 44q39 -58 85 -84.5t117 -26.5q92 0 133 32.5t41 90.5q0 27 -7 46.5t-24 34t-46 25.5t-72 21l-71 16q-198 45 -198 195q0 43 15.5 79t46 61.5t75.5 39.5t104 14q98 0 154 -32.5t91 -91.5z" />
<glyph unicode="&#x15d;" horiz-adv-x="511" d="M40 0zM243 643l-70 -69h-93v3l122 114h83l123 -114v-3h-98zM249 53q61 0 87.5 20t26.5 52q0 35 -22 51t-72 26l-53 11q-84 17 -118.5 54.5t-34.5 87.5q0 31 11 57t34 45.5t58 30.5t83 11q65 0 105.5 -20t71.5 -58l-55 -53q-26 32 -53.5 48t-74.5 16q-50 0 -75 -17.5 t-25 -48.5q0 -14 4 -25.5t14 -21.5t27.5 -18t43.5 -14l55 -12q46 -10 76 -24t48 -31.5t25.5 -39.5t7.5 -49q0 -26 -10 -52t-32.5 -46t-60.5 -32.5t-93 -12.5q-72 0 -123.5 22t-84.5 77l61 44q26 -44 61 -61t87 -17z" />
<glyph unicode="&#x15e;" horiz-adv-x="629" d="M302 -237q-38 0 -68.5 14t-49.5 45l42 40q14 -23 30 -34.5t43 -11.5q23 0 38.5 9.5t15.5 29.5t-14.5 31t-39.5 11q-6 0 -11.5 -0.5t-11.5 -1.5l-16 15l20 79q-77 5 -138.5 35t-103.5 100l70 44q39 -58 85 -84.5t117 -26.5q92 0 133 32.5t41 90.5q0 27 -7 46.5t-24 34 t-46 25.5t-72 21l-71 16q-198 45 -198 195q0 43 15.5 79t46 61.5t75.5 39.5t104 14q98 0 154 -32.5t91 -91.5l-70 -44q-28 51 -68.5 75t-106.5 24q-44 0 -74 -9t-49 -25.5t-27 -38.5t-8 -48q0 -20 6 -38t21 -33t39.5 -26.5t61.5 -19.5l71 -15q116 -25 168.5 -72t52.5 -129 q0 -92 -59.5 -143t-168.5 -57l-14 -50h3q35 0 61 -21t26 -63q0 -23 -9.5 -40.5t-25 -29t-36.5 -17t-44 -5.5z" />
<glyph unicode="&#x15f;" horiz-adv-x="511" d="M238 -237q-38 0 -68.5 14t-49.5 45l42 40q14 -23 30 -34.5t43 -11.5q23 0 38.5 9.5t15.5 29.5t-14.5 31t-39.5 11q-6 0 -11.5 -0.5t-11.5 -1.5l-16 15l20 79q-60 5 -103.5 27t-72.5 71l61 44q26 -44 61 -61t87 -17q61 0 87.5 20t26.5 52q0 35 -22 51t-72 26l-53 11 q-84 17 -118.5 54.5t-34.5 87.5q0 31 11 57t34 45.5t58 30.5t83 11q65 0 105.5 -20t71.5 -58l-55 -53q-26 32 -53.5 48t-74.5 16q-50 0 -75 -17.5t-25 -48.5q0 -14 4 -25.5t14 -21.5t27.5 -18t43.5 -14l55 -12q46 -10 76 -24t48 -31.5t25.5 -39.5t7.5 -49q0 -24 -8.5 -48 t-28 -44t-51.5 -33.5t-79 -16.5l-14 -50h3q35 0 61 -21t26 -63q0 -23 -9.5 -40.5t-25 -29t-36.5 -17t-44 -5.5z" />
<glyph unicode="&#x160;" horiz-adv-x="629" d="M38 0zM310 838l71 67h93v-2l-123 -115h-83l-122 115v2h96zM552 588l-70 -44q-28 51 -68.5 75t-106.5 24q-44 0 -74 -9t-49 -25.5t-27 -38.5t-8 -48q0 -20 6 -38t21 -33t39.5 -26.5t61.5 -19.5l71 -15q116 -25 168.5 -72t52.5 -129q0 -98 -67.5 -149.5t-189.5 -51.5 q-44 0 -83.5 7t-74 23t-64 42t-52.5 64l70 44q39 -58 85 -84.5t117 -26.5q92 0 133 32.5t41 90.5q0 27 -7 46.5t-24 34t-46 25.5t-72 21l-71 16q-198 45 -198 195q0 43 15.5 79t46 61.5t75.5 39.5t104 14q98 0 154 -32.5t91 -91.5z" />
<glyph unicode="&#x161;" horiz-adv-x="511" d="M40 0zM243 624l71 67h93v-2l-123 -115h-83l-122 115v2h96zM249 53q61 0 87.5 20t26.5 52q0 35 -22 51t-72 26l-53 11q-84 17 -118.5 54.5t-34.5 87.5q0 31 11 57t34 45.5t58 30.5t83 11q65 0 105.5 -20t71.5 -58l-55 -53q-26 32 -53.5 48t-74.5 16q-50 0 -75 -17.5 t-25 -48.5q0 -14 4 -25.5t14 -21.5t27.5 -18t43.5 -14l55 -12q46 -10 76 -24t48 -31.5t25.5 -39.5t7.5 -49q0 -26 -10 -52t-32.5 -46t-60.5 -32.5t-93 -12.5q-72 0 -123.5 22t-84.5 77l61 44q26 -44 61 -61t87 -17z" />
<glyph unicode="&#x162;" horiz-adv-x="571" d="M12 0zM246 -292l-17 40q29 8 44.5 29.5t18.5 50.5h-5q-59 0 -59 55q0 26 15 39.5t41 13.5q29 0 45 -18.5t16 -62.5q0 -51 -24 -92t-75 -55zM12 700h547v-76h-229v-624h-89v624h-229v76z" />
<glyph unicode="&#x163;" horiz-adv-x="352" d="M17 0zM213 -292l-17 40q29 8 44.5 29.5t18.5 50.5h-5q-59 0 -59 55q0 26 15 39.5t41 13.5q29 0 45 -18.5t16 -62.5q0 -51 -24 -92t-75 -55zM17 487h86v143h84v-143h141v-67h-141v-255q0 -32 6 -52.5t17 -31.5t26 -15t33 -4q19 0 32 2.5t27 7.5l14 -70q-26 -9 -44 -11.5 t-39 -2.5q-72 0 -114 41t-42 133v258h-86v67z" />
<glyph unicode="&#x164;" horiz-adv-x="571" d="M12 0zM285 838l71 67h93v-2l-123 -115h-83l-122 115v2h96zM12 700h547v-76h-229v-624h-89v624h-229v76z" />
<glyph unicode="&#x165;" horiz-adv-x="360" d="M317 555h-59l7 195h84zM17 487h86v143h84v-143h141v-67h-141v-255q0 -32 6 -52.5t17 -31.5t26 -15t33 -4q19 0 32 2.5t27 7.5l14 -70q-26 -9 -44 -11.5t-39 -2.5q-72 0 -114 41t-42 133v258h-86v67z" />
<glyph unicode="&#x166;" horiz-adv-x="571" d="M13 700h546v-76h-228v-243h180v-60h-180v-321h-90v321h-180v60h180v243h-228v76z" />
<glyph unicode="&#x167;" horiz-adv-x="352" d="M328 487v-67h-141v-92h141v-58h-141v-105q0 -32 6 -52.5t17 -31.5t26 -15t33 -4q19 0 32 2.5t27 7.5l14 -70q-26 -9 -44 -11.5t-39 -2.5q-72 0 -114 41t-42 133v108h-86v58h86v92h-86v67h86v143h84v-143h141z" />
<glyph unicode="&#x168;" horiz-adv-x="752" d="M92 0zM571 271v429h89v-425q0 -142 -75.5 -214.5t-208.5 -72.5q-135 0 -209.5 72t-74.5 215v425h89v-429q0 -56 14 -96t39.5 -65.5t61.5 -37.5t80 -12t80 12t61.5 37.5t39.5 65.5t14 96zM468 898h65q2 -29 -5.5 -48.5t-20.5 -31t-29.5 -16.5t-32.5 -5q-21 0 -39 6.5 t-34 14t-30.5 14t-27.5 6.5q-18 0 -23.5 -11.5t-5.5 -25.5h-66q-2 29 5.5 48.5t20 31t28.5 16.5t33 5q22 0 40.5 -6.5t34.5 -14t30 -14t28 -6.5q18 0 23.5 11t5.5 26z" />
<glyph unicode="&#x169;" horiz-adv-x="626" d="M86 0zM459 0l-7 86q-29 -53 -76.5 -75.5t-101.5 -22.5q-97 0 -142.5 53t-45.5 150v296h86v-284q0 -145 122 -145q71 0 111 46t42 134v249h86v-487h-74zM400 684h65q2 -29 -5.5 -48.5t-20.5 -31t-29.5 -16.5t-32.5 -5q-21 0 -39 6.5t-34 14t-30.5 14t-27.5 6.5 q-18 0 -23.5 -11.5t-5.5 -25.5h-66q-2 29 5.5 48.5t20 31t28.5 16.5t33 5q22 0 40.5 -6.5t34.5 -14t30 -14t28 -6.5q18 0 23.5 11t5.5 26z" />
<glyph unicode="&#x16a;" horiz-adv-x="752" d="M92 0zM571 271v429h89v-425q0 -142 -75.5 -214.5t-208.5 -72.5q-135 0 -209.5 72t-74.5 215v425h89v-429q0 -56 14 -96t39.5 -65.5t61.5 -37.5t80 -12t80 12t61.5 37.5t39.5 65.5t14 96zM505 874v-59h-254v59h254z" />
<glyph unicode="&#x16b;" horiz-adv-x="626" d="M86 0zM459 0l-7 86q-29 -53 -76.5 -75.5t-101.5 -22.5q-97 0 -142.5 53t-45.5 150v296h86v-284q0 -145 122 -145q71 0 111 46t42 134v249h86v-487h-74zM436 660v-59h-254v59h254z" />
<glyph unicode="&#x16c;" horiz-adv-x="752" d="M92 0zM571 271v429h89v-425q0 -142 -75.5 -214.5t-208.5 -72.5q-135 0 -209.5 72t-74.5 215v425h89v-429q0 -56 14 -96t39.5 -65.5t61.5 -37.5t80 -12t80 12t61.5 37.5t39.5 65.5t14 96zM453 905h66q0 -35 -10 -59t-28 -38t-44.5 -20t-59.5 -6t-59.5 6t-45 20t-28.5 38 t-10 59h66q0 -39 19 -53.5t57 -14.5t57.5 14.5t19.5 53.5z" />
<glyph unicode="&#x16d;" horiz-adv-x="626" d="M86 0zM459 0l-7 86q-29 -53 -76.5 -75.5t-101.5 -22.5q-97 0 -142.5 53t-45.5 150v296h86v-284q0 -145 122 -145q71 0 111 46t42 134v249h86v-487h-74zM385 691h66q0 -35 -10 -59t-28 -38t-44.5 -20t-59.5 -6t-59.5 6t-45 20t-28.5 38t-10 59h66q0 -39 19 -53.5t57 -14.5 t57.5 14.5t19.5 53.5z" />
<glyph unicode="&#x16e;" horiz-adv-x="752" d="M92 0zM281 855q0 44 27.5 69t69.5 25t69 -25t27 -69t-27.5 -69t-69.5 -25t-69 25t-27 69zM329 855q0 -23 13.5 -38t34.5 -15t35 15t14 38t-14 37.5t-34 14.5q-22 0 -35.5 -14.5t-13.5 -37.5zM571 271v429h89v-425q0 -142 -75.5 -214.5t-208.5 -72.5q-135 0 -209.5 72 t-74.5 215v425h89v-429q0 -56 14 -96t39.5 -65.5t61.5 -37.5t80 -12t80 12t61.5 37.5t39.5 65.5t14 96z" />
<glyph unicode="&#x16f;" horiz-adv-x="626" d="M86 0zM213 641q0 44 27.5 69t69.5 25t69 -25t27 -69t-27.5 -69t-69.5 -25t-69 25t-27 69zM261 641q0 -23 13.5 -38t34.5 -15t35 15t14 38t-14 37.5t-34 14.5q-22 0 -35.5 -14.5t-13.5 -37.5zM459 0l-7 86q-29 -53 -76.5 -75.5t-101.5 -22.5q-97 0 -142.5 53t-45.5 150 v296h86v-284q0 -145 122 -145q71 0 111 46t42 134v249h86v-487h-74z" />
<glyph unicode="&#x170;" horiz-adv-x="752" d="M92 0zM571 271v429h89v-425q0 -142 -75.5 -214.5t-208.5 -72.5q-135 0 -209.5 72t-74.5 215v425h89v-429q0 -56 14 -96t39.5 -65.5t61.5 -37.5t80 -12t80 12t61.5 37.5t39.5 65.5t14 96zM586 899l-120 -111h-70v4l77 113h113v-6zM429 899l-92 -111h-70v4l62 113h100v-6z " />
<glyph unicode="&#x171;" horiz-adv-x="626" d="M86 0zM459 0l-7 86q-29 -53 -76.5 -75.5t-101.5 -22.5q-97 0 -142.5 53t-45.5 150v296h86v-284q0 -145 122 -145q71 0 111 46t42 134v249h86v-487h-74zM510 685l-120 -111h-70v4l77 113h113v-6zM353 685l-92 -111h-70v4l62 113h100v-6z" />
<glyph unicode="&#x172;" horiz-adv-x="753" d="M337 -99q0 27 9 49t24 39h-4q-129 4 -201 75.5t-72 210.5v425h89v-429q0 -56 14 -96t39.5 -65.5t61.5 -37t80 -11.5t80 11.5t61.5 37t39.5 65.5t14 96v429h89v-425q0 -116 -51 -183.5t-142 -93.5q-32 -10 -49.5 -35.5t-17.5 -51.5q0 -35 15.5 -48.5t42.5 -13.5 q36 0 66 18l13 -56q-19 -11 -39.5 -17t-46.5 -6q-22 0 -43 5.5t-37 18.5t-25.5 34.5t-9.5 54.5z" />
<glyph unicode="&#x173;" horiz-adv-x="626" d="M487 -212q-22 0 -42.5 5t-36.5 16.5t-26 31t-10 48.5q0 49 25 81.5t60 49.5l-6 66q-28 -53 -76 -75.5t-101 -22.5q-97 0 -142.5 53t-45.5 150v296h86v-284q0 -145 122 -145q71 0 111 46t42 134v249h86v-487q-23 -2 -41 -11.5t-30 -23.5t-18.5 -31.5t-6.5 -34.5 q0 -28 15 -39t43 -11q35 0 65 18l14 -56q-38 -23 -87 -23z" />
<glyph unicode="&#x174;" horiz-adv-x="911" d="M7 0zM457 857l-70 -69h-93v3l122 114h83l123 -114v-3h-98zM413 698h87l158 -569l160 571h86l-205 -700h-85l-159 572l-158 -572h-86l-204 700h91l157 -575z" />
<glyph unicode="&#x175;" horiz-adv-x="732" d="M7 0zM368 643l-70 -69h-93v3l122 114h83l123 -114v-3h-98zM324 484h89l115 -387l115 390h82l-155 -487h-91l-113 387l-111 -387h-91l-157 487h86l117 -389z" />
<glyph unicode="&#x176;" horiz-adv-x="610" d="M10 0zM261 280l-251 420h96l201 -346l200 346h93l-250 -420v-280h-89v280zM307 857l-70 -69h-93v3l122 114h83l123 -114v-3h-98z" />
<glyph unicode="&#x177;" horiz-adv-x="502" d="M5 0zM186 -65l20 56l-201 496h91l155 -406l155 406h89l-235 -580q-29 -71 -73.5 -97t-101.5 -26q-20 0 -37.5 2.5t-40.5 10.5l14 72q17 -5 31 -8t34 -3q12 0 25 2t26.5 10t26 23.5t22.5 41.5zM251 643l-70 -69h-93v3l122 114h83l123 -114v-3h-98z" />
<glyph unicode="&#x178;" horiz-adv-x="610" d="M10 0zM261 280l-251 420h96l201 -346l200 346h93l-250 -420v-280h-89v280zM332 851q0 28 16 42t44 14t43.5 -14t15.5 -42t-15.5 -42.5t-43.5 -14.5t-44 14.5t-16 42.5zM159 851q0 28 16 42t44 14t43.5 -14t15.5 -42t-15.5 -42.5t-43.5 -14.5t-44 14.5t-16 42.5z" />
<glyph unicode="&#x179;" horiz-adv-x="570" d="M20 0zM433 899l-114 -111h-73v4l76 113h111v-6zM20 0v67l423 558l-398 -1v76h504v-67l-426 -558l429 1v-76h-532z" />
<glyph unicode="&#x17a;" horiz-adv-x="489" d="M40 0zM390 685l-114 -111h-73v4l76 113h111v-6zM40 0v64l297 354h-292v69h394v-65l-299 -353h307v-69h-407z" />
<glyph unicode="&#x17b;" horiz-adv-x="570" d="M20 0zM20 0v67l423 558l-398 -1v76h504v-67l-426 -558l429 1v-76h-532zM228 851q0 28 16 42t44 14t43.5 -14t15.5 -42t-15.5 -42.5t-43.5 -14.5t-44 14.5t-16 42.5z" />
<glyph unicode="&#x17c;" horiz-adv-x="489" d="M40 0zM40 0v64l297 354h-292v69h394v-65l-299 -353h307v-69h-407zM185 637q0 28 16 42t44 14t43.5 -14t15.5 -42t-15.5 -42.5t-43.5 -14.5t-44 14.5t-16 42.5z" />
<glyph unicode="&#x17d;" horiz-adv-x="570" d="M20 0zM286 838l71 67h93v-2l-123 -115h-83l-122 115v2h96zM20 0v67l423 558l-398 -1v76h504v-67l-426 -558l429 1v-76h-532z" />
<glyph unicode="&#x17e;" horiz-adv-x="489" d="M40 0zM244 624l71 67h93v-2l-123 -115h-83l-122 115v2h96zM40 0v64l297 354h-292v69h394v-65l-299 -353h307v-69h-407z" />
<glyph unicode="&#x192;" horiz-adv-x="380" d="M65 -38l54 344h-87l10 66h87l13 76q14 92 60 132t118 40q20 0 42 -3.5t38 -10.5l-25 -72q-13 5 -25.5 8t-30.5 3q-35 0 -59 -21t-34 -81l-12 -71h138l-10 -66h-138l-54 -350q-14 -89 -58.5 -130.5t-116.5 -41.5q-20 0 -40 3t-37 10l25 72q13 -5 24.5 -8t29.5 -3 q33 0 55.5 21.5t32.5 82.5z" />
<glyph unicode="&#x218;" horiz-adv-x="629" d="M38 0zM265 -292l-17 40q29 8 44.5 29.5t18.5 50.5h-5q-59 0 -59 55q0 26 15 39.5t41 13.5q29 0 45 -18.5t16 -62.5q0 -51 -24 -92t-75 -55zM552 588l-70 -44q-28 51 -68.5 75t-106.5 24q-44 0 -74 -9t-49 -25.5t-27 -38.5t-8 -48q0 -20 6 -38t21 -33t39.5 -26.5 t61.5 -19.5l71 -15q116 -25 168.5 -72t52.5 -129q0 -98 -67.5 -149.5t-189.5 -51.5q-44 0 -83.5 7t-74 23t-64 42t-52.5 64l70 44q39 -58 85 -84.5t117 -26.5q92 0 133 32.5t41 90.5q0 27 -7 46.5t-24 34t-46 25.5t-72 21l-71 16q-198 45 -198 195q0 43 15.5 79t46 61.5 t75.5 39.5t104 14q98 0 154 -32.5t91 -91.5z" />
<glyph unicode="&#x219;" horiz-adv-x="511" d="M40 0zM209 -292l-17 40q29 8 44.5 29.5t18.5 50.5h-5q-59 0 -59 55q0 26 15 39.5t41 13.5q29 0 45 -18.5t16 -62.5q0 -51 -24 -92t-75 -55zM249 53q61 0 87.5 20t26.5 52q0 35 -22 51t-72 26l-53 11q-84 17 -118.5 54.5t-34.5 87.5q0 31 11 57t34 45.5t58 30.5t83 11 q65 0 105.5 -20t71.5 -58l-55 -53q-26 32 -53.5 48t-74.5 16q-50 0 -75 -17.5t-25 -48.5q0 -14 4 -25.5t14 -21.5t27.5 -18t43.5 -14l55 -12q46 -10 76 -24t48 -31.5t25.5 -39.5t7.5 -49q0 -26 -10 -52t-32.5 -46t-60.5 -32.5t-93 -12.5q-72 0 -123.5 22t-84.5 77l61 44 q26 -44 61 -61t87 -17z" />
<glyph unicode="&#x237;" horiz-adv-x="276" d="M95 -33v520h86v-531q0 -90 -40.5 -131t-112.5 -41q-20 0 -37 2.5t-40 10.5l14 72q14 -5 26.5 -8t31.5 -3q17 0 30.5 5t22.5 17.5t14 33.5t5 53z" />
<glyph unicode="&#x2c6;" horiz-adv-x="600" d="M298 643l-70 -69h-93v3l122 114h83l123 -114v-3h-98z" />
<glyph unicode="&#x2c7;" horiz-adv-x="600" d="M299 624l71 67h93v-2l-123 -115h-83l-122 115v2h96z" />
<glyph unicode="&#x2d8;" horiz-adv-x="600" d="M376 691h66q0 -35 -10 -59t-28 -38t-44.5 -20t-59.5 -6t-59.5 6t-45 20t-28.5 38t-10 59h66q0 -39 19 -53.5t57 -14.5t57.5 14.5t19.5 53.5z" />
<glyph unicode="&#x2d9;" horiz-adv-x="600" d="M242 637q0 28 16 42t44 14t43.5 -14t15.5 -42t-15.5 -42.5t-43.5 -14.5t-44 14.5t-16 42.5z" />
<glyph unicode="&#x2da;" horiz-adv-x="600" d="M206 641q0 44 27.5 69t69.5 25t69 -25t27 -69t-27.5 -69t-69.5 -25t-69 25t-27 69zM254 641q0 -23 13.5 -38t34.5 -15t35 15t14 38t-14 37.5t-34 14.5q-22 0 -35.5 -14.5t-13.5 -37.5z" />
<glyph unicode="&#x2db;" horiz-adv-x="600" d="M308 -212q-22 0 -43 5t-37 16.5t-26 31t-10 48.5q0 36 15 64t38 46.5t50.5 28t53.5 9.5l4 -37q-23 -2 -41 -11.5t-30 -23.5t-18.5 -31.5t-6.5 -34.5q0 -28 15 -39t43 -11q36 0 66 18l13 -56q-38 -23 -86 -23z" />
<glyph unicode="&#x2dc;" horiz-adv-x="600" d="M398 684h65q2 -29 -5.5 -48.5t-20.5 -31t-29.5 -16.5t-32.5 -5q-21 0 -39 6.5t-34 14t-30.5 14t-27.5 6.5q-18 0 -23.5 -11.5t-5.5 -25.5h-66q-2 29 5.5 48.5t20 31t28.5 16.5t33 5q22 0 40.5 -6.5t34.5 -14t30 -14t28 -6.5q18 0 23.5 11t5.5 26z" />
<glyph unicode="&#x2dd;" horiz-adv-x="600" d="M507 685l-120 -111h-70v4l77 113h113v-6zM350 685l-92 -111h-70v4l62 113h100v-6z" />
<glyph unicode="&#x1e80;" horiz-adv-x="911" d="M7 0zM413 698h87l158 -569l160 571h86l-205 -700h-85l-159 572l-158 -572h-86l-204 700h91l157 -575zM426 789l-115 111v6h111l77 -113v-4h-73z" />
<glyph unicode="&#x1e81;" horiz-adv-x="732" d="M7 0zM324 484h89l115 -387l115 390h82l-155 -487h-91l-113 387l-111 -387h-91l-157 487h86l117 -389zM337 576l-115 111v6h111l77 -113v-4h-73z" />
<glyph unicode="&#x1e82;" horiz-adv-x="911" d="M7 0zM413 698h87l158 -569l160 571h86l-205 -700h-85l-159 572l-158 -572h-86l-204 700h91l157 -575zM602 898l-114 -111h-73v4l76 113h111v-6z" />
<glyph unicode="&#x1e83;" horiz-adv-x="732" d="M7 0zM324 484h89l115 -387l115 390h82l-155 -487h-91l-113 387l-111 -387h-91l-157 487h86l117 -389zM513 685l-114 -111h-73v4l76 113h111v-6z" />
<glyph unicode="&#x1e84;" horiz-adv-x="911" d="M7 0zM413 698h87l158 -569l160 571h86l-205 -700h-85l-159 572l-158 -572h-86l-204 700h91l157 -575zM482 850q0 28 16 42t44 14t43.5 -14t15.5 -42t-15.5 -42.5t-43.5 -14.5t-44 14.5t-16 42.5zM309 850q0 28 16 42t44 14t43.5 -14t15.5 -42t-15.5 -42.5t-43.5 -14.5 t-44 14.5t-16 42.5z" />
<glyph unicode="&#x1e85;" horiz-adv-x="732" d="M7 0zM324 484h89l115 -387l115 390h82l-155 -487h-91l-113 387l-111 -387h-91l-157 487h86l117 -389zM393 637q0 28 16 42t44 14t43.5 -14t15.5 -42t-15.5 -42.5t-43.5 -14.5t-44 14.5t-16 42.5zM220 637q0 28 16 42t44 14t43.5 -14t15.5 -42t-15.5 -42.5t-43.5 -14.5 t-44 14.5t-16 42.5z" />
<glyph unicode="&#x2000;" horiz-adv-x="474" />
<glyph unicode="&#x2001;" horiz-adv-x="949" />
<glyph unicode="&#x2002;" horiz-adv-x="500" />
<glyph unicode="&#x2003;" horiz-adv-x="1000" />
<glyph unicode="&#x2004;" horiz-adv-x="333" />
<glyph unicode="&#x2005;" horiz-adv-x="250" />
<glyph unicode="&#x2006;" horiz-adv-x="167" />
<glyph unicode="&#x2007;" />
<glyph unicode="&#x2008;" horiz-adv-x="230" />
<glyph unicode="&#x2009;" horiz-adv-x="200" />
<glyph unicode="&#x200a;" horiz-adv-x="100" />
<glyph unicode="&#x200b;" horiz-adv-x="0" />
<glyph unicode="&#x2010;" horiz-adv-x="431" d="M383 291v-72h-334v72h334z" />
<glyph unicode="&#x2011;" horiz-adv-x="431" d="M383 291v-72h-334v72h334z" />
<glyph unicode="&#x2012;" horiz-adv-x="588" d="M540 291v-72h-491v72h491z" />
<glyph unicode="&#x2013;" horiz-adv-x="588" d="M540 291v-72h-491v72h491z" />
<glyph unicode="&#x2014;" horiz-adv-x="788" d="M740 291v-72h-691v72h691z" />
<glyph unicode="&#x2015;" horiz-adv-x="1085" d="M1037 291v-72h-988v72h988z" />
<glyph unicode="&#x2018;" horiz-adv-x="228" d="M158 735l17 -39q-29 -10 -46 -33.5t-20 -55.5q24 3 44.5 -10t20.5 -45q0 -29 -15.5 -42.5t-41.5 -13.5q-29 0 -45 19t-16 64q0 27 6 52t19 46t32 36t45 22z" />
<glyph unicode="&#x2019;" horiz-adv-x="228" d="M56 484zM73 484l-17 39q29 10 46 33.5t20 55.5q-24 -3 -44.5 10t-20.5 45q0 29 15.5 42.5t41.5 13.5q29 0 45 -19t16 -64q0 -27 -6 -52t-19 -46t-32 -36t-45 -22z" />
<glyph unicode="&#x201a;" horiz-adv-x="226" d="M72 -126l-17 38q29 10 45.5 32.5t19.5 54.5q-24 -3 -44 9.5t-20 44.5q0 28 15 41.5t41 13.5q28 0 44 -18.5t16 -63.5q0 -53 -24.5 -95.5t-75.5 -56.5z" />
<glyph unicode="&#x201c;" horiz-adv-x="384" d="M158 735l17 -39q-29 -10 -46 -33.5t-20 -55.5q24 3 44.5 -10t20.5 -45q0 -29 -15.5 -42.5t-41.5 -13.5q-29 0 -45 19t-16 64q0 27 6 52t19 46t32 36t45 22zM314 735l17 -39q-29 -10 -46 -33.5t-20 -55.5q24 3 44.5 -10t20.5 -45q0 -29 -15.5 -42.5t-41.5 -13.5 q-29 0 -45 19t-16 64q0 27 6 52t19 46t32 36t45 22z" />
<glyph unicode="&#x201d;" horiz-adv-x="384" d="M53 483zM70 483l-17 39q29 10 46 33.5t20 55.5q-24 -3 -44.5 10t-20.5 45q0 29 15.5 42.5t41.5 13.5q29 0 45 -19t16 -64q0 -27 -6 -52t-19 -46t-32 -36t-45 -22zM228 483l-17 39q29 10 46 33.5t20 55.5q-24 -3 -44.5 10t-20.5 45q0 29 15.5 42.5t41.5 13.5q29 0 45 -19 t16 -64q0 -27 -6 -52t-19 -46t-32 -36t-45 -22z" />
<glyph unicode="&#x201e;" horiz-adv-x="382" d="M72 -127l-17 38q29 10 45.5 32.5t19.5 54.5q-24 -3 -44 9.5t-20 44.5q0 28 15 41.5t41 13.5q28 0 44 -18.5t16 -63.5q0 -53 -24.5 -95.5t-75.5 -56.5zM228 -127l-17 38q29 10 45.5 32.5t19.5 54.5q-24 -3 -44 9.5t-20 44.5q0 28 15 41.5t41 13.5q28 0 44 -18.5t16 -63.5 q0 -53 -24.5 -95.5t-75.5 -56.5z" />
<glyph unicode="&#x2020;" horiz-adv-x="308" d="M258 527h-68l-1 -231h-71v231h-69v63h68l-3 120h80l-3 -120h67v-63z" />
<glyph unicode="&#x2021;" horiz-adv-x="308" d="M49 476h70v60h-70v63h68l-3 111h80l-4 -111h68v-63h-69v-60h69v-63h-68l4 -117h-80l3 117h-68v63z" />
<glyph unicode="&#x2022;" horiz-adv-x="431" d="M60 327q0 69 41 111t115 42q73 0 114 -42t41 -111q0 -70 -41 -111.5t-114 -41.5q-74 0 -115 41.5t-41 111.5z" />
<glyph unicode="&#x2026;" horiz-adv-x="691" d="M517 52q0 29 16 43t43 14q28 0 43.5 -14t15.5 -43q0 -27 -15.5 -42t-43.5 -15q-27 0 -43 15t-16 42zM286 52q0 29 16 43t44 14t43.5 -14t15.5 -43q0 -27 -15.5 -42t-43.5 -15t-44 15t-16 42zM56 52q0 29 16 43t44 14q27 0 42.5 -14t15.5 -43q0 -27 -15.5 -42t-42.5 -15 q-28 0 -44 15t-16 42z" />
<glyph unicode="&#x202f;" horiz-adv-x="189" />
<glyph unicode="&#x2030;" horiz-adv-x="1469" d="M43 0zM655 204q0 112 41 163t131 51q89 0 129.5 -51t40.5 -163q0 -111 -41 -162.5t-129 -51.5q-90 0 -131 51t-41 163zM925 204q0 87 -25.5 120t-72.5 33q-24 0 -43 -7.5t-31.5 -25.5t-19 -47.5t-6.5 -73.5q0 -87 25.5 -119.5t73.5 -32.5q24 0 42.5 7.5t31 25t19 47 t6.5 73.5zM43 497q0 112 41 163t131 51q89 0 129.5 -51t40.5 -163q0 -111 -41 -162.5t-129 -51.5q-90 0 -131 51t-41 163zM313 497q0 87 -25.5 120t-72.5 33q-24 0 -43 -7.5t-31.5 -25.5t-19 -47.5t-6.5 -73.5q0 -87 25.5 -119.5t73.5 -32.5q24 0 42.5 7.5t31 25t19 47 t6.5 73.5zM1080 204q0 112 41 163t131 51q89 0 129.5 -51t40.5 -163q0 -111 -41 -162.5t-129 -51.5q-90 0 -131 51t-41 163zM1350 204q0 87 -25.5 120t-72.5 33q-24 0 -43 -7.5t-31.5 -25.5t-19 -47.5t-6.5 -73.5q0 -87 25.5 -119.5t73.5 -32.5q24 0 42.5 7.5t31 25t19 47 t6.5 73.5zM726 700l-338 -700h-81l339 700h80z" />
<glyph unicode="&#x2039;" horiz-adv-x="414" d="M246 0l-191 242v3l191 242h98l-192 -241l195 -246h-101z" />
<glyph unicode="&#x203a;" horiz-adv-x="414" d="M168 487l191 -242v-3l-191 -242h-98l192 241l-195 246h101z" />
<glyph unicode="&#x2044;" horiz-adv-x="506" d="M462 700l-338 -700h-81l339 700h80z" />
<glyph unicode="&#x205f;" horiz-adv-x="237" />
<glyph unicode="&#x2070;" horiz-adv-x="432" d="M43 284zM43 498q0 112 41 163t131 51q89 0 129.5 -51t40.5 -163q0 -111 -41 -162.5t-129 -51.5q-90 0 -131 51t-41 163zM313 498q0 87 -25.5 120t-72.5 33q-24 0 -43 -7.5t-31.5 -25.5t-19 -47.5t-6.5 -73.5q0 -87 25.5 -119.5t73.5 -32.5q24 0 42.5 7.5t31 25t19 47 t6.5 73.5z" />
<glyph unicode="&#x2074;" horiz-adv-x="395" d="M25 294zM25 391v51l130 260h72l-126 -247h150v167h67v-167h57v-64h-57v-97h-67v97h-226z" />
<glyph unicode="&#x2075;" horiz-adv-x="360" d="M25 284zM119 641l-11 -106q37 18 85 18q29 0 54.5 -7t44.5 -22.5t30 -40t11 -58.5q0 -64 -40 -102.5t-118 -38.5q-51 0 -89 16.5t-61 53.5q1 1 8.5 7.5t16.5 13t16 12.5t9 7q31 -50 98 -50q40 0 64 21t24 59t-22.5 56t-64.5 18q-26 0 -48.5 -7.5t-40.5 -20.5l-43 22 l20 209h251v-61z" />
<glyph unicode="&#x2076;" horiz-adv-x="408" d="M43 284zM216 284q-80 0 -126.5 50t-46.5 163q0 109 44.5 162t130.5 53q49 0 84.5 -17t54.5 -52l-49 -39q-26 48 -90 48q-23 0 -42.5 -7.5t-33 -25.5t-21 -48.5t-7.5 -75.5v-13q13 30 42 48.5t71 18.5q64 0 99.5 -33t35.5 -94t-36 -99.5t-110 -38.5zM128 418 q0 -34 22 -54.5t60 -20.5q36 0 59.5 19t23.5 57q0 35 -20 54.5t-62 19.5q-40 0 -61.5 -20.5t-21.5 -54.5z" />
<glyph unicode="&#x2077;" horiz-adv-x="313" d="M23 294zM171 294h-75q0 49 9 97.5t26 93t41.5 83.5t54.5 69l-204 -1v65h286v-59q-33 -23 -58.5 -59.5t-43 -82t-27 -98t-9.5 -108.5z" />
<glyph unicode="&#x2078;" horiz-adv-x="397" d="M42 284zM197 284q-75 0 -115 31.5t-40 89.5q0 42 20 66t53 35q-27 12 -42.5 35t-15.5 56q0 115 140 115q69 0 105 -28.5t36 -85.5q0 -34 -16 -57t-42 -35q32 -11 52 -35.5t20 -65.5q0 -58 -40 -89.5t-115 -31.5zM272 596q0 29 -19.5 43.5t-54.5 14.5q-76 0 -76 -58 q0 -29 19 -45.5t56 -16.5t56 16.5t19 45.5zM280 407q0 32 -22 49.5t-60 17.5q-40 0 -62.5 -17.5t-22.5 -49.5t22 -49.5t62 -17.5t61.5 17.5t21.5 49.5z" />
<glyph unicode="&#x2079;" horiz-adv-x="408" d="M40 284zM275 575q0 36 -22.5 56.5t-60.5 20.5q-36 0 -59 -19.5t-23 -57.5q0 -36 20 -56.5t62 -20.5q39 0 61 21t22 56zM185 284q-49 0 -84.5 16.5t-54.5 49.5l48 39q28 -45 90 -45q30 0 50.5 11.5t32.5 32t17 49t4 62.5v12q-12 -31 -41 -50t-71 -19q-64 0 -100 33.5 t-36 96.5t37 101.5t112 38.5q79 0 125 -50.5t46 -162.5q0 -111 -45 -163t-130 -52z" />
<glyph unicode="&#x207a;" horiz-adv-x="309" d="M34 356zM184 356h-58v92h-92v53h92v93h58v-93h92v-53h-92v-92z" />
<glyph unicode="&#x207b;" horiz-adv-x="309" d="M34 448zM276 501v-53h-242v53h242z" />
<glyph unicode="&#x207c;" horiz-adv-x="309" d="M34 403zM276 545v-55h-242v55h242zM276 458v-55h-242v55h242z" />
<glyph unicode="&#x207d;" horiz-adv-x="219" d="M28 229zM193 287l-6 -58q-82 8 -120.5 68t-38.5 177q0 115 38.5 175.5t120.5 67.5l6 -58q-26 -3 -45 -14t-32 -32.5t-19.5 -55.5t-6.5 -83q0 -50 6.5 -84t19.5 -55.5t32 -32.5t45 -15z" />
<glyph unicode="&#x207e;" horiz-adv-x="219" d="M23 229zM29 229l-6 58q25 4 44.5 15t32.5 32.5t19.5 55.5t6.5 84q0 49 -6.5 83t-19.5 55.5t-32.5 32.5t-44.5 14l7 58q81 -7 120 -67.5t39 -175.5q0 -117 -39 -177t-121 -68z" />
<glyph unicode="&#x2080;" horiz-adv-x="432" d="M43 204q0 112 41 163t131 51q89 0 129.5 -51t40.5 -163q0 -111 -41 -162.5t-129 -51.5q-90 0 -131 51t-41 163zM313 204q0 87 -25.5 120t-72.5 33q-24 0 -43 -7.5t-31.5 -25.5t-19 -47.5t-6.5 -73.5q0 -87 25.5 -119.5t73.5 -32.5q24 0 42.5 7.5t31 25t19 47t6.5 73.5z " />
<glyph unicode="&#x2081;" horiz-adv-x="225" d="M162 0h-72v320l-51 -32l-28 57l105 64h46v-409z" />
<glyph unicode="&#x2082;" horiz-adv-x="370" d="M33 0v61l133 119q42 38 61 63t19 53q0 32 -19 46t-53 14q-38 0 -59.5 -15t-38.5 -48l-50 37q24 48 61.5 68t93.5 20q63 0 100.5 -28.5t37.5 -86.5q0 -20 -6 -38.5t-18 -37.5t-31.5 -40t-46.5 -45l-85 -78l203 3v-67h-302z" />
<glyph unicode="&#x2083;" horiz-adv-x="372" d="M177 -10q-108 0 -152 74l51 39q32 -53 96 -53q42 0 64.5 16.5t22.5 51.5q0 29 -18 45.5t-56 16.5h-53v60h52q30 0 46.5 15t16.5 43q0 59 -74 59q-32 0 -53 -12t-38 -43l-49 35q22 43 57.5 62t89.5 19q65 0 102.5 -28.5t37.5 -85.5q0 -61 -56 -92q31 -11 48.5 -34 t17.5 -59q0 -57 -37.5 -93t-115.5 -36z" />
<glyph unicode="&#x2084;" horiz-adv-x="395" d="M25 97v51l130 260h72l-126 -247h150v167h67v-167h57v-64h-57v-97h-67v97h-226z" />
<glyph unicode="&#x2085;" horiz-adv-x="360" d="M119 347l-11 -106q37 18 85 18q29 0 54.5 -7t44.5 -22.5t30 -40t11 -58.5q0 -64 -40 -102.5t-118 -38.5q-51 0 -89 16.5t-61 53.5q1 1 8.5 7.5t16.5 13t16 12.5t9 7q31 -50 98 -50q40 0 64 21t24 59t-22.5 56t-64.5 18q-26 0 -48.5 -7.5t-40.5 -20.5l-43 22l20 209h251 v-61z" />
<glyph unicode="&#x2086;" horiz-adv-x="408" d="M216 -10q-80 0 -126.5 50t-46.5 163q0 109 44.5 162t130.5 53q49 0 84.5 -17t54.5 -52l-49 -39q-26 48 -90 48q-23 0 -42.5 -7.5t-33 -25.5t-21 -48.5t-7.5 -75.5v-13q13 30 42 48.5t71 18.5q64 0 99.5 -33t35.5 -94t-36 -99.5t-110 -38.5zM128 124q0 -34 22 -54.5 t60 -20.5q36 0 59.5 19t23.5 57q0 35 -20 54.5t-62 19.5q-40 0 -61.5 -20.5t-21.5 -54.5z" />
<glyph unicode="&#x2087;" horiz-adv-x="313" d="M171 0h-75q0 49 9 97.5t26 93t41.5 83.5t54.5 69l-204 -1v65h286v-59q-33 -23 -58.5 -59.5t-43 -82t-27 -98t-9.5 -108.5z" />
<glyph unicode="&#x2088;" horiz-adv-x="397" d="M197 -10q-75 0 -115 31.5t-40 89.5q0 42 20 66t53 35q-27 12 -42.5 35t-15.5 56q0 115 140 115q69 0 105 -28.5t36 -85.5q0 -34 -16 -57t-42 -35q32 -11 52 -35.5t20 -65.5q0 -58 -40 -89.5t-115 -31.5zM272 302q0 29 -19.5 43.5t-54.5 14.5q-76 0 -76 -58 q0 -29 19 -45.5t56 -16.5t56 16.5t19 45.5zM280 113q0 32 -22 49.5t-60 17.5q-40 0 -62.5 -17.5t-22.5 -49.5t22 -49.5t62 -17.5t61.5 17.5t21.5 49.5z" />
<glyph unicode="&#x2089;" horiz-adv-x="408" d="M275 281q0 36 -22.5 56.5t-60.5 20.5q-36 0 -59 -19.5t-23 -57.5q0 -36 20 -56.5t62 -20.5q39 0 61 21t22 56zM185 -10q-49 0 -84.5 16.5t-54.5 49.5l48 39q28 -45 90 -45q30 0 50.5 11.5t32.5 32t17 49t4 62.5v12q-12 -31 -41 -50t-71 -19q-64 0 -100 33.5t-36 96.5 t37 101.5t112 38.5q79 0 125 -50.5t46 -162.5q0 -111 -45 -163t-130 -52z" />
<glyph unicode="&#x208a;" horiz-adv-x="309" d="M184 62h-58v92h-92v53h92v93h58v-93h92v-53h-92v-92z" />
<glyph unicode="&#x208b;" horiz-adv-x="309" d="M276 207v-53h-242v53h242z" />
<glyph unicode="&#x208c;" horiz-adv-x="309" d="M276 251v-55h-242v55h242zM276 164v-55h-242v55h242z" />
<glyph unicode="&#x208d;" horiz-adv-x="216" d="M193 -7l-6 -58q-82 8 -120.5 68t-38.5 177q0 115 38.5 175.5t120.5 67.5l6 -58q-26 -3 -45 -14t-32 -32.5t-19.5 -55.5t-6.5 -83q0 -50 6.5 -84t19.5 -55.5t32 -32.5t45 -15z" />
<glyph unicode="&#x208e;" horiz-adv-x="216" d="M29 -65l-6 58q25 4 44.5 15t32.5 32.5t19.5 55.5t6.5 84q0 49 -6.5 83t-19.5 55.5t-32.5 32.5t-44.5 14l7 58q81 -7 120 -67.5t39 -175.5q0 -117 -39 -177t-121 -68z" />
<glyph unicode="&#x20ac;" horiz-adv-x="682" d="M390 -12q-127 0 -201 59t-94 194h-90v68h84q-1 5 -1 14v42h-83v68h87q15 149 89.5 214t208.5 65q91 0 151.5 -31.5t95.5 -106.5l-70 -48q-29 64 -71 89.5t-106 25.5q-44 0 -80 -10t-62.5 -34t-43.5 -64t-23 -100h315l-17 -68h-302v-42q0 -9 1 -14h287l-17 -68h-263 q9 -51 26.5 -85.5t43 -55.5t59.5 -30t76 -9q63 0 108.5 24t77.5 84l67 -44q-42 -74 -103.5 -105.5t-149.5 -31.5z" />
<glyph unicode="&#x2122;" horiz-adv-x="686" d="M24 700h250v-47h-98v-247h-54v247h-98v47zM312 406v294h60l104 -236l106 236h59v-294h-53v198l-89 -198h-46l-89 194l2 -194h-54z" />
<glyph unicode="&#x2153;" horiz-adv-x="829" d="M11 0zM634 -10q-108 0 -152 74l51 39q32 -53 96 -53q42 0 64.5 16.5t22.5 51.5q0 29 -18 45.5t-56 16.5h-53v60h52q30 0 46.5 15t16.5 43q0 59 -74 59q-32 0 -53 -12t-38 -43l-49 35q22 43 57.5 62t89.5 19q65 0 102.5 -28.5t37.5 -85.5q0 -61 -56 -92q31 -11 48.5 -34 t17.5 -59q0 -57 -37.5 -93t-115.5 -36zM162 293h-72v320l-51 -32l-28 57l105 64h46v-409zM556 700l-338 -700h-81l339 700h80z" />
<glyph unicode="&#x2154;" horiz-adv-x="954" d="M26 0zM759 -10q-108 0 -152 74l51 39q32 -53 96 -53q42 0 64.5 16.5t22.5 51.5q0 29 -18 45.5t-56 16.5h-53v60h52q30 0 46.5 15t16.5 43q0 59 -74 59q-32 0 -53 -12t-38 -43l-49 35q22 43 57.5 62t89.5 19q65 0 102.5 -28.5t37.5 -85.5q0 -61 -56 -92q31 -11 48.5 -34 t17.5 -59q0 -57 -37.5 -93t-115.5 -36zM33 293v61l133 119q42 38 61 63t19 53q0 32 -19 46t-53 14q-38 0 -59.5 -15t-38.5 -48l-50 37q24 48 61.5 68t93.5 20q63 0 100.5 -28.5t37.5 -86.5q0 -20 -6 -38.5t-18 -37.5t-31.5 -40t-46.5 -45l-85 -78l203 3v-67h-302zM681 700 l-338 -700h-81l339 700h80z" />
<glyph unicode="&#x2155;" horiz-adv-x="817" d="M11 0zM162 293h-72v320l-51 -32l-28 57l105 64h46v-409zM576 347l-11 -106q37 18 85 18q29 0 54.5 -7t44.5 -22.5t30 -40t11 -58.5q0 -64 -40 -102.5t-118 -38.5q-51 0 -89 16.5t-61 53.5q1 1 8.5 7.5t16.5 13t16 12.5t9 7q31 -50 98 -50q40 0 64 21t24 59t-22.5 56 t-64.5 18q-26 0 -48.5 -7.5t-40.5 -20.5l-43 22l20 209h251v-61zM556 700l-338 -700h-81l339 700h80z" />
<glyph unicode="&#x2156;" horiz-adv-x="942" d="M26 0zM33 293v61l133 119q42 38 61 63t19 53q0 32 -19 46t-53 14q-38 0 -59.5 -15t-38.5 -48l-50 37q24 48 61.5 68t93.5 20q63 0 100.5 -28.5t37.5 -86.5q0 -20 -6 -38.5t-18 -37.5t-31.5 -40t-46.5 -45l-85 -78l203 3v-67h-302zM701 347l-11 -106q37 18 85 18 q29 0 54.5 -7t44.5 -22.5t30 -40t11 -58.5q0 -64 -40 -102.5t-118 -38.5q-51 0 -89 16.5t-61 53.5q1 1 8.5 7.5t16.5 13t16 12.5t9 7q31 -50 98 -50q40 0 64 21t24 59t-22.5 56t-64.5 18q-26 0 -48.5 -7.5t-40.5 -20.5l-43 22l20 209h251v-61zM681 700l-338 -700h-81 l339 700h80z" />
<glyph unicode="&#x2157;" horiz-adv-x="942" d="M25 0zM177 283q-108 0 -152 74l51 39q32 -53 96 -53q42 0 64.5 16.5t22.5 51.5q0 29 -18 45.5t-56 16.5h-53v60h52q30 0 46.5 15t16.5 43q0 59 -74 59q-32 0 -53 -12t-38 -43l-49 35q22 43 57.5 62t89.5 19q65 0 102.5 -28.5t37.5 -85.5q0 -61 -56 -92q31 -11 48.5 -34 t17.5 -59q0 -57 -37.5 -93t-115.5 -36zM701 347l-11 -106q37 18 85 18q29 0 54.5 -7t44.5 -22.5t30 -40t11 -58.5q0 -64 -40 -102.5t-118 -38.5q-51 0 -89 16.5t-61 53.5q1 1 8.5 7.5t16.5 13t16 12.5t9 7q31 -50 98 -50q40 0 64 21t24 59t-22.5 56t-64.5 18 q-26 0 -48.5 -7.5t-40.5 -20.5l-43 22l20 209h251v-61zM681 700l-338 -700h-81l339 700h80z" />
<glyph unicode="&#x2158;" horiz-adv-x="967" d="M25 0zM726 347l-11 -106q37 18 85 18q29 0 54.5 -7t44.5 -22.5t30 -40t11 -58.5q0 -64 -40 -102.5t-118 -38.5q-51 0 -89 16.5t-61 53.5q1 1 8.5 7.5t16.5 13t16 12.5t9 7q31 -50 98 -50q40 0 64 21t24 59t-22.5 56t-64.5 18q-26 0 -48.5 -7.5t-40.5 -20.5l-43 22l20 209 h251v-61zM706 700l-338 -700h-81l339 700h80zM25 390v51l130 260h72l-126 -247h150v167h67v-167h57v-64h-57v-97h-67v97h-226z" />
<glyph unicode="&#x2159;" horiz-adv-x="865" d="M11 0zM162 293h-72v320l-51 -32l-28 57l105 64h46v-409zM673 -10q-80 0 -126.5 50t-46.5 163q0 109 44.5 162t130.5 53q49 0 84.5 -17t54.5 -52l-49 -39q-26 48 -90 48q-23 0 -42.5 -7.5t-33 -25.5t-21 -48.5t-7.5 -75.5v-13q13 30 42 48.5t71 18.5q64 0 99.5 -33 t35.5 -94t-36 -99.5t-110 -38.5zM585 124q0 -34 22 -54.5t60 -20.5q36 0 59.5 19t23.5 57q0 35 -20 54.5t-62 19.5q-40 0 -61.5 -20.5t-21.5 -54.5zM556 700l-338 -700h-81l339 700h80z" />
<glyph unicode="&#x215a;" horiz-adv-x="990" d="M25 0zM119 640l-11 -106q37 18 85 18q29 0 54.5 -7t44.5 -22.5t30 -40t11 -58.5q0 -64 -40 -102.5t-118 -38.5q-51 0 -89 16.5t-61 53.5q1 1 8.5 7.5t16.5 13t16 12.5t9 7q31 -50 98 -50q40 0 64 21t24 59t-22.5 56t-64.5 18q-26 0 -48.5 -7.5t-40.5 -20.5l-43 22l20 209 h251v-61zM798 -10q-80 0 -126.5 50t-46.5 163q0 109 44.5 162t130.5 53q49 0 84.5 -17t54.5 -52l-49 -39q-26 48 -90 48q-23 0 -42.5 -7.5t-33 -25.5t-21 -48.5t-7.5 -75.5v-13q13 30 42 48.5t71 18.5q64 0 99.5 -33t35.5 -94t-36 -99.5t-110 -38.5zM710 124q0 -34 22 -54.5 t60 -20.5q36 0 59.5 19t23.5 57q0 35 -20 54.5t-62 19.5q-40 0 -61.5 -20.5t-21.5 -54.5zM681 700l-338 -700h-81l339 700h80z" />
<glyph unicode="&#x215b;" horiz-adv-x="854" d="M11 0zM162 293h-72v320l-51 -32l-28 57l105 64h46v-409zM654 -10q-75 0 -115 31.5t-40 89.5q0 42 20 66t53 35q-27 12 -42.5 35t-15.5 56q0 115 140 115q69 0 105 -28.5t36 -85.5q0 -34 -16 -57t-42 -35q32 -11 52 -35.5t20 -65.5q0 -58 -40 -89.5t-115 -31.5zM729 302 q0 29 -19.5 43.5t-54.5 14.5q-76 0 -76 -58q0 -29 19 -45.5t56 -16.5t56 16.5t19 45.5zM737 113q0 32 -22 49.5t-60 17.5q-40 0 -62.5 -17.5t-22.5 -49.5t22 -49.5t62 -17.5t61.5 17.5t21.5 49.5zM556 700l-338 -700h-81l339 700h80z" />
<glyph unicode="&#x215c;" horiz-adv-x="979" d="M25 0zM177 283q-108 0 -152 74l51 39q32 -53 96 -53q42 0 64.5 16.5t22.5 51.5q0 29 -18 45.5t-56 16.5h-53v60h52q30 0 46.5 15t16.5 43q0 59 -74 59q-32 0 -53 -12t-38 -43l-49 35q22 43 57.5 62t89.5 19q65 0 102.5 -28.5t37.5 -85.5q0 -61 -56 -92q31 -11 48.5 -34 t17.5 -59q0 -57 -37.5 -93t-115.5 -36zM779 -10q-75 0 -115 31.5t-40 89.5q0 42 20 66t53 35q-27 12 -42.5 35t-15.5 56q0 115 140 115q69 0 105 -28.5t36 -85.5q0 -34 -16 -57t-42 -35q32 -11 52 -35.5t20 -65.5q0 -58 -40 -89.5t-115 -31.5zM854 302q0 29 -19.5 43.5 t-54.5 14.5q-76 0 -76 -58q0 -29 19 -45.5t56 -16.5t56 16.5t19 45.5zM862 113q0 32 -22 49.5t-60 17.5q-40 0 -62.5 -17.5t-22.5 -49.5t22 -49.5t62 -17.5t61.5 17.5t21.5 49.5zM681 700l-338 -700h-81l339 700h80z" />
<glyph unicode="&#x215d;" horiz-adv-x="979" d="M25 0zM779 -10q-75 0 -115 31.5t-40 89.5q0 42 20 66t53 35q-27 12 -42.5 35t-15.5 56q0 115 140 115q69 0 105 -28.5t36 -85.5q0 -34 -16 -57t-42 -35q32 -11 52 -35.5t20 -65.5q0 -58 -40 -89.5t-115 -31.5zM854 302q0 29 -19.5 43.5t-54.5 14.5q-76 0 -76 -58 q0 -29 19 -45.5t56 -16.5t56 16.5t19 45.5zM862 113q0 32 -22 49.5t-60 17.5q-40 0 -62.5 -17.5t-22.5 -49.5t22 -49.5t62 -17.5t61.5 17.5t21.5 49.5zM119 640l-11 -106q37 18 85 18q29 0 54.5 -7t44.5 -22.5t30 -40t11 -58.5q0 -64 -40 -102.5t-118 -38.5q-51 0 -89 16.5 t-61 53.5q1 1 8.5 7.5t16.5 13t16 12.5t9 7q31 -50 98 -50q40 0 64 21t24 59t-22.5 56t-64.5 18q-26 0 -48.5 -7.5t-40.5 -20.5l-43 22l20 209h251v-61zM681 700l-338 -700h-81l339 700h80z" />
<glyph unicode="&#x215e;" horiz-adv-x="909" d="M23 0zM709 -10q-75 0 -115 31.5t-40 89.5q0 42 20 66t53 35q-27 12 -42.5 35t-15.5 56q0 115 140 115q69 0 105 -28.5t36 -85.5q0 -34 -16 -57t-42 -35q32 -11 52 -35.5t20 -65.5q0 -58 -40 -89.5t-115 -31.5zM784 302q0 29 -19.5 43.5t-54.5 14.5q-76 0 -76 -58 q0 -29 19 -45.5t56 -16.5t56 16.5t19 45.5zM792 113q0 32 -22 49.5t-60 17.5q-40 0 -62.5 -17.5t-22.5 -49.5t22 -49.5t62 -17.5t61.5 17.5t21.5 49.5zM171 293h-75q0 49 9 97.5t26 93t41.5 83.5t54.5 69l-204 -1v65h286v-59q-33 -23 -58.5 -59.5t-43 -82t-27 -98 t-9.5 -108.5zM611 700l-338 -700h-81l339 700h80z" />
<glyph unicode="&#x215f;" horiz-adv-x="831" d="M11 0zM162 293h-72v320l-51 -32l-28 57l105 64h46v-409zM556 700l-338 -700h-81l339 700h80z" />
<glyph unicode="&#x2212;" horiz-adv-x="506" d="M456 345v-71h-406v71h406z" />
<glyph unicode="&#x2248;" horiz-adv-x="506" d="M347 398q10 0 23.5 1.5t28.5 4.5t29.5 8.5t27.5 14.5v-72q-22 -13 -55 -19.5t-62 -6.5q-27 0 -49 5.5t-42 11.5t-40.5 11.5t-45.5 5.5q-21 0 -53 -5.5t-59 -22.5v72q23 13 54.5 19t60.5 6q28 0 50.5 -5.5t43.5 -11.5t42 -11.5t46 -5.5zM347 248q10 0 23.5 1.5t28.5 4.5 t29.5 8.5t27.5 14.5v-72q-22 -13 -55 -19.5t-62 -6.5q-27 0 -49 5.5t-42 11.5t-40.5 11.5t-45.5 5.5q-21 0 -53 -5.5t-59 -22.5v72q23 13 54.5 19t60.5 6q28 0 50.5 -5.5t43.5 -11.5t42 -11.5t46 -5.5z" />
<glyph unicode="&#x2260;" horiz-adv-x="506" d="M50 346v71h243l62 85h76l-62 -85h87v-71h-138l-53 -73h191v-71h-243l-59 -83h-77l60 83h-87v71h138l54 73h-192z" />
<glyph unicode="&#x2264;" horiz-adv-x="510" d="M375 523l37 -56l-204 -134l205 -133l-38 -60l-273 172v39zM86 0v71h335v-71h-335z" />
<glyph unicode="&#x2265;" horiz-adv-x="510" d="M139 140l-36 57l204 134l-205 134l38 58l273 -171v-38zM421 71v-71h-335v71h335z" />
<glyph unicode="&#x25fc;" horiz-adv-x="485" d="M0 485h485v-485h-485v485z" />
<glyph unicode="&#xf6c3;" horiz-adv-x="600" d="M258 -292l-17 40q29 8 44.5 29.5t18.5 50.5h-5q-59 0 -59 55q0 26 15 39.5t41 13.5q29 0 45 -18.5t16 -62.5q0 -51 -24 -92t-75 -55z" />
<glyph horiz-adv-x="447" d="M260 -65v831h78v-831h-78zM110 -65v831h78v-831h-78z" />
<glyph horiz-adv-x="228" d="M158 484q-26 7 -45 22t-32 36t-19 46t-6 52q0 45 16 64t45 19q26 0 41.5 -13.5t15.5 -42.5q0 -32 -20.5 -45t-44.5 -10q3 -32 20 -55.5t46 -33.5z" />
<glyph horiz-adv-x="384" d="M156 483q-26 7 -45 22t-32 36t-19 46t-6 52q0 45 16 64t45 19q26 0 41.5 -13.5t15.5 -42.5q0 -32 -20.5 -45t-44.5 -10q3 -32 20 -55.5t46 -33.5zM314 483q-26 7 -45 22t-32 36t-19 46t-6 52q0 45 16 64t45 19q26 0 41.5 -13.5t15.5 -42.5q0 -32 -20.5 -45t-44.5 -10 q3 -32 20 -55.5t46 -33.5z" />
<glyph horiz-adv-x="611" d="M440 18l-5 67q-24 -49 -68 -73t-105 -24q-100 0 -152.5 65t-52.5 191t55 190.5t160 64.5q57 0 99 -23t65 -70l9 81h73v-487q-23 -2 -41 -11.5t-30 -23.5t-18.5 -31.5t-6.5 -34.5q0 -28 15 -39t43 -11q36 0 66 18l13 -56q-38 -23 -86 -23q-22 0 -43 5t-37 16.5t-26 31 t-10 48.5q0 48 24.5 80t58.5 49zM432 245q0 97 -41.5 141t-105.5 44q-73 0 -107.5 -45t-34.5 -142t35.5 -141.5t106.5 -44.5q32 0 59 10.5t46.5 33.5t30.5 58.5t11 85.5z" />
<glyph horiz-adv-x="611" d="M432 245q0 49 -11.5 84t-31 57.5t-46 33t-57.5 10.5q-73 0 -108 -45t-35 -142t35.5 -141.5t106.5 -44.5q31 0 58 10.5t46.5 33.5t31 58.5t11.5 85.5zM439 0l-5 87q-24 -50 -68 -74.5t-104 -24.5q-100 0 -152.5 65.5t-52.5 190.5t55.5 190t160.5 65q56 0 97.5 -23 t65.5 -71l9 82h73v-487h-79z" />
<glyph horiz-adv-x="611" d="M57 0zM432 245q0 49 -11.5 84t-31 57.5t-46 33t-57.5 10.5q-73 0 -108 -45t-35 -142t35.5 -141.5t106.5 -44.5q31 0 58 10.5t46.5 33.5t31 58.5t11.5 85.5zM439 0l-5 87q-24 -50 -68 -74.5t-104 -24.5q-100 0 -152.5 65.5t-52.5 190.5t55.5 190t160.5 65q56 0 97.5 -23 t65.5 -71l9 82h73v-487h-79zM255 576l-115 111v6h111l77 -113v-4h-73z" />
<glyph horiz-adv-x="611" d="M57 0zM432 245q0 49 -11.5 84t-31 57.5t-46 33t-57.5 10.5q-73 0 -108 -45t-35 -142t35.5 -141.5t106.5 -44.5q31 0 58 10.5t46.5 33.5t31 58.5t11.5 85.5zM439 0l-5 87q-24 -50 -68 -74.5t-104 -24.5q-100 0 -152.5 65.5t-52.5 190.5t55.5 190t160.5 65q56 0 97.5 -23 t65.5 -71l9 82h73v-487h-79zM430 685l-114 -111h-73v4l76 113h111v-6z" />
<glyph horiz-adv-x="611" d="M57 0zM285 643l-70 -69h-93v3l122 114h83l123 -114v-3h-98zM432 245q0 49 -11.5 84t-31 57.5t-46 33t-57.5 10.5q-73 0 -108 -45t-35 -142t35.5 -141.5t106.5 -44.5q31 0 58 10.5t46.5 33.5t31 58.5t11.5 85.5zM439 0l-5 87q-24 -50 -68 -74.5t-104 -24.5 q-100 0 -152.5 65.5t-52.5 190.5t55.5 190t160.5 65q56 0 97.5 -23t65.5 -71l9 82h73v-487h-79z" />
<glyph horiz-adv-x="611" d="M57 0zM310 637q0 28 16 42t44 14t43.5 -14t15.5 -42t-15.5 -42.5t-43.5 -14.5t-44 14.5t-16 42.5zM137 637q0 28 16 42t44 14t43.5 -14t15.5 -42t-15.5 -42.5t-43.5 -14.5t-44 14.5t-16 42.5zM432 245q0 49 -11.5 84t-31 57.5t-46 33t-57.5 10.5q-73 0 -108 -45t-35 -142 t35.5 -141.5t106.5 -44.5q31 0 58 10.5t46.5 33.5t31 58.5t11.5 85.5zM439 0l-5 87q-24 -50 -68 -74.5t-104 -24.5q-100 0 -152.5 65.5t-52.5 190.5t55.5 190t160.5 65q56 0 97.5 -23t65.5 -71l9 82h73v-487h-79z" />
<glyph horiz-adv-x="611" d="M57 0zM432 245q0 49 -11.5 84t-31 57.5t-46 33t-57.5 10.5q-73 0 -108 -45t-35 -142t35.5 -141.5t106.5 -44.5q31 0 58 10.5t46.5 33.5t31 58.5t11.5 85.5zM439 0l-5 87q-24 -50 -68 -74.5t-104 -24.5q-100 0 -152.5 65.5t-52.5 190.5t55.5 190t160.5 65q56 0 97.5 -23 t65.5 -71l9 82h73v-487h-79zM375 684h65q2 -29 -5.5 -48.5t-20.5 -31t-29.5 -16.5t-32.5 -5q-21 0 -39 6.5t-34 14t-30.5 14t-27.5 6.5q-18 0 -23.5 -11.5t-5.5 -25.5h-66q-2 29 5.5 48.5t20 31t28.5 16.5t33 5q22 0 40.5 -6.5t34.5 -14t30 -14t28 -6.5q18 0 23.5 11t5.5 26 z" />
<glyph horiz-adv-x="611" d="M57 0zM432 245q0 49 -11.5 84t-31 57.5t-46 33t-57.5 10.5q-73 0 -108 -45t-35 -142t35.5 -141.5t106.5 -44.5q31 0 58 10.5t46.5 33.5t31 58.5t11.5 85.5zM439 0l-5 87q-24 -50 -68 -74.5t-104 -24.5q-100 0 -152.5 65.5t-52.5 190.5t55.5 190t160.5 65q56 0 97.5 -23 t65.5 -71l9 82h73v-487h-79zM187 641q0 44 27.5 69t69.5 25t69 -25t27 -69t-27.5 -69t-69.5 -25t-69 25t-27 69zM235 641q0 -23 13.5 -38t34.5 -15t35 15t14 38t-14 37.5t-34 14.5q-22 0 -35.5 -14.5t-13.5 -37.5z" />
<glyph horiz-adv-x="611" d="M57 0zM432 245q0 49 -11.5 84t-31 57.5t-46 33t-57.5 10.5q-73 0 -108 -45t-35 -142t35.5 -141.5t106.5 -44.5q31 0 58 10.5t46.5 33.5t31 58.5t11.5 85.5zM439 0l-5 87q-24 -50 -68 -74.5t-104 -24.5q-100 0 -152.5 65.5t-52.5 190.5t55.5 190t160.5 65q56 0 97.5 -23 t65.5 -71l9 82h73v-487h-79zM412 660v-59h-254v59h254z" />
<glyph horiz-adv-x="611" d="M57 0zM432 245q0 49 -11.5 84t-31 57.5t-46 33t-57.5 10.5q-73 0 -108 -45t-35 -142t35.5 -141.5t106.5 -44.5q31 0 58 10.5t46.5 33.5t31 58.5t11.5 85.5zM439 0l-5 87q-24 -50 -68 -74.5t-104 -24.5q-100 0 -152.5 65.5t-52.5 190.5t55.5 190t160.5 65q56 0 97.5 -23 t65.5 -71l9 82h73v-487h-79zM359 691h66q0 -35 -10 -59t-28 -38t-44.5 -20t-59.5 -6t-59.5 6t-45 20t-28.5 38t-10 59h66q0 -39 19 -53.5t57 -14.5t57.5 14.5t19.5 53.5z" />
<glyph horiz-adv-x="613" d="M275 -216q-72 0 -125.5 25t-84.5 90l62 44q25 -50 61 -69.5t87 -19.5q35 0 64 8.5t50 26.5t33 46.5t12 69.5v81q-26 -47 -69.5 -67t-91.5 -20q-96 0 -141 53t-45 150v285h86v-273q0 -145 117 -145q66 0 103.5 46t39.5 134v238h86v-473q0 -61 -18 -104.5t-50.5 -71.5 t-77 -41t-98.5 -13z" />
<glyph horiz-adv-x="613" d="M65 0zM275 -216q-72 0 -125.5 25t-84.5 90l62 44q25 -50 61 -69.5t87 -19.5q35 0 64 8.5t50 26.5t33 46.5t12 69.5v81q-26 -47 -69.5 -67t-91.5 -20q-96 0 -141 53t-45 150v285h86v-273q0 -145 117 -145q66 0 103.5 46t39.5 134v238h86v-473q0 -61 -18 -104.5 t-50.5 -71.5t-77 -41t-98.5 -13zM417 685l-114 -111h-73v4l76 113h111v-6z" />
<glyph horiz-adv-x="613" d="M65 0zM308 643l-70 -69h-93v3l122 114h83l123 -114v-3h-98zM275 -216q-72 0 -125.5 25t-84.5 90l62 44q25 -50 61 -69.5t87 -19.5q35 0 64 8.5t50 26.5t33 46.5t12 69.5v81q-26 -47 -69.5 -67t-91.5 -20q-96 0 -141 53t-45 150v285h86v-273q0 -145 117 -145 q66 0 103.5 46t39.5 134v238h86v-473q0 -61 -18 -104.5t-50.5 -71.5t-77 -41t-98.5 -13z" />
<glyph horiz-adv-x="613" d="M65 0zM335 637q0 28 16 42t44 14t43.5 -14t15.5 -42t-15.5 -42.5t-43.5 -14.5t-44 14.5t-16 42.5zM162 637q0 28 16 42t44 14t43.5 -14t15.5 -42t-15.5 -42.5t-43.5 -14.5t-44 14.5t-16 42.5zM275 -216q-72 0 -125.5 25t-84.5 90l62 44q25 -50 61 -69.5t87 -19.5 q35 0 64 8.5t50 26.5t33 46.5t12 69.5v81q-26 -47 -69.5 -67t-91.5 -20q-96 0 -141 53t-45 150v285h86v-273q0 -145 117 -145q66 0 103.5 46t39.5 134v238h86v-473q0 -61 -18 -104.5t-50.5 -71.5t-77 -41t-98.5 -13z" />
<glyph horiz-adv-x="394" d="M209 348q-79 0 -122.5 43t-43.5 140q0 94 43.5 137.5t123.5 43.5q54 0 88 -20t54 -57l-48 -33q-14 27 -37 42t-57 15q-52 0 -76.5 -28.5t-24.5 -100.5q0 -70 25 -98.5t76 -28.5q36 0 58.5 13t37.5 45l51 -26q-20 -46 -57 -66.5t-91 -20.5z" />
<glyph horiz-adv-x="441" d="M305 531q0 67 -28 97t-70 30q-50 0 -74 -31t-24 -97t24.5 -96.5t72.5 -30.5q44 0 71.5 30t27.5 98zM311 359l-4 57q-33 -68 -120 -68q-70 0 -107.5 46t-37.5 136q0 91 39.5 136.5t113.5 45.5q39 0 68 -16.5t46 -49.5l7 55h56v-342h-61z" />
<glyph horiz-adv-x="600" d="M318 481h-59l7 220h84z" />
<glyph horiz-adv-x="231" d="M70 0l12 506h71l12 -506h-95zM176 648q0 -29 -15.5 -43t-43.5 -14q-27 0 -43 14t-16 43q0 27 16 42t43 15q28 0 43.5 -15t15.5 -42z" />
<glyph horiz-adv-x="503" d="M294 510v-155h-44q-161 0 -161 -150q0 -69 41.5 -104t118.5 -35q59 0 100.5 24.5t73.5 89.5l62 -45q-36 -76 -96 -109.5t-150 -33.5q-54 0 -98 14.5t-74.5 41t-47.5 65t-17 86.5q0 95 52.5 148.5t153.5 61.5v101h86zM311 652q0 -29 -16 -43t-44 -14q-27 0 -42.5 14 t-15.5 43q0 27 15.5 42t42.5 15q28 0 44 -15t16 -42z" />
<glyph horiz-adv-x="380" d="M332 291v-72h-283v72h283z" />
<glyph horiz-adv-x="693" d="M645 291v-72h-596v72h596z" />
<glyph horiz-adv-x="743" d="M376 -12q-146 0 -222.5 87.5t-76.5 275.5q0 98 19.5 166.5t59 112t98.5 63t137 19.5q94 0 156 -31t98 -97l-71 -49q-29 56 -73 80.5t-110 24.5q-54 0 -96 -12.5t-70.5 -45t-43.5 -88.5t-15 -143q0 -84 14.5 -139.5t42.5 -89.5t69 -48t94 -14q45 0 81 12t61.5 38t39 68.5 t11.5 104.5h-186v70h275v-63q-1 -159 -76 -230.5t-216 -71.5z" />
<glyph horiz-adv-x="638" d="M523 0l-305 341v3l300 356h103l-300 -346l317 -354h-115zM109 0v700h91v-700h-91z" />
<glyph horiz-adv-x="532" d="M94 0v700h86v-700h-86zM415 -1l-222 238v3l217 247h98l-219 -242l229 -245z" />
<glyph horiz-adv-x="818" d="M72 7zM683 106q-45 -48 -111 -73.5t-153 -25.5q-82 0 -146.5 24.5t-109 69.5t-68 108.5t-23.5 140.5t23.5 140t68 107.5t109 69t146.5 24.5q79 0 140 -22.5t102.5 -63.5t62.5 -98.5t21 -127.5q0 -88 -39 -139t-114 -51q-38 0 -64 15t-34 50q-16 -35 -47 -54t-77 -19 q-50 0 -82.5 25.5t-32.5 76.5q0 23 8.5 42.5t26.5 34t47 22.5t70 8h82q-2 52 -24 70.5t-67 18.5q-37 0 -59.5 -11.5t-36.5 -31.5l-32 35q19 29 51.5 43.5t82.5 14.5q32 0 58.5 -7.5t45.5 -24t29.5 -43t10.5 -65.5v-94q0 -33 13 -49.5t45 -16.5q42 0 69 37t27 111 q0 69 -20.5 120.5t-58 86t-89.5 51.5t-115 17q-68 0 -123.5 -19t-95.5 -57t-62 -94.5t-22 -131.5t22 -132t62 -95t96 -57t124 -19q75 0 135 21.5t102 66.5zM383 229q46 0 75 30.5t30 84.5v1h-83q-46 0 -68.5 -14t-22.5 -46q0 -56 69 -56z" />
<glyph horiz-adv-x="727" d="M85 350q0 96 16.5 165t50.5 112.5t86 64t124 20.5t125 -20.5t87 -64t50.5 -112.5t16.5 -165q0 -189 -67.5 -275.5t-211.5 -86.5q-72 0 -124 20.5t-86 64.5t-50.5 112.5t-16.5 164.5zM553 351q0 81 -12.5 136.5t-36.5 89.5t-60 49t-82 15t-81 -14.5t-59 -48t-36.5 -89.5 t-12.5 -140t12.5 -140t36.5 -89.5t59 -47.5t81 -14t82 14t60 47.5t36.5 90t12.5 141.5z" />
<glyph horiz-adv-x="337" d="M230 0h-87v589l-95 -64l-38 69l163 106h57v-700z" />
<glyph horiz-adv-x="596" d="M51 0v83l232 214q40 36 68.5 66t46.5 56.5t26.5 51.5t8.5 52q0 60 -36.5 89.5t-103.5 29.5q-69 0 -111.5 -29.5t-71.5 -92.5l-64 46q38 76 98.5 111t155.5 35q109 0 164.5 -48.5t55.5 -136.5q0 -33 -9.5 -64.5t-31.5 -65.5t-56.5 -72t-83.5 -85l-178 -167l393 1v-74h-503 z" />
<glyph horiz-adv-x="615" d="M289 -12q-90 0 -150 29t-96 90l62 49q56 -98 181 -98q82 0 126 35.5t44 108.5q0 60 -33.5 93t-104.5 33h-99v76h96q55 0 88.5 31.5t33.5 88.5q0 62 -39 90t-110 28q-60 0 -99.5 -24t-71.5 -81l-62 47q37 66 94.5 97t146.5 31q52 0 94 -11t72 -34t46 -57.5t16 -82.5 q0 -49 -24 -91t-72 -67q57 -17 86.5 -58.5t29.5 -102.5q0 -47 -15 -87.5t-46 -70t-79.5 -46t-114.5 -16.5z" />
<glyph horiz-adv-x="639" d="M36 183v60l234 457h91l-230 -441h293v319h87v-319h106v-76h-106v-183h-87v183h-388z" />
<glyph horiz-adv-x="592" d="M177 624l-21 -219q32 20 74 30t85 10q47 0 89.5 -12t75 -38t52 -67.5t19.5 -99.5q0 -53 -17 -97t-50.5 -76t-83 -49.5t-114.5 -17.5q-81 0 -143 29t-97 91l63 50q59 -101 178 -101q85 0 131 45.5t46 123.5q0 76 -44 113t-123 37q-56 0 -98.5 -16.5t-77.5 -44.5l-49 26 l35 359h407v-76h-337z" />
<glyph horiz-adv-x="677" d="M365 -12q-62 0 -113.5 20.5t-88.5 64t-57 112t-20 163.5q0 96 19 165t55.5 113t89 65t119.5 21q82 0 138.5 -27.5t87.5 -86.5l-65 -47q-27 48 -68 69.5t-97 21.5q-41 0 -76.5 -14t-61.5 -48.5t-40.5 -93t-14.5 -146.5v-26q21 59 76 92t126 33q112 0 173.5 -56.5 t61.5 -161.5q0 -52 -15.5 -95t-46 -73.5t-76.5 -47.5t-106 -17zM196 209q0 -68 43.5 -110t121.5 -42q35 0 64.5 9.5t51 28.5t33.5 48.5t12 69.5q0 75 -40 115.5t-123 40.5q-37 0 -67 -11.5t-51.5 -32.5t-33 -50.5t-11.5 -65.5z" />
<glyph horiz-adv-x="498" d="M163 0q0 83 15.5 170t45 169.5t72 155.5t97.5 129h-358v76h469v-77q-59 -35 -106 -100.5t-80 -149.5t-50.5 -180.5t-17.5 -192.5h-87z" />
<glyph horiz-adv-x="652" d="M325 -12q-121 0 -187 54.5t-66 149.5q0 73 38.5 115.5t96.5 56.5q-51 17 -81 57.5t-30 102.5q0 94 58.5 141t170.5 47t171 -47t59 -140q0 -62 -29.5 -103t-80.5 -58q57 -14 95.5 -56.5t38.5 -115.5q0 -95 -66.5 -149.5t-187.5 -54.5zM471 524q0 60 -37.5 90.5 t-108.5 30.5t-108 -30.5t-37 -90.5q0 -57 36.5 -90t108.5 -33q74 0 110 33.5t36 89.5zM493 195q0 65 -45 99t-122 34q-78 0 -123 -34t-45 -99q0 -68 43.5 -102.5t123.5 -34.5t124 34.5t44 102.5z" />
<glyph horiz-adv-x="676" d="M483 491q0 68 -43.5 110t-121.5 42q-71 0 -116 -39.5t-45 -121.5q0 -75 40 -115.5t123 -40.5q74 0 118.5 45.5t44.5 119.5zM310 -12q-82 0 -138.5 27.5t-87.5 86.5l65 47q27 -48 68 -69.5t97 -21.5q41 0 76.5 14t61.5 48.5t40.5 93t14.5 146.5v26q-21 -61 -76 -95.5 t-126 -34.5q-112 0 -173.5 58t-61.5 165q0 52 15.5 95t46 73.5t76.5 47.5t106 17q62 0 113.5 -20.5t88 -64t57 -112t20.5 -163.5q0 -96 -19 -165t-55.5 -113t-89 -65t-119.5 -21z" />
<glyph d="M43 300q0 83 17.5 142.5t51.5 97t84 55t116 17.5t116.5 -17.5t84.5 -55.5t51.5 -97.5t17.5 -142.5q0 -163 -69 -237t-201 -74q-131 0 -200 73.5t-69 238.5zM496 300q0 69 -12 115.5t-35.5 74.5t-57.5 40t-79 12q-44 0 -78 -11.5t-57.5 -39t-35.5 -74.5t-12 -117 t12 -116.5t35.5 -74.5t57.5 -39.5t78 -11.5q45 0 79 11.5t57.5 39.5t35.5 74.5t12 116.5z" />
<glyph d="M102 0v78h163v411l-87 -64l-37 69l155 106h55v-522h172v-78h-421z" />
<glyph d="M93 0v83l200 169q39 33 67 58.5t46 47.5t26 43t8 45q0 50 -33 72.5t-93 22.5q-59 0 -97 -26t-64 -82l-62 44q35 68 89.5 101.5t138.5 33.5q105 1 156.5 -41.5t51.5 -119.5q0 -30 -9 -57.5t-29.5 -56t-54 -62t-83.5 -75.5l-150 -127l355 1v-74h-463z" />
<glyph d="M308 -112q-90 0 -150 29t-96 90l62 49q56 -98 181 -98q82 0 126 35.5t44 108.5q0 60 -33.5 93t-104.5 33h-99v76h96q55 0 88.5 31.5t33.5 88.5q0 62 -39 90t-110 28q-60 0 -99.5 -24t-71.5 -81l-62 47q37 66 94.5 97t146.5 31q52 0 94 -11t72 -34t46 -57.5t16 -82.5 q0 -49 -24 -91t-72 -67q57 -17 86.5 -58.5t29.5 -102.5q0 -47 -15 -87.5t-46 -70t-79.5 -46t-114.5 -16.5z" />
<glyph d="M22 83v60l234 457h91l-230 -441h293v319h87v-319h106v-76h-106v-183h-87v183h-388z" />
<glyph d="M191 524l-21 -219q32 20 74 30t85 10q47 0 89.5 -12t75 -38t52 -67.5t19.5 -99.5q0 -53 -17 -97t-50.5 -76t-83 -49.5t-114.5 -17.5q-81 0 -143 29t-97 91l63 50q59 -101 178 -101q85 0 131 45.5t46 123.5q0 76 -44 113t-123 37q-56 0 -98.5 -16.5t-77.5 -44.5l-49 26 l35 359h407v-76h-337z" />
<glyph d="M330 -12q-62 0 -113.5 20.5t-88.5 64t-57 112t-20 163.5q0 96 19 165t55.5 113t89 65t119.5 21q82 0 138.5 -27.5t87.5 -86.5l-65 -47q-27 48 -68 69.5t-97 21.5q-41 0 -76.5 -14t-61.5 -48.5t-40.5 -93t-14.5 -146.5v-26q21 59 76 92t126 33q112 0 173.5 -56.5 t61.5 -161.5q0 -52 -15.5 -95t-46 -73.5t-76.5 -47.5t-106 -17zM161 209q0 -68 43.5 -110t121.5 -42q35 0 64.5 9.5t51 28.5t33.5 48.5t12 69.5q0 75 -40 115.5t-123 40.5q-37 0 -67 -11.5t-51.5 -32.5t-33 -50.5t-11.5 -65.5z" />
<glyph d="M206 -100q0 83 15.5 170t45 169.5t72 155.5t97.5 129h-358v76h469v-77q-59 -35 -106 -100.5t-80 -149.5t-50.5 -180.5t-17.5 -192.5h-87z" />
<glyph d="M312 -12q-121 0 -187 54.5t-66 149.5q0 73 38.5 115.5t96.5 56.5q-51 17 -81 57.5t-30 102.5q0 94 58.5 141t170.5 47t171 -47t59 -140q0 -62 -29.5 -103t-80.5 -58q57 -14 95.5 -56.5t38.5 -115.5q0 -95 -66.5 -149.5t-187.5 -54.5zM458 524q0 60 -37.5 90.5 t-108.5 30.5t-108 -30.5t-37 -90.5q0 -57 36.5 -90t108.5 -33q74 0 110 33.5t36 89.5zM480 195q0 65 -45 99t-122 34q-78 0 -123 -34t-45 -99q0 -68 43.5 -102.5t123.5 -34.5t124 34.5t44 102.5z" />
<glyph d="M464 391q0 68 -43.5 110t-121.5 42q-71 0 -116 -39.5t-45 -121.5q0 -75 40 -115.5t123 -40.5q74 0 118.5 45.5t44.5 119.5zM291 -112q-82 0 -138.5 27.5t-87.5 86.5l65 47q27 -48 68 -69.5t97 -21.5q41 0 76.5 14t61.5 48.5t40.5 93t14.5 146.5v26q-21 -61 -76 -95.5 t-126 -34.5q-112 0 -173.5 58t-61.5 165q0 52 15.5 95t46 73.5t76.5 47.5t106 17q62 0 113.5 -20.5t88 -64t57 -112t20.5 -163.5q0 -96 -19 -165t-55.5 -113t-89 -65t-119.5 -21z" />
<glyph horiz-adv-x="621" d="M61 300q0 83 16 142.5t47.5 97t78 55t107.5 17.5q123 0 186.5 -73.5t63.5 -239.5q0 -163 -63.5 -237t-186.5 -74q-122 0 -185.5 73.5t-63.5 238.5zM474 300q0 69 -10.5 115.5t-31.5 74.5t-51.5 40t-70.5 12q-39 0 -69.5 -11.5t-51.5 -39t-31.5 -74.5t-10.5 -117 t10.5 -116.5t31.5 -74.5t51.5 -39.5t69.5 -11.5q40 0 70.5 11.5t51.5 39.5t31.5 74.5t10.5 116.5z" />
<glyph horiz-adv-x="306" d="M218 0h-84v489l-88 -64l-37 69l155 106h54v-600z" />
<glyph horiz-adv-x="514" d="M52 0v71l192 185q34 33 58 59t39 48.5t22 43t7 43.5q0 49 -30 71t-83 22q-51 0 -86.5 -26.5t-60.5 -78.5l-62 44q31 65 82.5 97.5t132.5 32.5q94 0 143 -41t49 -114q0 -29 -9 -56.5t-28 -57t-49 -63.5t-71 -74l-140 -138l315 2v-70h-421z" />
<glyph horiz-adv-x="584" d="M270 -113q-85 0 -141 29t-90 90l62 49q26 -51 66 -75t100 -24q80 0 123.5 36t43.5 109q0 60 -33 93t-102 33h-94v76h91q53 0 85 31.5t32 88.5q0 62 -37.5 91t-106.5 29q-55 0 -91 -24.5t-65 -81.5l-62 47q35 66 88 97t138 31q102 0 162 -45.5t60 -140.5q0 -49 -23.5 -91 t-71.5 -67q57 -17 86.5 -58.5t29.5 -102.5q0 -47 -14.5 -87.5t-45 -70t-78 -46t-112.5 -16.5z" />
<glyph horiz-adv-x="607" d="M35 83v57l222 460h86l-217 -448h277v326h84v-326h99v-69h-99v-183h-84v183h-368z" />
<glyph horiz-adv-x="562" d="M172 526l-21 -221q31 20 70 30t79 10q45 0 85.5 -12t72 -38t50 -67.5t18.5 -101.5q0 -52 -16.5 -96t-48.5 -75.5t-79 -49t-108 -17.5q-81 0 -140 29t-93 91l62 48q28 -51 69.5 -75.5t101.5 -24.5q38 0 69 12t52.5 34.5t33 53t11.5 68.5q0 78 -41 114.5t-121 36.5 q-48 0 -88 -16t-74 -44l-49 26l35 359h387v-74h-317z" />
<glyph horiz-adv-x="643" d="M350 -12q-60 0 -109.5 20.5t-85 64t-55 112t-19.5 163.5q0 96 18.5 165t53.5 113t85.5 65t115.5 21q79 0 133 -27.5t83 -86.5l-65 -47q-26 48 -64 69.5t-91 21.5q-39 0 -72.5 -14t-58.5 -48.5t-39 -93t-14 -146.5v-26q20 59 72.5 92t120.5 33q107 0 165.5 -56.5 t58.5 -161.5q0 -52 -14.5 -95t-44 -73.5t-73 -47.5t-101.5 -17zM191 209q0 -68 41 -110t114 -42q66 0 108.5 38t42.5 118q0 75 -37.5 115.5t-115.5 40.5q-35 0 -63 -11.5t-48 -32.5t-31 -50.5t-11 -65.5z" />
<glyph horiz-adv-x="474" d="M155 -100q0 83 14.5 170t42.5 169.5t69 155.5t93 129h-340v76h445v-77q-56 -35 -100.5 -100.5t-75.5 -149.5t-48 -180.5t-17 -192.5h-83z" />
<glyph horiz-adv-x="620" d="M309 -12q-115 0 -177.5 54.5t-62.5 149.5q0 73 36.5 115.5t91.5 56.5q-48 17 -77 57.5t-29 102.5q0 94 56 141t162 47q107 0 163 -47t56 -140q0 -62 -28.5 -103t-76.5 -58q54 -14 90.5 -56.5t36.5 -115.5q0 -95 -63 -149.5t-178 -54.5zM445 524q0 121 -136 121 q-135 0 -135 -121q0 -57 33 -90t102 -33q70 0 103 33.5t33 89.5zM466 195q0 65 -41.5 99t-114.5 34q-74 0 -115.5 -34t-41.5 -99q0 -68 40 -102t116 -34t116.5 34t40.5 102z" />
<glyph horiz-adv-x="642" d="M458 391q0 68 -41 110t-114 42q-66 0 -108.5 -39t-42.5 -122q0 -75 37.5 -115.5t115.5 -40.5q34 0 62.5 12t48.5 33.5t31 52t11 67.5zM295 -112q-79 0 -133 27.5t-83 86.5l65 47q26 -48 64 -69.5t91 -21.5q39 0 72.5 14t58.5 48.5t39 93t14 146.5v26q-20 -61 -72.5 -95.5 t-120.5 -34.5q-107 0 -165.5 58t-58.5 165q0 52 14.5 95t44 73.5t73 47.5t101.5 17q60 0 109.5 -20.5t85 -64t55 -112t19.5 -163.5q0 -96 -18.5 -165t-53.5 -113t-86 -65t-115 -21z" />
<glyph horiz-adv-x="432" d="M43 0zM43 4q0 112 41 163t131 51q89 0 129.5 -51t40.5 -163q0 -111 -41 -162.5t-129 -51.5q-90 0 -131 51t-41 163zM313 4q0 87 -25.5 120t-72.5 33q-24 0 -43 -7.5t-31.5 -25.5t-19 -47.5t-6.5 -73.5q0 -87 25.5 -119.5t73.5 -32.5q24 0 42.5 7.5t31 25t19 47t6.5 73.5z " />
<glyph horiz-adv-x="225" d="M11 0zM162 -200h-72v320l-51 -32l-28 57l105 64h46v-409z" />
<glyph horiz-adv-x="370" d="M26 0zM33 -200v61l133 119q42 38 61 63t19 53q0 32 -19 46t-53 14q-38 0 -59.5 -15t-38.5 -48l-50 37q24 48 61.5 68t93.5 20q63 0 100.5 -28.5t37.5 -86.5q0 -20 -6 -38.5t-18 -37.5t-31.5 -40t-46.5 -45l-85 -78l203 3v-67h-302z" />
<glyph horiz-adv-x="372" d="M25 0zM177 -210q-108 0 -152 74l51 39q32 -53 96 -53q42 0 64.5 16.5t22.5 51.5q0 29 -18 45.5t-56 16.5h-53v60h52q30 0 46.5 15t16.5 43q0 59 -74 59q-32 0 -53 -12t-38 -43l-49 35q22 43 57.5 62t89.5 19q65 0 102.5 -28.5t37.5 -85.5q0 -61 -56 -92q31 -11 48.5 -34 t17.5 -59q0 -57 -37.5 -93t-115.5 -36z" />
<glyph horiz-adv-x="395" d="M25 0zM25 -103v51l130 260h72l-126 -247h150v167h67v-167h57v-64h-57v-97h-67v97h-226z" />
<glyph horiz-adv-x="360" d="M25 0zM119 147l-11 -106q37 18 85 18q29 0 54.5 -7t44.5 -22.5t30 -40t11 -58.5q0 -64 -40 -102.5t-118 -38.5q-51 0 -89 16.5t-61 53.5q1 1 8.5 7.5t16.5 13t16 12.5t9 7q31 -50 98 -50q40 0 64 21t24 59t-22.5 56t-64.5 18q-26 0 -48.5 -7.5t-40.5 -20.5l-43 22l20 209 h251v-61z" />
<glyph horiz-adv-x="408" d="M43 0zM216 -210q-80 0 -126.5 50t-46.5 163q0 109 44.5 162t130.5 53q49 0 84.5 -17t54.5 -52l-49 -39q-26 48 -90 48q-23 0 -42.5 -7.5t-33 -25.5t-21 -48.5t-7.5 -75.5v-13q13 30 42 48.5t71 18.5q64 0 99.5 -33t35.5 -94t-36 -99.5t-110 -38.5zM128 -76 q0 -34 22 -54.5t60 -20.5q36 0 59.5 19t23.5 57q0 35 -20 54.5t-62 19.5q-40 0 -61.5 -20.5t-21.5 -54.5z" />
<glyph horiz-adv-x="313" d="M23 0zM171 -200h-75q0 49 9 97.5t26 93t41.5 83.5t54.5 69l-204 -1v65h286v-59q-33 -23 -58.5 -59.5t-43 -82t-27 -98t-9.5 -108.5z" />
<glyph horiz-adv-x="397" d="M42 0zM197 -210q-75 0 -115 31.5t-40 89.5q0 42 20 66t53 35q-27 12 -42.5 35t-15.5 56q0 115 140 115q69 0 105 -28.5t36 -85.5q0 -34 -16 -57t-42 -35q32 -11 52 -35.5t20 -65.5q0 -58 -40 -89.5t-115 -31.5zM272 102q0 29 -19.5 43.5t-54.5 14.5q-76 0 -76 -58 q0 -29 19 -45.5t56 -16.5t56 16.5t19 45.5zM280 -87q0 32 -22 49.5t-60 17.5q-40 0 -62.5 -17.5t-22.5 -49.5t22 -49.5t62 -17.5t61.5 17.5t21.5 49.5z" />
<glyph horiz-adv-x="408" d="M40 0zM275 81q0 36 -22.5 56.5t-60.5 20.5q-36 0 -59 -19.5t-23 -57.5q0 -36 20 -56.5t62 -20.5q39 0 61 21t22 56zM185 -210q-49 0 -84.5 16.5t-54.5 49.5l48 39q28 -45 90 -45q30 0 50.5 11.5t32.5 32t17 49t4 62.5v12q-12 -31 -41 -50t-71 -19q-64 0 -100 33.5 t-36 96.5t37 101.5t112 38.5q79 0 125 -50.5t46 -162.5q0 -111 -45 -163t-130 -52z" />
<glyph horiz-adv-x="309" d="M34 0zM184 -138h-58v92h-92v53h92v93h58v-93h92v-53h-92v-92z" />
<glyph horiz-adv-x="309" d="M34 0zM276 7v-53h-242v53h242z" />
<glyph horiz-adv-x="309" d="M34 0zM276 51v-55h-242v55h242zM276 -36v-55h-242v55h242z" />
<glyph horiz-adv-x="216" d="M28 0zM193 -207l-6 -58q-82 8 -120.5 68t-38.5 177q0 115 38.5 175.5t120.5 67.5l6 -58q-26 -3 -45 -14t-32 -32.5t-19.5 -55.5t-6.5 -83q0 -50 6.5 -84t19.5 -55.5t32 -32.5t45 -15z" />
<glyph horiz-adv-x="216" d="M23 0zM29 -265l-6 58q25 4 44.5 15t32.5 32.5t19.5 55.5t6.5 84q0 49 -6.5 83t-19.5 55.5t-32.5 32.5t-44.5 14l7 58q81 -7 120 -67.5t39 -175.5q0 -117 -39 -177t-121 -68z" />
<glyph horiz-adv-x="276" d="M79 638q0 28 15.5 42t43.5 14t43.5 -14t15.5 -42t-15.5 -42.5t-43.5 -14.5t-43.5 14.5t-15.5 42.5zM95 487h86v-487h-86v487z" />
<glyph horiz-adv-x="532" d="M94 0zM246 -292l-17 40q29 8 44.5 29.5t18.5 50.5h-5q-59 0 -59 55q0 26 15 39.5t41 13.5q29 0 45 -18.5t16 -62.5q0 -51 -24 -92t-75 -55zM94 0v700h86v-700h-86zM415 -1l-222 238v3l217 247h98l-219 -242l229 -245z" />
<glyph horiz-adv-x="743" d="M464 905h66q0 -35 -10 -59t-28 -38t-44.5 -20t-59.5 -6t-59.5 6t-45 20t-28.5 38t-10 59h66q0 -39 19 -53.5t57 -14.5t57.5 14.5t19.5 53.5zM376 -12q-146 0 -222.5 87.5t-76.5 275.5q0 98 19.5 166.5t59 112t98.5 63t137 19.5q94 0 156 -31t98 -97l-71 -49 q-29 56 -73 80.5t-110 24.5q-54 0 -96 -12.5t-70.5 -45t-43.5 -88.5t-15 -143q0 -84 14.5 -139.5t42.5 -89.5t69 -48t94 -14q45 0 81 12t61.5 38t39 68.5t11.5 104.5h-186v70h275v-63q-1 -159 -76 -230.5t-216 -71.5z" />
<glyph horiz-adv-x="743" d="M390 857l-70 -69h-93v3l122 114h83l123 -114v-3h-98zM376 -12q-146 0 -222.5 87.5t-76.5 275.5q0 98 19.5 166.5t59 112t98.5 63t137 19.5q94 0 156 -31t98 -97l-71 -49q-29 56 -73 80.5t-110 24.5q-54 0 -96 -12.5t-70.5 -45t-43.5 -88.5t-15 -143q0 -84 14.5 -139.5 t42.5 -89.5t69 -48t94 -14q45 0 81 12t61.5 38t39 68.5t11.5 104.5h-186v70h275v-63q-1 -159 -76 -230.5t-216 -71.5z" />
<glyph horiz-adv-x="743" d="M376 -12q-146 0 -222.5 87.5t-76.5 275.5q0 98 19.5 166.5t59 112t98.5 63t137 19.5q94 0 156 -31t98 -97l-71 -49q-29 56 -73 80.5t-110 24.5q-54 0 -96 -12.5t-70.5 -45t-43.5 -88.5t-15 -143q0 -84 14.5 -139.5t42.5 -89.5t69 -48t94 -14q45 0 81 12t61.5 38t39 68.5 t11.5 104.5h-186v70h275v-63q-1 -159 -76 -230.5t-216 -71.5zM344 -292l-17 40q29 8 44.5 29.5t18.5 50.5h-5q-59 0 -59 55q0 26 15 39.5t41 13.5q29 0 45 -18.5t16 -62.5q0 -51 -24 -92t-75 -55z" />
<glyph horiz-adv-x="743" d="M330 851q0 28 16 42t44 14t43.5 -14t15.5 -42t-15.5 -42.5t-43.5 -14.5t-44 14.5t-16 42.5zM376 -12q-146 0 -222.5 87.5t-76.5 275.5q0 98 19.5 166.5t59 112t98.5 63t137 19.5q94 0 156 -31t98 -97l-71 -49q-29 56 -73 80.5t-110 24.5q-54 0 -96 -12.5t-70.5 -45 t-43.5 -88.5t-15 -143q0 -84 14.5 -139.5t42.5 -89.5t69 -48t94 -14q45 0 81 12t61.5 38t39 68.5t11.5 104.5h-186v70h275v-63q-1 -159 -76 -230.5t-216 -71.5z" />
<glyph horiz-adv-x="638" d="M109 0zM307 -292l-17 40q29 8 44.5 29.5t18.5 50.5h-5q-59 0 -59 55q0 26 15 39.5t41 13.5q29 0 45 -18.5t16 -62.5q0 -51 -24 -92t-75 -55zM523 0l-305 341v3l300 356h103l-300 -346l317 -354h-115zM109 0v700h91v-700h-91z" />
<glyph horiz-adv-x="431" d="M383 385v-72h-334v72h334z" />
<glyph horiz-adv-x="588" d="M540 385v-72h-491v72h491z" />
<glyph horiz-adv-x="788" d="M740 385v-72h-691v72h691z" />
<glyph horiz-adv-x="588" d="M540 385v-72h-491v72h491z" />
<glyph horiz-adv-x="276" d="M181 700v-700h-86v700h86z" />
<glyph horiz-adv-x="629" d="M116 0v420h-90v67h90v59q0 92 41.5 132t114.5 40q20 0 41 -3.5t38 -10.5l-14 -72q-14 5 -27 8.5t-32 3.5q-36 0 -57 -21.5t-21 -81.5v-54h141v-67h-141v-420h-84zM534 700v-700h-86v700h86z" />
<glyph horiz-adv-x="629" d="M0 0z" />
</font>
</defs>
</svg>
