<?xml version="1.0" standalone="no"?>
<!DOCTYPE svg PUBLIC "-//W3C//DTD SVG 1.1//EN" "http://www.w3.org/Graphics/SVG/1.1/DTD/svg11.dtd" >
<svg xmlns="http://www.w3.org/2000/svg">
<metadata></metadata>
<defs>
<font id="honeywell_sans_weblight" horiz-adv-x="625" >
<font-face units-per-em="1000" ascent="774" descent="-226" />
<missing-glyph horiz-adv-x="225" />
<glyph unicode="fi" horiz-adv-x="586" d="M134 0v453h-97v25h97v87q0 77 32 110t92 33q21 0 41 -3.5t40 -13.5l-6 -26q-17 8 -33 11.5t-39 3.5q-48 0 -72.5 -26.5t-24.5 -93.5v-82h168v-25h-168v-453h-30zM434 610q0 30 31 30q30 0 30 -30q0 -14 -8 -22t-22 -8t-22.5 8t-8.5 22zM449 478h31v-478h-31v478z" />
<glyph unicode="fl" horiz-adv-x="592" d="M134 0v453h-97v25h97v87q0 77 32 110t92 33q21 0 41 -3.5t40 -13.5l-6 -26q-17 8 -33 11.5t-39 3.5q-48 0 -72.5 -26.5t-24.5 -93.5v-82h168v-25h-168v-453h-30zM531 0q-42 0 -65 22t-23 70v608h31v-603q0 -44 17.5 -57t46.5 -13h43v-27h-50z" />
<glyph horiz-adv-x="225" />
<glyph horiz-adv-x="225" />
<glyph unicode="&#xd;" horiz-adv-x="225" />
<glyph unicode=" "  horiz-adv-x="225" />
<glyph unicode="&#x09;" horiz-adv-x="225" />
<glyph unicode="&#xa0;" horiz-adv-x="225" />
<glyph unicode="!" horiz-adv-x="197" d="M117 700l-5 -530h-27l-5 530h37zM68 24q0 30 31 30q14 0 22 -8t8 -22t-8 -22t-22 -8t-22.5 8t-8.5 22z" />
<glyph unicode="&#x22;" horiz-adv-x="246" d="M154 547l-2 163h33l-3 -163h-28zM93 547h-28l-2 163h32z" />
<glyph unicode="#" horiz-adv-x="711" d="M276 455l-65 -203h226l65 203h-226zM119 455l8 24h125l71 221h32l-71 -221h225l72 221h32l-72 -221h120l-8 -24h-119l-65 -203h127l-8 -25h-127l-72 -227h-32l72 227h-226l-72 -227h-32l72 227h-116l8 25h116l65 203h-125z" />
<glyph unicode="$" horiz-adv-x="566" d="M100 522q0 -60 40 -94.5t113 -51.5l20 -5v282q-88 -2 -130.5 -35.5t-42.5 -95.5zM310 334l-10 2v-296q95 2 138 40t43 107q0 28 -8 49.5t-27.5 39t-52.5 32t-83 26.5zM273 -62v75q-79 2 -134.5 31t-96.5 92l24 16q39 -57 87 -83.5t120 -28.5v302l-26 6q-86 20 -131 62.5 t-45 109.5q0 35 11.5 64t36 50t63 33t91.5 13v86h27v-87q74 -3 118 -27.5t76 -72.5l-24 -16q-29 44 -68 65.5t-102 23.5v-287l12 -3q55 -14 93.5 -30t62 -36.5t34 -47t10.5 -60.5q0 -88 -54 -130.5t-158 -44.5v-75h-27z" />
<glyph unicode="%" horiz-adv-x="1003" d="M48 0zM638 204q0 114 40.5 162t117.5 48q76 0 116 -48t40 -162q0 -113 -40 -162t-116 -49q-77 0 -117.5 48.5t-40.5 162.5zM924 204q0 52 -9 88t-25.5 58t-40 31.5t-53.5 9.5q-31 0 -55 -9.5t-40.5 -31.5t-25.5 -58t-9 -88q0 -53 9 -89t25.5 -57.5t40.5 -31t54 -9.5 t54 9.5t40.5 31t25.5 57.5t9 89zM48 497q0 114 40.5 162t117.5 48q76 0 116 -48t40 -162q0 -113 -40 -162t-116 -49q-77 0 -117.5 48.5t-40.5 162.5zM334 497q0 52 -9 88t-25.5 58t-40 31.5t-53.5 9.5q-31 0 -55 -9.5t-40.5 -31.5t-25.5 -58t-9 -88q0 -53 9 -89t25.5 -57.5 t40.5 -31t54 -9.5t54 9.5t40.5 31t25.5 57.5t9 89zM678 700l-332 -700h-30l334 700h28z" />
<glyph unicode="&#x26;" horiz-adv-x="694" d="M595 472h30q0 -121 -25.5 -209.5t-71.5 -148.5q35 -25 73 -50t81 -52l-15 -23q-44 27 -82.5 52.5t-73.5 50.5q-46 -51 -106 -76.5t-131 -25.5q-48 0 -89.5 11.5t-72.5 34.5t-49 57t-18 80q0 34 10.5 62t30.5 51.5t48 45t63 42.5q-45 61 -60 107t-15 80q0 69 42.5 109 t129.5 40q74 0 109 -33t35 -88q0 -35 -12 -62.5t-37 -52.5t-62 -50t-88 -56q39 -49 103 -108t163 -130q42 56 66.5 141t23.5 201zM153 560q0 -30 13.5 -72.5t55.5 -99.5q49 30 84 53t57.5 45t33.5 45.5t11 53.5q0 49 -30.5 74t-84.5 25q-72 0 -106 -33.5t-34 -90.5zM275 16 q62 0 116 22.5t97 69.5q-101 72 -166.5 132.5t-107.5 111.5q-37 -23 -63 -43t-42.5 -41t-24 -43.5t-7.5 -49.5q0 -39 15 -68.5t41.5 -49.5t62.5 -30.5t79 -10.5z" />
<glyph unicode="'" horiz-adv-x="156" d="M65 547l-2 163h32l-2 -163h-28z" />
<glyph unicode="(" horiz-adv-x="344" d="M274 -46l-3 -24q-97 17 -150.5 118t-53.5 274t53.5 274t150.5 118l3 -24q-83 -17 -130.5 -110t-47.5 -258t47.5 -258t130.5 -110z" />
<glyph unicode=")" horiz-adv-x="344" d="M70 -46q83 17 130.5 110t47.5 258t-47.5 258t-130.5 110l3 24q97 -17 150.5 -118t53.5 -274t-53.5 -274t-150.5 -118z" />
<glyph unicode="*" horiz-adv-x="380" d="M96 373l-22 17l100 130l-145 44l8 26l143 -48l-4 168h31l-4 -168l144 48l8 -26l-145 -44l100 -130l-22 -17l-96 133z" />
<glyph unicode="+" horiz-adv-x="487" d="M258 112h-27v180h-181v26h181v188h27v-188h179v-26h-179v-180z" />
<glyph unicode="," horiz-adv-x="198" d="M73 -102l-7 15q20 11 31 34t12 50q-19 -5 -30 3.5t-11 24.5q0 14 8 21.5t22 7.5q15 0 23.5 -9.5t8.5 -35.5q0 -36 -13.5 -67.5t-43.5 -43.5z" />
<glyph unicode="-" horiz-adv-x="400" d="M350 256v-26h-300v26h300z" />
<glyph unicode="." horiz-adv-x="198" d="M68 24q0 30 31 30t31 -30q0 -14 -8.5 -22t-22.5 -8t-22.5 8t-8.5 22z" />
<glyph unicode="/" horiz-adv-x="452" d="M438 701l-390 -701h-34l390 701h34z" />
<glyph unicode="0" d="M49 350q0 98 17 166.5t50.5 111.5t82.5 62.5t113 19.5t113 -19.5t82.5 -62.5t50.5 -111.5t17 -166.5t-17 -166t-50.5 -111.5t-82.5 -63t-113 -19.5t-113 19.5t-82.5 62.5t-50.5 111.5t-17 166.5zM543 350q0 93 -15.5 157t-45.5 103t-73 56t-97 17t-97 -17t-73 -56 t-45.5 -102.5t-15.5 -157.5t15.5 -157.5t45.5 -102.5t73 -56t97 -17t97 17t73 56t45.5 102.5t15.5 157.5z" />
<glyph unicode="1" d="M103 0v28h187v630l-105 -88l-15 24l131 106h20v-672h200v-28h-418z" />
<glyph unicode="2" d="M67 0v28l286 288q42 42 68.5 75.5t40.5 60.5t19 49t5 40q1 69 -44 105.5t-130 36.5q-42 0 -74 -8t-57.5 -24t-45 -39.5t-36.5 -54.5l-24 17q18 33 40 58t50.5 42.5t65 26.5t83.5 9q52 0 90.5 -12t64 -34t37.5 -52.5t12 -67.5q0 -26 -7.5 -53t-24.5 -56.5t-44.5 -63.5 t-68.5 -75l-267 -270l453 1v-27h-492z" />
<glyph unicode="3" d="M306 -10q-85 0 -141 27.5t-93 89.5l23 18q35 -57 85.5 -82.5t125.5 -25.5q112 0 164 48.5t52 129.5q0 31 -8.5 60t-29 51.5t-54.5 35.5t-84 13h-110v27h109q32 0 60 10.5t49 30t33 48.5t12 65q0 72 -47 109.5t-139 37.5q-76 0 -122 -28t-79 -86l-23 17q35 61 87 92.5 t139 31.5q109 0 162 -46.5t53 -127.5q0 -62 -31.5 -105t-87.5 -61q43 -8 71 -26.5t43.5 -42.5t21.5 -51t6 -52q0 -97 -61 -152.5t-186 -55.5z" />
<glyph unicode="4" d="M36 195v25l253 480h34l-254 -477h368v362h31v-362h121v-28h-121v-195h-31v195h-401z" />
<glyph unicode="5" d="M158 673l-32 -306q46 38 95 52t102 14q51 0 94 -12.5t74 -38t48 -65t17 -93.5q0 -51 -16 -94t-47.5 -74t-79 -48.5t-110.5 -17.5q-74 0 -135 27t-99 90l24 18q31 -52 82.5 -80.5t127.5 -28.5q58 0 100 16t69 44t40 66t13 81q0 91 -53.5 137t-154.5 46q-66 0 -113 -19 t-91 -56l-19 9l39 360h386v-27h-361z" />
<glyph unicode="6" d="M333 -10q-57 0 -106.5 19.5t-86 62t-57 109.5t-20.5 161q0 97 19.5 166.5t55.5 114.5t86.5 66t112.5 21q69 0 121.5 -25t81.5 -81l-24 -17q-29 54 -77 75t-104 21q-52 0 -96 -18.5t-76 -59.5t-50 -106t-18 -159q0 -20 1.5 -46.5t5.5 -53.5q4 43 22 79t47.5 62t70 40 t90.5 14q51 0 93.5 -14t73 -41.5t47.5 -68.5t17 -95q0 -104 -59 -165t-171 -61zM120 205q0 -33 12.5 -66.5t38.5 -60.5t66 -44.5t95 -17.5q91 0 145 50.5t54 148.5q0 91 -52.5 142t-150.5 51q-47 0 -85 -14t-65.5 -40t-42.5 -63.5t-15 -85.5z" />
<glyph unicode="7" d="M210 0q0 90 19.5 186.5t55.5 187t88 168.5t118 131h-404v27h451v-25q-66 -42 -119.5 -115.5t-92.5 -164.5t-61 -193t-24 -202h-31z" />
<glyph unicode="8" d="M312 -10q-117 0 -178.5 53.5t-61.5 147.5q0 77 45.5 124t123.5 61q-66 13 -103.5 54.5t-37.5 108.5q0 83 54 127t158 44t158 -44t54 -126q0 -68 -38 -109t-103 -55q77 -13 123 -60.5t46 -124.5q0 -94 -61.5 -147.5t-178.5 -53.5zM493 539q0 69 -44.5 107t-136.5 38 t-136.5 -38t-44.5 -107t45.5 -109t135.5 -40t135.5 40t45.5 109zM521 191q0 78 -53.5 124.5t-155.5 46.5q-101 0 -154.5 -46.5t-53.5 -124.5q0 -81 51.5 -127.5t156.5 -46.5t157 46.5t52 127.5z" />
<glyph unicode="9" d="M505 495q0 33 -12.5 66.5t-38.5 60.5t-65.5 44.5t-94.5 17.5q-92 0 -146 -50.5t-54 -150.5q0 -91 53 -142t150 -51q46 0 84.5 14t66 40.5t42.5 64.5t15 86zM289 -10q-69 0 -123.5 25t-83.5 81l24 17q29 -54 78.5 -75t106.5 -21q52 0 96 18.5t76 59.5t50 106t18 159 q0 20 -1.5 44t-5.5 51q-5 -42 -22.5 -77t-47 -60.5t-69.5 -39.5t-91 -14q-52 0 -94.5 14t-73 41.5t-47 68.5t-16.5 96q0 104 58.5 165t170.5 61q57 0 106.5 -18.5t86 -60.5t57 -109t20.5 -164t-19.5 -166.5t-55 -114.5t-86 -66t-112.5 -21z" />
<glyph unicode=":" horiz-adv-x="198" d="M68 0zM68 24q0 30 31 30t31 -30q0 -14 -8.5 -22t-22.5 -8t-22.5 8t-8.5 22zM68 419q0 30 31 30t31 -30q0 -14 -8.5 -22t-22.5 -8t-22.5 8t-8.5 22z" />
<glyph unicode=";" horiz-adv-x="198" d="M66 0zM73 -102l-7 15q20 11 31 34t12 50q-19 -5 -30 3.5t-11 24.5q0 14 8 21.5t22 7.5q15 0 23.5 -9.5t8.5 -35.5q0 -36 -13.5 -67.5t-43.5 -43.5zM68 419q0 30 31 30t31 -30q0 -14 -8.5 -22t-22.5 -8t-22.5 8t-8.5 22z" />
<glyph unicode="&#x3c;" horiz-adv-x="434" d="M332 495l16 -20l-229 -164l229 -163l-16 -22l-249 177v15z" />
<glyph unicode="=" horiz-adv-x="487" d="M437 377v-26h-387v26h387zM437 267v-26h-387v26h387z" />
<glyph unicode="&#x3e;" horiz-adv-x="434" d="M102 126l-16 20l230 164l-230 164l16 21l249 -176v-15z" />
<glyph unicode="?" horiz-adv-x="500" d="M217 170v131h19q103 0 156 52.5t53 142.5q0 89 -56.5 137.5t-154.5 48.5q-76 0 -126 -29t-82 -97l-25 15q35 74 91.5 106.5t143.5 32.5q55 0 99.5 -14.5t76 -42t48.5 -67t17 -88.5q0 -99 -60 -157.5t-169 -60.5v-110h-31zM202 24q0 14 8 22t22 8q31 0 31 -30 q0 -14 -8.5 -22t-22.5 -8t-22 8t-8 22z" />
<glyph unicode="@" horiz-adv-x="818" d="M676 4q-44 -47 -108.5 -72.5t-148.5 -25.5q-81 0 -144 24t-107 68t-67 106t-23 138q0 75 23 137t67 106t107 68t144 24q77 0 136.5 -21.5t100.5 -61t62.5 -95.5t21.5 -124q0 -84 -34 -134.5t-102 -50.5q-34 0 -59 18t-29 67q-17 -49 -53 -72t-88 -23q-51 0 -81 25t-30 73 q0 51 38.5 75.5t107.5 24.5h105q0 70 -27 95.5t-81 25.5q-45 0 -70 -12.5t-42 -36.5l-14 14q37 56 128 56q63 0 96.5 -32t33.5 -107v-89q0 -83 69 -83q57 0 84.5 44t27.5 122q0 66 -20.5 118.5t-59.5 89.5t-95 56.5t-126 19.5q-75 0 -134.5 -22t-101 -63.5t-63.5 -100 t-22 -131.5q0 -74 22 -132.5t63.5 -100t101 -63.5t134.5 -22q79 0 141 24t104 69zM380 100q64 0 97 40.5t38 106.5v13h-99q-62 0 -94.5 -19t-32.5 -63q0 -78 91 -78z" />
<glyph unicode="A" horiz-adv-x="589" d="M294 667l-175 -469h349zM541 0l-63 171h-368l-63 -171h-33l261 700h39l261 -700h-34z" />
<glyph unicode="B" horiz-adv-x="660" d="M119 0v700h267q51 0 87.5 -13t60.5 -36.5t35 -56t11 -71.5q0 -60 -32 -104t-87 -58q38 -5 64.5 -21.5t43.5 -39.5t25 -50.5t8 -54.5q0 -98 -53.5 -146.5t-174.5 -48.5h-255zM388 673h-238v-300h254q35 0 62 12t45 32.5t27.5 47.5t9.5 56q0 76 -43 114t-117 38zM403 345 h-253v-318h226q99 0 146.5 39t47.5 128q0 67 -41 109t-126 42z" />
<glyph unicode="C" horiz-adv-x="693" d="M380 -10q-71 0 -126.5 19.5t-93.5 62.5t-58.5 111.5t-20.5 166.5q0 99 20.5 167.5t58.5 111t93.5 62t126.5 19.5q86 0 148.5 -30t98.5 -99l-26 -17q-34 65 -90 92t-131 27q-61 0 -110.5 -16.5t-84 -55.5t-53.5 -102.5t-19 -157.5t19 -158t53.5 -103t84 -56t110.5 -17 q78 0 137 29t96 100l24 -16q-39 -76 -104 -108t-153 -32z" />
<glyph unicode="D" horiz-adv-x="732" d="M364 0h-245v700h246q68 0 121.5 -18.5t90 -59t56 -106t19.5 -158.5q0 -95 -19.5 -163t-56.5 -111.5t-90.5 -63.5t-121.5 -20zM151 27h212q58 0 105.5 17.5t81 56.5t52 102t18.5 155q0 88 -18 148.5t-51.5 97.5t-80.5 53t-105 16h-214v-646z" />
<glyph unicode="E" horiz-adv-x="643" d="M119 0v700h477v-27h-446v-307h391v-28h-391v-311h456v-27h-487z" />
<glyph unicode="F" horiz-adv-x="602" d="M119 0v700h464v-27h-432v-316h388v-27h-388v-330h-32z" />
<glyph unicode="G" horiz-adv-x="715" d="M376 -10q-69 0 -123.5 20t-93 63t-58.5 111.5t-20 165.5q0 99 20.5 167.5t58.5 111t93.5 62t126.5 19.5q86 0 148 -30t98 -98l-26 -18q-33 64 -89 91.5t-131 27.5q-61 0 -110.5 -16.5t-84 -55.5t-53.5 -103t-19 -158q0 -93 19 -157t53.5 -103t83.5 -56t110 -17 q51 0 93 13t72.5 42.5t49 76t22.5 112.5v25h-222v26h252v-312h-27l-2 150q-25 -81 -86.5 -120.5t-154.5 -39.5z" />
<glyph unicode="H" horiz-adv-x="773" d="M622 0v338h-471v-338h-32v700h32v-334h471v334h32v-700h-32z" />
<glyph unicode="I" horiz-adv-x="270" d="M119 0v700h32v-700h-32z" />
<glyph unicode="J" horiz-adv-x="494" d="M165 -10q-81 0 -136 40l15 26q24 -20 55.5 -29t66.5 -9q45 0 82 13t63.5 41.5t40.5 73.5t14 109v445h31v-443q0 -72 -16 -123t-46 -83t-73 -46.5t-97 -14.5z" />
<glyph unicode="K" horiz-adv-x="613" d="M119 0v700h32v-443l390 443h39l-278 -314l301 -386h-39l-283 363l-130 -147v-216h-32z" />
<glyph unicode="L" horiz-adv-x="608" d="M151 27h435v-27h-467v700h32v-673z" />
<glyph unicode="M" horiz-adv-x="928" d="M451 0l-302 650l1 -650h-31v700h38l307 -662l308 662h36v-700h-30l1 650l-302 -650h-26z" />
<glyph unicode="N" horiz-adv-x="766" d="M614 0l-465 656l1 -656h-31v700h35l463 -652l-1 652h31v-700h-33z" />
<glyph unicode="O" horiz-adv-x="759" d="M379 -10q-72 0 -127.5 19.5t-93.5 62.5t-57.5 111.5t-19.5 166.5t20 166.5t58 111.5t93.5 62.5t126.5 19.5q72 0 128 -19.5t94 -62.5t57.5 -111.5t19.5 -166.5t-20 -166.5t-58 -111.5t-93.5 -62.5t-127.5 -19.5zM379 683q-62 0 -111.5 -16.5t-84 -55.5t-52.5 -103 t-18 -158q0 -93 18 -157t52.5 -103t84 -56t111.5 -17q63 0 112.5 17t84 56t52.5 103t18 158q0 93 -18 156.5t-52.5 102.5t-84 56t-112.5 17z" />
<glyph unicode="P" horiz-adv-x="664" d="M119 0v700h253q122 0 176 -53.5t54 -159.5q0 -47 -12.5 -87t-39.5 -69.5t-69.5 -46t-102.5 -16.5h-227v-268h-32zM374 673h-223v-377h231q88 0 138 48t50 142q0 99 -48 143t-148 44z" />
<glyph unicode="Q" horiz-adv-x="758" d="M533 21l97 -113h-37l-87 101q-28 -9 -60 -14t-67 -5q-72 0 -127.5 19.5t-93.5 62.5t-57.5 111.5t-19.5 166.5t20 166.5t58 111.5t93.5 62.5t126.5 19.5q72 0 128 -19.5t94 -62.5t57.5 -111.5t19.5 -166.5q0 -135 -37.5 -214.5t-107.5 -114.5zM379 683q-62 0 -111.5 -16.5 t-84 -55.5t-52.5 -103t-18 -158q0 -93 18 -157t52.5 -103t84 -56t111.5 -17q59 0 107 15l-102 119h38l92 -108q63 31 97.5 104.5t34.5 203.5q0 93 -18 156.5t-52.5 102.5t-84 56t-112.5 17z" />
<glyph unicode="R" horiz-adv-x="654" d="M373 673h-222v-357h230q88 0 137.5 45t49.5 135q0 94 -47.5 135.5t-147.5 41.5zM119 0v700h253q122 0 175 -50t53 -153q0 -38 -9 -71t-27.5 -59.5t-48 -45t-71.5 -26.5l163 -295h-34l-161 290q-7 -1 -14 -1.5t-15 -0.5h-232v-288h-32z" />
<glyph unicode="S" horiz-adv-x="606" d="M526 587l-26 -16q-33 57 -80.5 85t-128.5 28q-96 0 -145.5 -41t-49.5 -110q0 -56 40.5 -95.5t135.5 -59.5l61 -13q58 -12 98.5 -30t65.5 -42t36 -54t11 -67t-14 -70t-43.5 -58t-76 -39.5t-112.5 -14.5q-91 0 -153.5 30t-104.5 99l26 17q20 -32 42.5 -54.5t50 -37t62 -21 t77.5 -6.5q103 0 159 39t56 117q0 27 -7.5 51t-28 44.5t-56 37t-91.5 28.5l-70 15q-91 20 -143 63.5t-52 120.5q0 36 13 68.5t41 56.5t71 38t102 14q90 0 144.5 -31.5t89.5 -91.5z" />
<glyph unicode="T" horiz-adv-x="560" d="M14 700h532v-27h-250v-673h-32v673h-250v27z" />
<glyph unicode="U" horiz-adv-x="734" d="M605 260v440h32v-440q0 -70 -18.5 -121t-53.5 -84t-85 -49t-113 -16q-127 0 -198.5 65t-71.5 205v440h32v-440q0 -66 17 -112t48 -75t75 -42.5t98 -13.5t98 13.5t75 42.5t48 75t17 112z" />
<glyph unicode="V" horiz-adv-x="588" d="M13 700h33l248 -668l249 668h33l-262 -700h-39z" />
<glyph unicode="W" horiz-adv-x="902" d="M433 692h32l185 -648l204 656h31l-219 -700h-33l-185 645l-183 -645h-34l-215 700h33l199 -657z" />
<glyph unicode="X" horiz-adv-x="621" d="M557 0l-248 340l-246 -340h-38l266 365l-242 335h36l226 -311l225 311h36l-243 -335l267 -365h-39z" />
<glyph unicode="Y" horiz-adv-x="590" d="M279 286l-258 414h35l239 -385l240 385h34l-258 -414v-286h-32v286z" />
<glyph unicode="Z" horiz-adv-x="571" d="M31 0v25l468 648h-447v27h485v-25l-469 -648h480v-27h-517z" />
<glyph unicode="[" horiz-adv-x="339" d="M109 -101v805h156v-24h-127v-757h136v-24h-165z" />
<glyph unicode="\" horiz-adv-x="472" d="M404 0l-390 700h33l390 -700h-33z" />
<glyph unicode="]" horiz-adv-x="339" d="M65 -101v24h136v757h-127v24h156v-805h-165z" />
<glyph unicode="^" horiz-adv-x="376" d="M176 701h27l148 -299h-31l-131 267q-12 -25 -30 -61t-37 -73.5t-37 -73t-30 -59.5h-30z" />
<glyph unicode="_" horiz-adv-x="479" d="M484 0v-25h-489v25h489z" />
<glyph unicode="`" horiz-adv-x="600" d="M293 563l-100 104v4h43l84 -105v-3h-27z" />
<glyph unicode="a" horiz-adv-x="555" d="M237 16q88 0 135.5 53.5t55.5 147.5v40h-154q-87 0 -133 -29.5t-46 -94.5q0 -57 36.5 -87t105.5 -30zM229 -10q-75 0 -120 36.5t-45 105.5q0 76 54 113t153 37h157v12q0 48 -9.5 80.5t-29 52t-49.5 27.5t-70 8q-63 0 -101 -18.5t-61 -51.5l-19 19q27 40 73.5 58.5 t109.5 18.5q94 0 140 -42.5t46 -145.5v-300h-30v117q-23 -61 -74.5 -94t-124.5 -33z" />
<glyph unicode="b" horiz-adv-x="599" d="M134 700v-342q24 66 75 98t120 32q99 0 151 -63.5t52 -184.5q0 -120 -54.5 -185t-157.5 -65q-63 0 -113 29t-74 93l-2 -112h-28v700h31zM134 234q0 -56 14 -97t38 -68t57.5 -40t72.5 -13q93 0 138.5 58t45.5 165q0 109 -44.5 166t-132.5 57q-41 0 -76 -14t-60 -42.5 t-39 -71t-14 -100.5z" />
<glyph unicode="c" horiz-adv-x="536" d="M289 -10q-109 0 -165 60.5t-56 186.5q0 129 56.5 190t165.5 61q69 0 114 -25t71 -72l-24 -16q-22 45 -63.5 66t-97.5 21q-95 0 -143 -53t-48 -172q0 -116 47.5 -168.5t142.5 -52.5q64 0 105 24t63 77l24 -13q-24 -60 -72.5 -87t-119.5 -27z" />
<glyph unicode="d" horiz-adv-x="599" d="M466 245q0 55 -14 96t-38.5 68t-58 40t-72.5 13q-93 0 -138.5 -58.5t-45.5 -164.5q0 -109 45.5 -166t136.5 -57q40 0 74 14t58.5 42t38.5 71t14 102zM468 0l-2 119q-23 -66 -74 -97.5t-118 -31.5q-100 0 -153 64t-53 185q0 120 54.5 184.5t157.5 64.5q63 0 111.5 -29.5 t74.5 -89.5v331h30v-700h-28z" />
<glyph unicode="e" horiz-adv-x="540" d="M287 -10q-105 0 -162 60.5t-57 188.5q0 124 55.5 186.5t158.5 62.5q99 0 151 -60.5t52 -175.5q0 -5 -0.5 -8.5t-0.5 -6.5v-6h-385q2 -112 49.5 -163.5t139.5 -51.5q64 0 106.5 24t62.5 77l24 -13q-24 -60 -73.5 -87t-120.5 -27zM281 462q-87 0 -133 -52t-49 -154h355 q-5 206 -173 206z" />
<glyph unicode="f" horiz-adv-x="344" d="M37 478h97v87q0 77 32 110t92 33q21 0 41 -3.5t40 -13.5l-6 -26q-17 8 -33 11.5t-39 3.5q-48 0 -72.5 -26.5t-24.5 -93.5v-82h168v-25h-168v-453h-30v453h-97v25z" />
<glyph unicode="g" horiz-adv-x="596" d="M462 247q0 55 -14 95.5t-38.5 67t-58 39.5t-72.5 13q-91 0 -135.5 -57.5t-44.5 -163.5q0 -107 44.5 -164t133.5 -57q40 0 74 13.5t59 41.5t38.5 71t13.5 101zM492 478v-478q0 -55 -16.5 -94t-46 -63.5t-70.5 -36t-90 -11.5q-63 0 -114.5 22t-83.5 83l23 17 q29 -55 73 -75.5t102 -20.5q43 0 78.5 9.5t61 31t39.5 56.5t14 86v117q-24 -66 -74.5 -96.5t-116.5 -30.5q-98 0 -150.5 63t-52.5 184q0 118 52.5 182.5t153.5 64.5q66 0 115 -30t73 -92l4 112h26z" />
<glyph unicode="h" horiz-adv-x="605" d="M134 700v-351q23 69 75.5 104t125.5 35q85 0 129.5 -44.5t44.5 -138.5v-305h-31v296q0 46 -11 77.5t-31 51t-48 28t-62 8.5q-44 0 -78.5 -15t-58.5 -42.5t-38 -65.5t-17 -83v-255h-31v700h31z" />
<glyph unicode="i" horiz-adv-x="243" d="M91 610q0 30 30 30q31 0 31 -30q0 -14 -8.5 -22t-22.5 -8t-22 8t-8 22zM106 478h31v-478h-31v478z" />
<glyph unicode="j" horiz-adv-x="243" d="M91 610q0 30 30 30q31 0 31 -30q0 -14 -8.5 -22t-22.5 -8t-22 8t-8 22zM106 -56v534h31v-540q0 -76 -28 -109.5t-81 -33.5q-19 0 -36 2.5t-37 10.5l6 25q16 -6 30 -9t34 -3q41 0 61 27t20 96z" />
<glyph unicode="k" horiz-adv-x="501" d="M104 0v700h31v-527l289 305h38l-200 -210l215 -268h-38l-197 247l-107 -111v-136h-31z" />
<glyph unicode="l" horiz-adv-x="248" d="M187 0q-42 0 -65 22t-23 70v608h31v-603q0 -44 17.5 -57t46.5 -13h43v-27h-50z" />
<glyph unicode="m" horiz-adv-x="904" d="M103 0v478h27l3 -124q23 67 71 100.5t111 33.5q66 0 104.5 -36t46.5 -105q20 70 70 105.5t117 35.5q77 0 116 -44t39 -137v-307h-31v297q0 46 -9.5 77.5t-26.5 50.5t-41.5 27.5t-54.5 8.5q-77 0 -123 -53.5t-51 -145.5v-262h-31v296q0 46 -9.5 77.5t-27.5 51t-42.5 28 t-54.5 8.5q-76 0 -120.5 -53.5t-51.5 -150.5v-257h-31z" />
<glyph unicode="n" horiz-adv-x="605" d="M103 478h27l4 -126q24 68 76 102t125 34q85 0 129.5 -44.5t44.5 -138.5v-305h-31v296q0 46 -11 77.5t-30.5 51t-48 28t-62.5 8.5q-44 0 -78 -15t-58.5 -42.5t-38.5 -65.5t-17 -83v-255h-31v478z" />
<glyph unicode="o" horiz-adv-x="577" d="M68 238q0 128 56 189t165 61t164.5 -61t55.5 -189q0 -127 -55.5 -187.5t-164.5 -60.5t-165 60t-56 188zM478 237q0 115 -46 170t-143 55q-98 0 -144 -55t-46 -170q0 -113 46 -167t144 -54q97 0 143 54t46 167z" />
<glyph unicode="p" horiz-adv-x="599" d="M134 234q0 -56 14 -97t38 -68t57.5 -40t72.5 -13q93 0 138.5 58.5t45.5 165.5q0 108 -43 165t-131 57q-42 0 -77 -14t-60.5 -42.5t-40 -71t-14.5 -100.5zM103 478h27l3 -121q24 66 76.5 98.5t123.5 32.5q97 0 148 -63.5t51 -184.5q0 -120 -55 -185t-158 -65 q-62 0 -110.5 28.5t-74.5 88.5v-293h-31v664z" />
<glyph unicode="q" horiz-adv-x="599" d="M496 -186h-30v304q-24 -65 -74.5 -96.5t-117.5 -31.5q-100 0 -153 64t-53 185q0 119 54.5 184t157.5 65q63 0 112 -29.5t74 -91.5l3 111h27v-664zM466 245q0 55 -14 96t-38.5 68t-58 40t-72.5 13q-93 0 -138.5 -58t-45.5 -165q0 -109 45.5 -166t136.5 -57q40 0 74 14 t58.5 42t38.5 71t14 102z" />
<glyph unicode="r" horiz-adv-x="332" d="M103 0v478h27l2 -135q23 67 72 103.5t113 34.5v-29q-79 2 -127 -50t-56 -151v-251h-31z" />
<glyph unicode="s" horiz-adv-x="502" d="M254 15q80 0 112.5 30t32.5 73q0 19 -6 35t-20.5 28.5t-39 22.5t-62.5 19l-53 12q-68 15 -104 44.5t-36 83.5q0 56 40.5 90.5t126.5 34.5q54 0 94 -16t73 -57l-21 -20q-30 38 -64.5 52.5t-82.5 14.5q-69 0 -102.5 -26t-33.5 -72q0 -38 25 -61.5t92 -38.5l53 -12 q46 -11 75.5 -24t46.5 -29.5t23 -35.5t6 -41q0 -28 -9.5 -52t-30.5 -42t-55 -28t-82 -10q-66 0 -113 20t-84 69l22 19q32 -43 73 -63t104 -20z" />
<glyph unicode="t" horiz-adv-x="342" d="M19 478h96v148h30v-148h168v-25h-168v-288q0 -46 8 -74.5t22.5 -44.5t34.5 -22t45 -6q22 0 36.5 3t31.5 8l6 -26q-26 -8 -43.5 -10.5t-38.5 -2.5q-62 0 -97 37t-35 123v303h-96v25z" />
<glyph unicode="u" horiz-adv-x="604" d="M474 0l-3 122q-23 -65 -74.5 -98.5t-123.5 -33.5q-87 0 -132 47.5t-45 144.5v296h31v-289q0 -48 11 -80.5t31 -53t48 -29.5t62 -9q46 0 80 14.5t57.5 40t37 61t16.5 77.5v268h31v-478h-27z" />
<glyph unicode="v" horiz-adv-x="466" d="M13 478h33l187 -448l188 448h32l-203 -478h-34z" />
<glyph unicode="w" horiz-adv-x="696" d="M333 467h32l140 -432l148 443h31l-162 -478h-35l-139 428l-138 -428h-35l-162 478h31l149 -443z" />
<glyph unicode="x" horiz-adv-x="484" d="M39 478h37l166 -209l166 209h36l-184 -230l200 -248h-38l-181 226l-180 -226h-37l199 248z" />
<glyph unicode="y" horiz-adv-x="466" d="M198 -48l18 46l-204 480h33l188 -448l188 448h32l-229 -538q-20 -46 -40.5 -74.5t-42 -44t-44 -21t-46.5 -5.5q-19 0 -36 2.5t-37 10.5l5 26q17 -6 31.5 -9t35.5 -3q19 0 37.5 4t36.5 17.5t36.5 39.5t37.5 69z" />
<glyph unicode="z" horiz-adv-x="469" d="M40 0v24l342 429h-333v25h370v-24l-343 -429h349v-25h-385z" />
<glyph unicode="{" horiz-adv-x="347" d="M270 -73q-52 6 -79 31.5t-27 77.5q0 35 6.5 68.5t6.5 65.5q0 72 -27 105t-97 33h-21v24h21q70 0 97 33t27 105q0 30 -6.5 65t-6.5 70q0 51 27 76.5t79 31.5l3 -25q-38 -5 -59 -25t-21 -60q0 -30 6 -65.5t6 -69.5q0 -66 -21 -101.5t-75 -46.5q54 -11 75 -46.5t21 -100.5 q0 -35 -6 -70.5t-6 -64.5q0 -41 21 -61t59 -25z" />
<glyph unicode="|" horiz-adv-x="267" d="M119 -65v831h29v-831h-29z" />
<glyph unicode="}" horiz-adv-x="347" d="M81 -48q38 5 59 25t21 61q0 29 -6 64.5t-6 70.5q0 65 21 100.5t75 46.5q-54 11 -75 46.5t-21 101.5q0 34 6 69.5t6 65.5q0 40 -21 60t-59 25l3 25q52 -6 79 -31.5t27 -76.5q0 -35 -6.5 -70t-6.5 -65q0 -72 27 -105t97 -33h21v-24h-21q-70 0 -97 -33t-27 -105 q0 -32 6.5 -65.5t6.5 -68.5q0 -52 -27 -77.5t-79 -31.5z" />
<glyph unicode="~" horiz-adv-x="490" d="M436 399l29 -4q-4 -32 -14.5 -52.5t-25.5 -32.5t-33 -17t-37 -5q-34 0 -61 13t-52.5 28.5t-50.5 28.5t-55 13q-14 0 -27 -3.5t-24.5 -13t-19.5 -25.5t-11 -41l-29 5q4 31 14.5 52t25.5 33t33 17t38 5q33 0 59.5 -13t52 -28.5t51 -28.5t55.5 -13q13 0 26.5 3.5t25 12.5 t19.5 25t11 41z" />
<glyph unicode="&#xa1;" horiz-adv-x="209" d="M91 -194l5 530h27l5 -530h-37zM140 482q0 -30 -31 -30q-14 0 -22 8t-8 22t8 22t22 8t22.5 -8t8.5 -22z" />
<glyph unicode="&#xa2;" horiz-adv-x="541" d="M102 252q0 -106 42.5 -156t130.5 -54v423q-88 -4 -130.5 -54t-42.5 -159zM275 -62v78q-101 4 -153 61.5t-52 174.5q0 118 52 176.5t153 62.5v80h27v-79q64 -2 106 -26.5t66 -69.5l-23 -15q-21 41 -59.5 61.5t-89.5 22.5v-423q59 1 97 25t59 73l25 -12q-23 -57 -69 -84 t-112 -29v-77h-27z" />
<glyph unicode="&#xa3;" horiz-adv-x="569" d="M51 0v26h20q42 0 58 27t14 88l-7 183h-85v25h84l-6 171q-3 91 43 140.5t146 49.5q76 0 121 -32t75 -89l-24 -16q-27 53 -66.5 82t-106.5 29q-79 0 -119.5 -40.5t-37.5 -122.5l6 -172h233v-25h-231l6 -182q2 -51 -9 -79t-31 -37h239q42 0 78.5 10.5t67.5 49.5l19 -18 q-35 -43 -75.5 -55.5t-89.5 -12.5h-322z" />
<glyph unicode="&#xa5;" horiz-adv-x="590" d="M522 288v-25h-211v-263h-32v263h-211v25h210l-38 59h-172v25h158l-205 328h35l239 -385l240 385h34l-205 -328h158v-25h-174l-36 -59h210z" />
<glyph unicode="&#xa6;" horiz-adv-x="267" d="M119 376v390h29v-390h-29zM119 -65v389h29v-389h-29z" />
<glyph unicode="&#xa7;" horiz-adv-x="519" d="M428 335q0 18 -6 34t-20.5 29.5t-39 23.5t-60.5 18l-41 9q-20 4 -44.5 1.5t-46 -14t-36 -31.5t-14.5 -51q-1 -35 26 -62t94 -42l42 -10q20 -4 45.5 -2t48 13t37.5 31.5t15 52.5zM265 -22q-64 0 -111 20t-83 69l22 17q31 -42 71.5 -61.5t102.5 -19.5q40 0 67 7.5t43.5 21 t24 32t7.5 39.5q0 20 -6 36.5t-20 30t-39 24t-62 19.5l-46 10q-69 17 -107 47.5t-38 85.5q0 42 28.5 73.5t88.5 38.5q-47 17 -73 46.5t-26 74.5q0 54 36.5 87.5t119.5 33.5q52 0 91.5 -16t71.5 -55l-20 -19q-30 37 -63.5 51t-79.5 14q-66 0 -96.5 -24.5t-30.5 -71.5 q0 -35 27 -65.5t92 -45.5l49 -11q49 -12 79 -26.5t46 -31t21.5 -34.5t5.5 -37q0 -45 -29 -77t-85 -40q29 -11 47.5 -23.5t29 -27t14.5 -31t4 -34.5q0 -55 -39.5 -90.5t-134.5 -36.5z" />
<glyph unicode="&#xa8;" horiz-adv-x="600" d="M341 610q0 14 8.5 22t22.5 8q31 0 31 -30t-31 -30q-14 0 -22.5 8t-8.5 22zM206 610q0 14 8 22t22 8q31 0 31 -30t-31 -30q-14 0 -22 8t-8 22z" />
<glyph unicode="&#xa9;" horiz-adv-x="822" d="M78 349q0 75 22.5 137t65 106t104.5 68t141 24t141 -24t104.5 -68t65 -106t22.5 -137q0 -76 -22.5 -138t-65 -106t-104.5 -68t-141 -24t-141 24t-104.5 68t-65 106t-22.5 138zM98 349q0 -74 21.5 -132.5t61.5 -100t98 -63.5t132 -22q73 0 131.5 22t99 63.5t62 100 t21.5 132.5q0 73 -21.5 131.5t-62 100t-99 63.5t-131.5 22q-74 0 -132 -22t-98 -63.5t-61.5 -100t-21.5 -131.5zM417 172q-84 0 -127 43.5t-43 134.5q0 93 43 137t127 44q52 0 86 -18.5t53 -52.5l-18 -13q-17 32 -48 47.5t-73 15.5q-72 0 -108.5 -37.5t-36.5 -122.5 q0 -82 36.5 -119t108.5 -37q93 0 125 71l19 -11q-19 -43 -55.5 -62.5t-88.5 -19.5z" />
<glyph unicode="&#xaa;" horiz-adv-x="397" d="M173 380q62 0 97 39.5t36 114.5v12h-106q-60 0 -93 -20.5t-33 -64.5q0 -39 25.5 -60t73.5 -21zM166 360q-54 0 -85.5 25.5t-31.5 74.5q0 54 39 80t111 26h107v7q0 67 -27 91t-83 24q-45 0 -71.5 -13t-43.5 -36l-14 17q19 28 52.5 41t79.5 13q66 0 99 -29.5t33 -103.5 v-210h-22l-2 82q-32 -89 -141 -89z" />
<glyph unicode="&#xab;" horiz-adv-x="587" d="M441 0l-193 238v3l191 237h36l-193 -238l195 -240h-36zM257 0l-191 238v3l191 237h36l-193 -239l194 -239h-37z" />
<glyph unicode="&#xad;" horiz-adv-x="394" d="M345 256v-26h-295v26h295z" />
<glyph unicode="&#xae;" horiz-adv-x="473" d="M58 531q0 81 47 130t132 49q84 0 131 -49t47 -130q0 -80 -47 -129.5t-131 -49.5q-85 0 -132 49.5t-47 129.5zM74 531q0 -76 43.5 -120.5t119.5 -44.5q75 0 118.5 44.5t43.5 120.5t-43.5 120t-118.5 44q-76 0 -119.5 -44t-43.5 -120zM244 611h-56v-85h54q16 0 30.5 9 t14.5 34q0 20 -10.5 31t-32.5 11zM172 445v180h73q29 0 44 -14.5t15 -40.5q0 -21 -10.5 -35t-28.5 -20l36 -70h-18l-35 68h-60v-68h-16z" />
<glyph unicode="&#xaf;" horiz-adv-x="600" d="M424 626v-23h-227v23h227z" />
<glyph unicode="&#xb0;" horiz-adv-x="454" d="M228 362q-83 0 -128.5 47.5t-45.5 125.5t45.5 126t128.5 48q81 0 126.5 -48t45.5 -126t-45.5 -125.5t-126.5 -47.5zM228 686q-70 0 -109 -41t-39 -110t39 -109.5t109 -40.5q69 0 107.5 40.5t38.5 109.5t-38.5 110t-107.5 41z" />
<glyph unicode="&#xb1;" horiz-adv-x="487" d="M258 119h-27v177h-181v25h181v185h27v-185h179v-25h-179v-177zM437 26v-26h-387v26h387z" />
<glyph unicode="&#xb2;" horiz-adv-x="350" d="M30 295zM30 295v23l163 161q46 46 61.5 75t15.5 52q0 40 -25 60t-72 20q-48 0 -74.5 -18.5t-45.5 -53.5l-20 15q22 39 54 59.5t87 20.5q62 0 92.5 -27t30.5 -72q0 -16 -4 -31.5t-14 -33t-26.5 -37t-40.5 -43.5l-145 -146l253 1v-25h-290z" />
<glyph unicode="&#xb3;" horiz-adv-x="363" d="M33 288zM173 288q-51 0 -84.5 16.5t-55.5 53.5l20 15q20 -32 48 -46.5t70 -14.5q63 0 91.5 26t28.5 71q0 18 -5 34t-16 28t-30 19t-47 7h-62v23h62q36 0 60.5 22t24.5 62q0 82 -103 82q-43 0 -68 -15.5t-45 -48.5l-19 13q21 38 52 56t82 18q65 0 96.5 -27.5t31.5 -75.5 q0 -35 -17.5 -60t-49.5 -36q24 -5 39.5 -15.5t24.5 -24t12.5 -29t3.5 -31.5q0 -57 -36 -89.5t-109 -32.5z" />
<glyph unicode="&#xb4;" horiz-adv-x="600" d="M399 667l-100 -104h-27v3l84 105h43v-4z" />
<glyph unicode="&#xb6;" horiz-adv-x="624" d="M106 486q0 -94 50 -142t138 -48h80v377h-73q-100 0 -147.5 -44t-47.5 -143zM486 673h-81v-377h81v377zM517 700v-700h-31v268h-81v-268h-31v268h-74q-60 0 -103 16.5t-70.5 46t-40 69.5t-12.5 87q0 106 54.5 159.5t177.5 53.5h211z" />
<glyph unicode="&#xb7;" horiz-adv-x="198" d="M68 305zM68 335q0 30 31 30t31 -30q0 -14 -8.5 -22t-22.5 -8t-22.5 8t-8.5 22z" />
<glyph unicode="&#xb8;" horiz-adv-x="600" d="M314 0h24l-17 -82q2 1 7 1h11q14 0 27.5 -3.5t24.5 -11t17.5 -20t6.5 -30.5q0 -37 -26.5 -56t-72.5 -19q-33 0 -56 11t-40 37l17 15q15 -23 32 -32.5t46 -9.5q75 0 75 54q0 27 -18 37t-41 10q-6 0 -12 -0.5t-14 -2.5l-11 8z" />
<glyph unicode="&#xb9;" horiz-adv-x="184" d="M14 295zM112 295h-27v373l-60 -49l-11 22l80 62h18v-408z" />
<glyph unicode="&#xba;" horiz-adv-x="415" d="M51 534q0 91 40 133.5t117 42.5t116.5 -42.5t39.5 -133.5q0 -89 -39.5 -131.5t-116.5 -42.5t-117 42t-40 132zM338 534q0 79 -31.5 117t-98.5 38q-131 0 -131 -155q0 -78 31.5 -115.5t99.5 -37.5q66 0 98 37.5t32 115.5z" />
<glyph unicode="&#xbb;" horiz-adv-x="587" d="M146 480l193 -238v-3l-191 -237h-36l193 238l-195 240h36zM330 480l191 -238v-3l-191 -237h-36l193 239l-194 239h37z" />
<glyph unicode="&#xbc;" horiz-adv-x="800" d="M14 0zM112 293h-27v373l-60 -49l-11 22l80 62h18v-408zM501 700l-332 -700h-30l334 700h28zM454 110v21l145 276h28l-145 -273h204v203h27v-203h68v-24h-68v-110h-27v110h-232z" />
<glyph unicode="&#xbd;" horiz-adv-x="771" d="M14 0zM451 0v23l163 161q46 46 61.5 75t15.5 52q0 40 -25 60t-72 20q-48 0 -74.5 -18.5t-45.5 -53.5l-20 15q22 39 54 59.5t87 20.5q62 0 92.5 -27t30.5 -72q0 -16 -4 -31.5t-14 -33t-26.5 -37t-40.5 -43.5l-145 -146l253 1v-25h-290zM112 293h-27v373l-60 -49l-11 22 l80 62h18v-408zM501 700l-332 -700h-30l334 700h28z" />
<glyph unicode="&#xbe;" horiz-adv-x="937" d="M33 0zM173 286q-51 0 -84.5 16.5t-55.5 53.5l20 15q20 -32 48 -46.5t70 -14.5q63 0 91.5 26t28.5 71q0 18 -5 34t-16 28t-30 19t-47 7h-62v23h62q36 0 60.5 22t24.5 62q0 82 -103 82q-43 0 -68 -15.5t-45 -48.5l-19 13q21 38 52 56t82 18q65 0 96.5 -27.5t31.5 -75.5 q0 -35 -17.5 -60t-49.5 -36q24 -5 39.5 -15.5t24.5 -24t12.5 -29t3.5 -31.5q0 -57 -36 -89.5t-109 -32.5zM644 700l-332 -700h-30l334 700h28zM590 110v21l145 276h28l-145 -273h204v203h27v-203h68v-24h-68v-110h-27v110h-232z" />
<glyph unicode="&#xbf;" horiz-adv-x="490" d="M255 336v-131h-19q-103 0 -156 -52.5t-53 -142.5q0 -89 56.5 -137.5t154.5 -48.5q76 0 126 29t82 97l25 -15q-35 -74 -91.5 -106.5t-143.5 -32.5q-55 0 -99.5 14.5t-76 42t-48.5 67t-17 88.5q0 99 60 157.5t169 60.5v110h31zM270 482q0 -14 -8 -22t-22 -8q-31 0 -31 30 q0 14 8.5 22t22.5 8t22 -8t8 -22z" />
<glyph unicode="&#xc0;" horiz-adv-x="589" d="M14 0zM294 667l-175 -469h349zM541 0l-63 171h-368l-63 -171h-33l261 700h39l261 -700h-34zM286 785l-100 104v4h43l84 -105v-3h-27z" />
<glyph unicode="&#xc1;" horiz-adv-x="589" d="M14 0zM294 667l-175 -469h349zM541 0l-63 171h-368l-63 -171h-33l261 700h39l261 -700h-34zM405 889l-100 -104h-27v3l84 105h43v-4z" />
<glyph unicode="&#xc2;" horiz-adv-x="589" d="M14 0zM294 667l-175 -469h349zM541 0l-63 171h-368l-63 -171h-33l261 700h39l261 -700h-34zM296 871l-95 -86h-36v2l118 106h27l118 -106v-2h-38z" />
<glyph unicode="&#xc3;" horiz-adv-x="589" d="M14 0zM294 667l-175 -469h349zM541 0l-63 171h-368l-63 -171h-33l261 700h39l261 -700h-34zM395 878h25q0 -23 -6 -37.5t-16 -23t-21.5 -11.5t-21.5 -3q-21 0 -36 8.5t-28 19t-26 19t-30 8.5q-14 0 -27 -10t-14 -41h-25q0 23 6 37.5t15.5 23t20.5 11.5t22 3q21 0 36 -8.5 t28 -19t26.5 -19t31.5 -8.5q17 0 28 11t12 40z" />
<glyph unicode="&#xc4;" horiz-adv-x="589" d="M14 0zM294 667l-175 -469h349zM541 0l-63 171h-368l-63 -171h-33l261 700h39l261 -700h-34zM332 832q0 14 8.5 22t22.5 8q31 0 31 -30t-31 -30q-14 0 -22.5 8t-8.5 22zM197 832q0 14 8 22t22 8q31 0 31 -30t-31 -30q-14 0 -22 8t-8 22z" />
<glyph unicode="&#xc5;" horiz-adv-x="589" d="M14 0zM294 667l-175 -469h349zM541 0l-63 171h-368l-63 -171h-33l261 700h39l261 -700h-34zM211 851q0 38 24.5 62t61.5 24q35 0 59 -24t24 -62t-24 -62t-61 -24q-35 0 -59.5 24t-24.5 62zM231 851q0 -29 19 -48.5t45 -19.5q28 0 46.5 19.5t18.5 48.5t-18.5 48.5 t-44.5 19.5q-28 0 -47 -19.5t-19 -48.5z" />
<glyph unicode="&#xc6;" horiz-adv-x="867" d="M291 668l-175 -470h340zM525 0l-61 171h-358l-63 -171h-33l262 700h548v-27h-498l109 -307h333v-28h-324l110 -311h280v-27h-305z" />
<glyph unicode="&#xc7;" horiz-adv-x="693" d="M364 -221q-33 0 -56 11t-40 37l17 15q15 -23 32 -32.5t46 -9.5q75 0 75 54q0 27 -18 37t-41 10q-6 0 -12 -0.5t-14 -2.5l-11 8l18 84q-66 3 -118 24t-87.5 64t-54.5 110t-19 162q0 99 20.5 167.5t58.5 111t93.5 62t126.5 19.5q86 0 148.5 -30t98.5 -99l-26 -17 q-34 65 -90 92t-131 27q-61 0 -110.5 -16.5t-84 -55.5t-53.5 -102.5t-19 -157.5t19 -158t53.5 -103t84 -56t110.5 -17q78 0 137 29t96 100l24 -16q-39 -76 -103.5 -108t-149.5 -32l-15 -72q2 1 7 1h11q14 0 27.5 -3.5t24.5 -11t17.5 -20t6.5 -30.5q0 -37 -26.5 -56 t-72.5 -19z" />
<glyph unicode="&#xc8;" horiz-adv-x="643" d="M119 0zM119 0v700h477v-27h-446v-307h391v-28h-391v-311h456v-27h-487zM354 785l-100 104v4h43l84 -105v-3h-27z" />
<glyph unicode="&#xc9;" horiz-adv-x="643" d="M119 0zM474 889l-100 -104h-27v3l84 105h43v-4zM119 0v700h477v-27h-446v-307h391v-28h-391v-311h456v-27h-487z" />
<glyph unicode="&#xca;" horiz-adv-x="643" d="M119 0zM365 871l-95 -86h-36v2l118 106h27l118 -106v-2h-38zM119 0v700h477v-27h-446v-307h391v-28h-391v-311h456v-27h-487z" />
<glyph unicode="&#xcb;" horiz-adv-x="643" d="M119 0zM400 832q0 14 8.5 22t22.5 8q31 0 31 -30t-31 -30q-14 0 -22.5 8t-8.5 22zM265 832q0 14 8 22t22 8q31 0 31 -30t-31 -30q-14 0 -22 8t-8 22zM119 0v700h477v-27h-446v-307h391v-28h-391v-311h456v-27h-487z" />
<glyph unicode="&#xcc;" horiz-adv-x="270" d="M26 0zM119 0v700h32v-700h-32zM126 785l-100 104v4h43l84 -105v-3h-27z" />
<glyph unicode="&#xcd;" horiz-adv-x="270" d="M118 0zM119 0v700h32v-700h-32zM245 889l-100 -104h-27v3l84 105h43v-4z" />
<glyph unicode="&#xce;" horiz-adv-x="270" d="M5 0zM119 0v700h32v-700h-32zM136 871l-95 -86h-36v2l118 106h27l118 -106v-2h-38z" />
<glyph unicode="&#xcf;" horiz-adv-x="270" d="M37 0zM119 0v700h32v-700h-32zM172 832q0 14 8.5 22t22.5 8q31 0 31 -30t-31 -30q-14 0 -22.5 8t-8.5 22zM37 832q0 14 8 22t22 8q31 0 31 -30t-31 -30q-14 0 -22 8t-8 22z" />
<glyph unicode="&#xd0;" horiz-adv-x="745" d="M377 0h-245v354h-84v25h84v321h245q68 0 121.5 -18.5t90.5 -59t56.5 -106t19.5 -158.5q0 -95 -19.5 -163t-56.5 -111.5t-90.5 -63.5t-121.5 -20zM164 27h211q58 0 105.5 17.5t81.5 56.5t52.5 102t18.5 155q0 88 -18 148.5t-51.5 97.5t-81 53t-105.5 16h-213v-294h184v-25 h-184v-327z" />
<glyph unicode="&#xd1;" horiz-adv-x="766" d="M119 0zM614 0l-465 656l1 -656h-31v700h35l463 -652l-1 652h31v-700h-33zM482 878h25q0 -23 -6 -37.5t-16 -23t-21.5 -11.5t-21.5 -3q-21 0 -36 8.5t-28 19t-26 19t-30 8.5q-14 0 -27 -10t-14 -41h-25q0 23 6 37.5t15.5 23t20.5 11.5t22 3q21 0 36 -8.5t28 -19t26.5 -19 t31.5 -8.5q17 0 28 11t12 40z" />
<glyph unicode="&#xd2;" horiz-adv-x="759" d="M81 0zM379 -10q-72 0 -127.5 19.5t-93.5 62.5t-57.5 111.5t-19.5 166.5t20 166.5t58 111.5t93.5 62.5t126.5 19.5q72 0 128 -19.5t94 -62.5t57.5 -111.5t19.5 -166.5t-20 -166.5t-58 -111.5t-93.5 -62.5t-127.5 -19.5zM379 683q-62 0 -111.5 -16.5t-84 -55.5t-52.5 -103 t-18 -158q0 -93 18 -157t52.5 -103t84 -56t111.5 -17q63 0 112.5 17t84 56t52.5 103t18 158q0 93 -18 156.5t-52.5 102.5t-84 56t-112.5 17zM370 786l-100 104v4h43l84 -105v-3h-27z" />
<glyph unicode="&#xd3;" horiz-adv-x="759" d="M81 0zM489 889l-100 -104h-27v3l84 105h43v-4zM379 -10q-72 0 -127.5 19.5t-93.5 62.5t-57.5 111.5t-19.5 166.5t20 166.5t58 111.5t93.5 62.5t126.5 19.5q72 0 128 -19.5t94 -62.5t57.5 -111.5t19.5 -166.5t-20 -166.5t-58 -111.5t-93.5 -62.5t-127.5 -19.5zM379 683 q-62 0 -111.5 -16.5t-84 -55.5t-52.5 -103t-18 -158q0 -93 18 -157t52.5 -103t84 -56t111.5 -17q63 0 112.5 17t84 56t52.5 103t18 158q0 93 -18 156.5t-52.5 102.5t-84 56t-112.5 17z" />
<glyph unicode="&#xd4;" horiz-adv-x="759" d="M81 0zM380 871l-95 -86h-36v2l118 106h27l118 -106v-2h-38zM379 -10q-72 0 -127.5 19.5t-93.5 62.5t-57.5 111.5t-19.5 166.5t20 166.5t58 111.5t93.5 62.5t126.5 19.5q72 0 128 -19.5t94 -62.5t57.5 -111.5t19.5 -166.5t-20 -166.5t-58 -111.5t-93.5 -62.5t-127.5 -19.5 zM379 683q-62 0 -111.5 -16.5t-84 -55.5t-52.5 -103t-18 -158q0 -93 18 -157t52.5 -103t84 -56t111.5 -17q63 0 112.5 17t84 56t52.5 103t18 158q0 93 -18 156.5t-52.5 102.5t-84 56t-112.5 17z" />
<glyph unicode="&#xd5;" horiz-adv-x="759" d="M81 0zM379 -10q-72 0 -127.5 19.5t-93.5 62.5t-57.5 111.5t-19.5 166.5t20 166.5t58 111.5t93.5 62.5t126.5 19.5q72 0 128 -19.5t94 -62.5t57.5 -111.5t19.5 -166.5t-20 -166.5t-58 -111.5t-93.5 -62.5t-127.5 -19.5zM379 683q-62 0 -111.5 -16.5t-84 -55.5t-52.5 -103 t-18 -158q0 -93 18 -157t52.5 -103t84 -56t111.5 -17q63 0 112.5 17t84 56t52.5 103t18 158q0 93 -18 156.5t-52.5 102.5t-84 56t-112.5 17zM479 878h25q0 -23 -6 -37.5t-16 -23t-21.5 -11.5t-21.5 -3q-21 0 -36 8.5t-28 19t-26 19t-30 8.5q-14 0 -27 -10t-14 -41h-25 q0 23 6 37.5t15.5 23t20.5 11.5t22 3q21 0 36 -8.5t28 -19t26.5 -19t31.5 -8.5q17 0 28 11t12 40z" />
<glyph unicode="&#xd6;" horiz-adv-x="759" d="M81 0zM416 832q0 14 8.5 22t22.5 8q31 0 31 -30t-31 -30q-14 0 -22.5 8t-8.5 22zM281 832q0 14 8 22t22 8q31 0 31 -30t-31 -30q-14 0 -22 8t-8 22zM379 -10q-72 0 -127.5 19.5t-93.5 62.5t-57.5 111.5t-19.5 166.5t20 166.5t58 111.5t93.5 62.5t126.5 19.5 q72 0 128 -19.5t94 -62.5t57.5 -111.5t19.5 -166.5t-20 -166.5t-58 -111.5t-93.5 -62.5t-127.5 -19.5zM379 683q-62 0 -111.5 -16.5t-84 -55.5t-52.5 -103t-18 -158q0 -93 18 -157t52.5 -103t84 -56t111.5 -17q63 0 112.5 17t84 56t52.5 103t18 158q0 93 -18 156.5 t-52.5 102.5t-84 56t-112.5 17z" />
<glyph unicode="&#xd7;" horiz-adv-x="450" d="M89 160l-18 18l135 135l-136 137l19 19l136 -137l137 137l18 -18l-136 -136l136 -136l-19 -20l-137 137z" />
<glyph unicode="&#xd8;" horiz-adv-x="761" d="M91 0h-36l85 97q-29 43 -43.5 105t-14.5 148q0 98 20 166.5t58 111.5t93.5 62.5t127.5 19.5q73 0 129.5 -20.5t94.5 -66.5l67 77h35l-86 -98q29 -43 43.5 -105t14.5 -147q0 -98 -20 -166.5t-58 -111.5t-93.5 -62.5t-126.5 -19.5q-73 0 -129 20.5t-94 65.5zM584 600 q-35 45 -86 64t-117 19q-63 0 -112.5 -16.5t-84 -55.5t-52.5 -103t-18 -158q0 -77 12.5 -133t36.5 -95zM178 99q34 -44 85 -63t118 -19q62 0 111.5 17t84 56t52.5 103t18 158q0 76 -12.5 131.5t-36.5 93.5z" />
<glyph unicode="&#xd9;" horiz-adv-x="734" d="M97 0zM605 260v440h32v-440q0 -70 -18.5 -121t-53.5 -84t-85 -49t-113 -16q-127 0 -198.5 65t-71.5 205v440h32v-440q0 -66 17 -112t48 -75t75 -42.5t98 -13.5t98 13.5t75 42.5t48 75t17 112zM358 785l-100 104v4h43l84 -105v-3h-27z" />
<glyph unicode="&#xda;" horiz-adv-x="734" d="M97 0zM478 888l-100 -104h-27v3l84 105h43v-4zM605 260v440h32v-440q0 -70 -18.5 -121t-53.5 -84t-85 -49t-113 -16q-127 0 -198.5 65t-71.5 205v440h32v-440q0 -66 17 -112t48 -75t75 -42.5t98 -13.5t98 13.5t75 42.5t48 75t17 112z" />
<glyph unicode="&#xdb;" horiz-adv-x="734" d="M97 0zM368 870l-95 -86h-36v2l118 106h27l118 -106v-2h-38zM605 260v440h32v-440q0 -70 -18.5 -121t-53.5 -84t-85 -49t-113 -16q-127 0 -198.5 65t-71.5 205v440h32v-440q0 -66 17 -112t48 -75t75 -42.5t98 -13.5t98 13.5t75 42.5t48 75t17 112z" />
<glyph unicode="&#xdc;" horiz-adv-x="734" d="M97 0zM404 831q0 14 8.5 22t22.5 8q31 0 31 -30t-31 -30q-14 0 -22.5 8t-8.5 22zM269 831q0 14 8 22t22 8q31 0 31 -30t-31 -30q-14 0 -22 8t-8 22zM605 260v440h32v-440q0 -70 -18.5 -121t-53.5 -84t-85 -49t-113 -16q-127 0 -198.5 65t-71.5 205v440h32v-440 q0 -66 17 -112t48 -75t75 -42.5t98 -13.5t98 13.5t75 42.5t48 75t17 112z" />
<glyph unicode="&#xdd;" horiz-adv-x="590" d="M21 0zM279 286l-258 414h35l239 -385l240 385h34l-258 -414v-286h-32v286zM405 889l-100 -104h-27v3l84 105h43v-4z" />
<glyph unicode="&#xde;" horiz-adv-x="644" d="M119 0v700h32v-148h213q116 0 167 -47.5t51 -143.5q0 -42 -12 -78t-37.5 -62t-66 -41t-96.5 -15h-219v-165h-32zM365 524h-214v-332h222q83 0 130 42.5t47 125.5q0 87 -44.5 125.5t-140.5 38.5z" />
<glyph unicode="&#xdf;" horiz-adv-x="598" d="M322 362h-40v25h41q34 0 61 11t45 31t27.5 47.5t9.5 60.5q0 70 -42.5 107t-118.5 37t-122 -46t-46 -145v-489h-31v492q0 64 18 106t47 66t64.5 33.5t70.5 9.5q48 0 83.5 -13t59.5 -35.5t36 -54t12 -68.5q0 -59 -27.5 -100t-77.5 -59q78 -14 115.5 -63t37.5 -121 q0 -45 -12.5 -81.5t-38 -63t-63.5 -41t-90 -14.5q-20 0 -49.5 4t-64.5 20l8 25q30 -14 55 -18t45 -4q86 0 132.5 41.5t46.5 130.5q0 78 -47.5 123.5t-144.5 45.5z" />
<glyph unicode="&#xe0;" horiz-adv-x="555" d="M64 0zM237 16q88 0 135.5 53.5t55.5 147.5v40h-154q-87 0 -133 -29.5t-46 -94.5q0 -57 36.5 -87t105.5 -30zM229 -10q-75 0 -120 36.5t-45 105.5q0 76 54 113t153 37h157v12q0 48 -9.5 80.5t-29 52t-49.5 27.5t-70 8q-63 0 -101 -18.5t-61 -51.5l-19 19q27 40 73.5 58.5 t109.5 18.5q94 0 140 -42.5t46 -145.5v-300h-30v117q-23 -61 -74.5 -94t-124.5 -33zM260 563l-100 104v4h43l84 -105v-3h-27z" />
<glyph unicode="&#xe1;" horiz-adv-x="555" d="M64 0zM237 16q88 0 135.5 53.5t55.5 147.5v40h-154q-87 0 -133 -29.5t-46 -94.5q0 -57 36.5 -87t105.5 -30zM229 -10q-75 0 -120 36.5t-45 105.5q0 76 54 113t153 37h157v12q0 48 -9.5 80.5t-29 52t-49.5 27.5t-70 8q-63 0 -101 -18.5t-61 -51.5l-19 19q27 40 73.5 58.5 t109.5 18.5q94 0 140 -42.5t46 -145.5v-300h-30v117q-23 -61 -74.5 -94t-124.5 -33zM380 667l-100 -104h-27v3l84 105h43v-4z" />
<glyph unicode="&#xe2;" horiz-adv-x="555" d="M60 0zM233 16q88 0 135.5 53.5t55.5 147.5v40h-154q-87 0 -133 -29.5t-46 -94.5q0 -57 36.5 -87t105.5 -30zM225 -10q-75 0 -120 36.5t-45 105.5q0 76 54 113t153 37h157v12q0 48 -9.5 80.5t-29 52t-49.5 27.5t-70 8q-63 0 -101 -18.5t-61 -51.5l-19 19q27 40 73.5 58.5 t109.5 18.5q94 0 140 -42.5t46 -145.5v-300h-30v117q-23 -61 -74.5 -94t-124.5 -33zM271 649l-95 -86h-36v2l118 106h27l118 -106v-2h-38z" />
<glyph unicode="&#xe3;" horiz-adv-x="555" d="M60 0zM233 16q88 0 135.5 53.5t55.5 147.5v40h-154q-87 0 -133 -29.5t-46 -94.5q0 -57 36.5 -87t105.5 -30zM225 -10q-75 0 -120 36.5t-45 105.5q0 76 54 113t153 37h157v12q0 48 -9.5 80.5t-29 52t-49.5 27.5t-70 8q-63 0 -101 -18.5t-61 -51.5l-19 19q27 40 73.5 58.5 t109.5 18.5q94 0 140 -42.5t46 -145.5v-300h-30v117q-23 -61 -74.5 -94t-124.5 -33zM370 656h25q0 -23 -6 -37.5t-16 -23t-21.5 -11.5t-21.5 -3q-21 0 -36 8.5t-28 19t-26 19t-30 8.5q-14 0 -27 -10t-14 -41h-25q0 23 6 37.5t15.5 23t20.5 11.5t22 3q21 0 36 -8.5t28 -19 t26.5 -19t31.5 -8.5q17 0 28 11t12 40z" />
<glyph unicode="&#xe4;" horiz-adv-x="555" d="M60 0zM233 16q88 0 135.5 53.5t55.5 147.5v40h-154q-87 0 -133 -29.5t-46 -94.5q0 -57 36.5 -87t105.5 -30zM225 -10q-75 0 -120 36.5t-45 105.5q0 76 54 113t153 37h157v12q0 48 -9.5 80.5t-29 52t-49.5 27.5t-70 8q-63 0 -101 -18.5t-61 -51.5l-19 19q27 40 73.5 58.5 t109.5 18.5q94 0 140 -42.5t46 -145.5v-300h-30v117q-23 -61 -74.5 -94t-124.5 -33zM307 610q0 14 8.5 22t22.5 8q31 0 31 -30t-31 -30q-14 0 -22.5 8t-8.5 22zM172 610q0 14 8 22t22 8q31 0 31 -30t-31 -30q-14 0 -22 8t-8 22z" />
<glyph unicode="&#xe5;" horiz-adv-x="555" d="M60 0zM233 16q88 0 135.5 53.5t55.5 147.5v40h-154q-87 0 -133 -29.5t-46 -94.5q0 -57 36.5 -87t105.5 -30zM225 -10q-75 0 -120 36.5t-45 105.5q0 76 54 113t153 37h157v12q0 48 -9.5 80.5t-29 52t-49.5 27.5t-70 8q-63 0 -101 -18.5t-61 -51.5l-19 19q27 40 73.5 58.5 t109.5 18.5q94 0 140 -42.5t46 -145.5v-300h-30v117q-23 -61 -74.5 -94t-124.5 -33zM186 629q0 38 24.5 62t61.5 24q35 0 59 -24t24 -62t-24 -62t-61 -24q-35 0 -59.5 24t-24.5 62zM206 629q0 -29 19 -48.5t45 -19.5q28 0 46.5 19.5t18.5 48.5t-18.5 48.5t-44.5 19.5 q-28 0 -47 -19.5t-19 -48.5z" />
<glyph unicode="&#xe6;" horiz-adv-x="892" d="M220 -10q-73 0 -116 35.5t-43 102.5q0 71 52 106.5t149 35.5h158v24q0 48 -9.5 80.5t-29 52t-49.5 27.5t-70 8q-63 0 -100.5 -18.5t-61.5 -51.5l-18 19q26 40 72.5 58.5t110.5 18.5q76 0 120 -28t57 -96q47 124 196 124q99 0 148.5 -58t49.5 -169q0 -4 -0.5 -6.5 t-0.5 -4.5v-5h-385v-6q0 -115 48 -169t141 -54q64 0 106.5 24t63.5 77l24 -13q-25 -60 -74.5 -87t-120.5 -27q-83 0 -135.5 38t-70.5 119q-18 -75 -73 -116t-139 -41zM636 462q-85 0 -132 -48.5t-53 -143.5h355q-3 99 -46.5 145.5t-123.5 46.5zM227 16q91 0 142 57.5 t51 167.5v4h-153q-85 0 -130 -28t-45 -89q0 -55 35 -83.5t100 -28.5z" />
<glyph unicode="&#xe7;" horiz-adv-x="536" d="M275 -221q-33 0 -56 11t-40 37l17 15q15 -23 32 -32.5t46 -9.5q75 0 75 54q0 27 -18 37t-41 10q-6 0 -12 -0.5t-14 -2.5l-11 8l18 84q-100 5 -151.5 65.5t-51.5 181.5q0 129 56.5 190t165.5 61q69 0 114 -25t71 -72l-24 -16q-22 45 -63.5 66t-97.5 21q-95 0 -143 -53 t-48 -172q0 -116 47.5 -168.5t142.5 -52.5q64 0 105 24t63 77l24 -13q-24 -60 -72 -87t-114 -27l-15 -72q2 1 7 1h11q14 0 27.5 -3.5t24.5 -11t17.5 -20t6.5 -30.5q0 -37 -26.5 -56t-72.5 -19z" />
<glyph unicode="&#xe8;" horiz-adv-x="540" d="M68 0zM287 -10q-105 0 -162 60.5t-57 188.5q0 124 55.5 186.5t158.5 62.5q99 0 151 -60.5t52 -175.5q0 -5 -0.5 -8.5t-0.5 -6.5v-6h-385q2 -112 49.5 -163.5t139.5 -51.5q64 0 106.5 24t62.5 77l24 -13q-24 -60 -73.5 -87t-120.5 -27zM281 462q-87 0 -133 -52t-49 -154 h355q-5 206 -173 206zM273 563l-100 104v4h43l84 -105v-3h-27z" />
<glyph unicode="&#xe9;" horiz-adv-x="540" d="M68 0zM392 667l-100 -104h-27v3l84 105h43v-4zM287 -10q-105 0 -162 60.5t-57 188.5q0 124 55.5 186.5t158.5 62.5q99 0 151 -60.5t52 -175.5q0 -5 -0.5 -8.5t-0.5 -6.5v-6h-385q2 -112 49.5 -163.5t139.5 -51.5q64 0 106.5 24t62.5 77l24 -13q-24 -60 -73.5 -87 t-120.5 -27zM281 462q-87 0 -133 -52t-49 -154h355q-5 206 -173 206z" />
<glyph unicode="&#xea;" horiz-adv-x="540" d="M68 0zM283 649l-95 -86h-36v2l118 106h27l118 -106v-2h-38zM287 -10q-105 0 -162 60.5t-57 188.5q0 124 55.5 186.5t158.5 62.5q99 0 151 -60.5t52 -175.5q0 -5 -0.5 -8.5t-0.5 -6.5v-6h-385q2 -112 49.5 -163.5t139.5 -51.5q64 0 106.5 24t62.5 77l24 -13 q-24 -60 -73.5 -87t-120.5 -27zM281 462q-87 0 -133 -52t-49 -154h355q-5 206 -173 206z" />
<glyph unicode="&#xeb;" horiz-adv-x="540" d="M68 0zM319 610q0 14 8.5 22t22.5 8q31 0 31 -30t-31 -30q-14 0 -22.5 8t-8.5 22zM184 610q0 14 8 22t22 8q31 0 31 -30t-31 -30q-14 0 -22 8t-8 22zM287 -10q-105 0 -162 60.5t-57 188.5q0 124 55.5 186.5t158.5 62.5q99 0 151 -60.5t52 -175.5q0 -5 -0.5 -8.5t-0.5 -6.5 v-6h-385q2 -112 49.5 -163.5t139.5 -51.5q64 0 106.5 24t62.5 77l24 -13q-24 -60 -73.5 -87t-120.5 -27zM281 462q-87 0 -133 -52t-49 -154h355q-5 206 -173 206z" />
<glyph unicode="&#xec;" horiz-adv-x="243" d="M12 0zM106 478h31v-478h-31v478zM112 563l-100 104v4h43l84 -105v-3h-27z" />
<glyph unicode="&#xed;" horiz-adv-x="243" d="M104 0zM231 667l-100 -104h-27v3l84 105h43v-4zM106 478h31v-478h-31v478z" />
<glyph unicode="&#xee;" horiz-adv-x="243" d="M0 0zM122 649l-95 -86h-36v2l118 106h27l118 -106v-2h-38zM106 478h31v-478h-31v478z" />
<glyph unicode="&#xef;" horiz-adv-x="243" d="M23 0zM158 610q0 14 8.5 22t22.5 8q31 0 31 -30t-31 -30q-14 0 -22.5 8t-8.5 22zM23 610q0 14 8 22t22 8q31 0 31 -30t-31 -30q-14 0 -22 8t-8 22zM106 478h31v-478h-31v478z" />
<glyph unicode="&#xf0;" horiz-adv-x="581" d="M484 696l12 -19l-93 -58q54 -64 80.5 -156t26.5 -219v-7q0 -127 -56 -187t-165 -60q-108 0 -164.5 60t-56.5 187q0 128 56 189t165 61q65 0 111 -25.5t69 -76.5q-11 69 -33 123t-58 95l-89 -55l-12 19l85 53q-30 29 -67 50.5t-83 37.5l10 23q50 -17 91 -40.5t73 -55.5z M478 237q0 115 -45.5 169.5t-143.5 54.5q-97 0 -143.5 -54.5t-46.5 -169.5q0 -113 46.5 -167t143.5 -54t143 54t46 167z" />
<glyph unicode="&#xf1;" horiz-adv-x="605" d="M103 0zM103 478h27l4 -126q24 68 76 102t125 34q85 0 129.5 -44.5t44.5 -138.5v-305h-31v296q0 46 -11 77.5t-30.5 51t-48 28t-62.5 8.5q-44 0 -78 -15t-58.5 -42.5t-38.5 -65.5t-17 -83v-255h-31v478zM409 656h25q0 -23 -6 -37.5t-16 -23t-21.5 -11.5t-21.5 -3 q-21 0 -36 8.5t-28 19t-26 19t-30 8.5q-14 0 -27 -10t-14 -41h-25q0 23 6 37.5t15.5 23t20.5 11.5t22 3q21 0 36 -8.5t28 -19t26.5 -19t31.5 -8.5q17 0 28 11t12 40z" />
<glyph unicode="&#xf2;" horiz-adv-x="577" d="M68 0zM68 238q0 128 56 189t165 61t164.5 -61t55.5 -189q0 -127 -55.5 -187.5t-164.5 -60.5t-165 60t-56 188zM478 237q0 115 -46 170t-143 55q-98 0 -144 -55t-46 -170q0 -113 46 -167t144 -54q97 0 143 54t46 167zM279 563l-100 104v4h43l84 -105v-3h-27z" />
<glyph unicode="&#xf3;" horiz-adv-x="577" d="M68 0zM399 667l-100 -104h-27v3l84 105h43v-4zM68 238q0 128 56 189t165 61t164.5 -61t55.5 -189q0 -127 -55.5 -187.5t-164.5 -60.5t-165 60t-56 188zM478 237q0 115 -46 170t-143 55q-98 0 -144 -55t-46 -170q0 -113 46 -167t144 -54q97 0 143 54t46 167z" />
<glyph unicode="&#xf4;" horiz-adv-x="577" d="M68 0zM289 649l-95 -86h-36v2l118 106h27l118 -106v-2h-38zM68 238q0 128 56 189t165 61t164.5 -61t55.5 -189q0 -127 -55.5 -187.5t-164.5 -60.5t-165 60t-56 188zM478 237q0 115 -46 170t-143 55q-98 0 -144 -55t-46 -170q0 -113 46 -167t144 -54q97 0 143 54t46 167z " />
<glyph unicode="&#xf5;" horiz-adv-x="577" d="M68 0zM68 238q0 128 56 189t165 61t164.5 -61t55.5 -189q0 -127 -55.5 -187.5t-164.5 -60.5t-165 60t-56 188zM478 237q0 115 -46 170t-143 55q-98 0 -144 -55t-46 -170q0 -113 46 -167t144 -54q97 0 143 54t46 167zM388 656h25q0 -23 -6 -37.5t-16 -23t-21.5 -11.5 t-21.5 -3q-21 0 -36 8.5t-28 19t-26 19t-30 8.5q-14 0 -27 -10t-14 -41h-25q0 23 6 37.5t15.5 23t20.5 11.5t22 3q21 0 36 -8.5t28 -19t26.5 -19t31.5 -8.5q17 0 28 11t12 40z" />
<glyph unicode="&#xf6;" horiz-adv-x="577" d="M68 0zM325 610q0 14 8.5 22t22.5 8q31 0 31 -30t-31 -30q-14 0 -22.5 8t-8.5 22zM190 610q0 14 8 22t22 8q31 0 31 -30t-31 -30q-14 0 -22 8t-8 22zM68 238q0 128 56 189t165 61t164.5 -61t55.5 -189q0 -127 -55.5 -187.5t-164.5 -60.5t-165 60t-56 188zM478 237 q0 115 -46 170t-143 55q-98 0 -144 -55t-46 -170q0 -113 46 -167t144 -54q97 0 143 54t46 167z" />
<glyph unicode="&#xf7;" horiz-adv-x="487" d="M212 448q0 30 31 30q14 0 22 -8t8 -22t-8 -22t-22 -8t-22.5 8t-8.5 22zM437 318v-26h-387v26h387zM212 168q0 30 31 30q14 0 22 -8t8 -22t-8 -22t-22 -8q-31 0 -31 30z" />
<glyph unicode="&#xf8;" horiz-adv-x="580" d="M541 478l-71 -74q39 -60 39 -166q0 -127 -55.5 -187.5t-164.5 -60.5q-108 0 -163 58l-47 -48h-35l66 68q-42 61 -42 170q0 128 56 189t165 61q110 0 166 -63l51 53h35zM131 90l303 314q-46 58 -145 58q-98 0 -144 -55t-46 -170q0 -95 32 -147zM478 237q0 91 -30 145 l-302 -313q46 -53 143 -53t143 54t46 167z" />
<glyph unicode="&#xf9;" horiz-adv-x="604" d="M96 0zM474 0l-3 122q-23 -65 -74.5 -98.5t-123.5 -33.5q-87 0 -132 47.5t-45 144.5v296h31v-289q0 -48 11 -80.5t31 -53t48 -29.5t62 -9q46 0 80 14.5t57.5 40t37 61t16.5 77.5v268h31v-478h-27zM289 563l-100 104v4h43l84 -105v-3h-27z" />
<glyph unicode="&#xfa;" horiz-adv-x="604" d="M96 0zM408 667l-100 -104h-27v3l84 105h43v-4zM474 0l-3 122q-23 -65 -74.5 -98.5t-123.5 -33.5q-87 0 -132 47.5t-45 144.5v296h31v-289q0 -48 11 -80.5t31 -53t48 -29.5t62 -9q46 0 80 14.5t57.5 40t37 61t16.5 77.5v268h31v-478h-27z" />
<glyph unicode="&#xfb;" horiz-adv-x="604" d="M96 0zM299 649l-95 -86h-36v2l118 106h27l118 -106v-2h-38zM474 0l-3 122q-23 -65 -74.5 -98.5t-123.5 -33.5q-87 0 -132 47.5t-45 144.5v296h31v-289q0 -48 11 -80.5t31 -53t48 -29.5t62 -9q46 0 80 14.5t57.5 40t37 61t16.5 77.5v268h31v-478h-27z" />
<glyph unicode="&#xfc;" horiz-adv-x="604" d="M96 0zM335 610q0 14 8.5 22t22.5 8q31 0 31 -30t-31 -30q-14 0 -22.5 8t-8.5 22zM200 610q0 14 8 22t22 8q31 0 31 -30t-31 -30q-14 0 -22 8t-8 22zM474 0l-3 122q-23 -65 -74.5 -98.5t-123.5 -33.5q-87 0 -132 47.5t-45 144.5v296h31v-289q0 -48 11 -80.5t31 -53 t48 -29.5t62 -9q46 0 80 14.5t57.5 40t37 61t16.5 77.5v268h31v-478h-27z" />
<glyph unicode="&#xfd;" horiz-adv-x="466" d="M0 0zM198 -48l18 46l-204 480h33l188 -448l188 448h32l-229 -538q-20 -46 -40.5 -74.5t-42 -44t-44 -21t-46.5 -5.5q-19 0 -36 2.5t-37 10.5l5 26q17 -6 31.5 -9t35.5 -3q19 0 37.5 4t36.5 17.5t36.5 39.5t37.5 69zM342 667l-100 -104h-27v3l84 105h43v-4z" />
<glyph unicode="&#xfe;" horiz-adv-x="600" d="M135 234q0 -56 13.5 -97t38 -68t58 -40t72.5 -13q93 0 138.5 58.5t45.5 165.5q0 108 -43 165t-131 57q-42 0 -77.5 -14t-61 -42.5t-39.5 -71t-14 -100.5zM135 700v-346q23 68 75.5 101t122.5 33q98 0 148.5 -63.5t50.5 -184.5q0 -120 -54.5 -185t-157.5 -65 q-63 0 -112 28.5t-73 91.5v-296h-31v886h31z" />
<glyph unicode="&#xff;" horiz-adv-x="466" d="M0 0zM198 -48l18 46l-204 480h33l188 -448l188 448h32l-229 -538q-20 -46 -40.5 -74.5t-42 -44t-44 -21t-46.5 -5.5q-19 0 -36 2.5t-37 10.5l5 26q17 -6 31.5 -9t35.5 -3q19 0 37.5 4t36.5 17.5t36.5 39.5t37.5 69zM268 610q0 14 8.5 22t22.5 8q31 0 31 -30t-31 -30 q-14 0 -22.5 8t-8.5 22zM133 610q0 14 8 22t22 8q31 0 31 -30t-31 -30q-14 0 -22 8t-8 22z" />
<glyph unicode="&#x100;" horiz-adv-x="589" d="M14 0zM294 667l-175 -469h349zM541 0l-63 171h-368l-63 -171h-33l261 700h39l261 -700h-34zM409 848v-23h-227v23h227z" />
<glyph unicode="&#x101;" horiz-adv-x="555" d="M60 0zM233 16q88 0 135.5 53.5t55.5 147.5v40h-154q-87 0 -133 -29.5t-46 -94.5q0 -57 36.5 -87t105.5 -30zM225 -10q-75 0 -120 36.5t-45 105.5q0 76 54 113t153 37h157v12q0 48 -9.5 80.5t-29 52t-49.5 27.5t-70 8q-63 0 -101 -18.5t-61 -51.5l-19 19q27 40 73.5 58.5 t109.5 18.5q94 0 140 -42.5t46 -145.5v-300h-30v117q-23 -61 -74.5 -94t-124.5 -33zM384 626v-23h-227v23h227z" />
<glyph unicode="&#x102;" horiz-adv-x="589" d="M14 0zM294 667l-175 -469h349zM541 0l-63 171h-368l-63 -171h-33l261 700h39l261 -700h-34zM388 891h26q0 -59 -32 -82t-88 -23t-87.5 23t-31.5 82h25q0 -48 24.5 -65.5t69.5 -17.5t69.5 17.5t24.5 65.5z" />
<glyph unicode="&#x103;" horiz-adv-x="555" d="M60 0zM233 16q88 0 135.5 53.5t55.5 147.5v40h-154q-87 0 -133 -29.5t-46 -94.5q0 -57 36.5 -87t105.5 -30zM225 -10q-75 0 -120 36.5t-45 105.5q0 76 54 113t153 37h157v12q0 48 -9.5 80.5t-29 52t-49.5 27.5t-70 8q-63 0 -101 -18.5t-61 -51.5l-19 19q27 40 73.5 58.5 t109.5 18.5q94 0 140 -42.5t46 -145.5v-300h-30v117q-23 -61 -74.5 -94t-124.5 -33zM363 669h26q0 -59 -32 -82t-88 -23t-87.5 23t-31.5 82h25q0 -48 24.5 -65.5t69.5 -17.5t69.5 17.5t24.5 65.5z" />
<glyph unicode="&#x104;" horiz-adv-x="589" d="M537 12l-59 159h-368l-64 -171h-32l261 700h39l261 -700h-14q-19 -2 -37.5 -11t-32.5 -23.5t-23 -33.5t-9 -41q0 -38 21 -52t50 -14q18 0 33.5 4t30.5 15l8 -21q-34 -21 -74 -21q-18 0 -35 4.5t-30 14.5t-21 26.5t-8 40.5q0 25 9 46t23.5 37t33 26t37.5 15zM294 668 l-175 -470h349z" />
<glyph unicode="&#x105;" horiz-adv-x="555" d="M492 -177q-34 -21 -74 -21q-18 0 -35 4.5t-30 14.5t-20.5 26.5t-7.5 40.5q0 25 8.5 45.5t22.5 36.5t32 26.5t36 15.5v105q-23 -61 -74.5 -94t-124.5 -33q-75 0 -120 36.5t-45 105.5q0 76 54 113t153 37h157v12q0 48 -9.5 80.5t-29 52t-49.5 27.5t-70 8q-63 0 -101 -18.5 t-61 -51.5l-19 19q27 40 73.5 58.5t109.5 18.5q94 0 140 -42.5t46 -145.5v-300h-3q-19 -2 -37 -11t-32.5 -23.5t-23 -33.5t-8.5 -41q0 -38 20.5 -52t49.5 -14q18 0 33.5 4t30.5 15zM233 16q88 0 135.5 53.5t55.5 147.5v40h-154q-87 0 -133 -29.5t-46 -94.5q0 -57 36.5 -87 t105.5 -30z" />
<glyph unicode="&#x106;" horiz-adv-x="693" d="M81 0zM490 889l-100 -104h-27v3l84 105h43v-4zM380 -10q-71 0 -126.5 19.5t-93.5 62.5t-58.5 111.5t-20.5 166.5q0 99 20.5 167.5t58.5 111t93.5 62t126.5 19.5q86 0 148.5 -30t98.5 -99l-26 -17q-34 65 -90 92t-131 27q-61 0 -110.5 -16.5t-84 -55.5t-53.5 -102.5 t-19 -157.5t19 -158t53.5 -103t84 -56t110.5 -17q78 0 137 29t96 100l24 -16q-39 -76 -104 -108t-153 -32z" />
<glyph unicode="&#x107;" horiz-adv-x="536" d="M68 0zM400 667l-100 -104h-27v3l84 105h43v-4zM289 -10q-109 0 -165 60.5t-56 186.5q0 129 56.5 190t165.5 61q69 0 114 -25t71 -72l-24 -16q-22 45 -63.5 66t-97.5 21q-95 0 -143 -53t-48 -172q0 -116 47.5 -168.5t142.5 -52.5q64 0 105 24t63 77l24 -13 q-24 -60 -72.5 -87t-119.5 -27z" />
<glyph unicode="&#x108;" horiz-adv-x="693" d="M81 0zM381 871l-95 -86h-36v2l118 106h27l118 -106v-2h-38zM380 -10q-71 0 -126.5 19.5t-93.5 62.5t-58.5 111.5t-20.5 166.5q0 99 20.5 167.5t58.5 111t93.5 62t126.5 19.5q86 0 148.5 -30t98.5 -99l-26 -17q-34 65 -90 92t-131 27q-61 0 -110.5 -16.5t-84 -55.5 t-53.5 -102.5t-19 -157.5t19 -158t53.5 -103t84 -56t110.5 -17q78 0 137 29t96 100l24 -16q-39 -76 -104 -108t-153 -32z" />
<glyph unicode="&#x109;" horiz-adv-x="536" d="M68 0zM291 649l-95 -86h-36v2l118 106h27l118 -106v-2h-38zM289 -10q-109 0 -165 60.5t-56 186.5q0 129 56.5 190t165.5 61q69 0 114 -25t71 -72l-24 -16q-22 45 -63.5 66t-97.5 21q-95 0 -143 -53t-48 -172q0 -116 47.5 -168.5t142.5 -52.5q64 0 105 24t63 77l24 -13 q-24 -60 -72.5 -87t-119.5 -27z" />
<glyph unicode="&#x10a;" horiz-adv-x="693" d="M81 0zM380 -10q-71 0 -126.5 19.5t-93.5 62.5t-58.5 111.5t-20.5 166.5q0 99 20.5 167.5t58.5 111t93.5 62t126.5 19.5q86 0 148.5 -30t98.5 -99l-26 -17q-34 65 -90 92t-131 27q-61 0 -110.5 -16.5t-84 -55.5t-53.5 -102.5t-19 -157.5t19 -158t53.5 -103t84 -56 t110.5 -17q78 0 137 29t96 100l24 -16q-39 -76 -104 -108t-153 -32zM352 832q0 30 31 30q30 0 30 -30t-30 -30q-31 0 -31 30z" />
<glyph unicode="&#x10b;" horiz-adv-x="536" d="M68 0zM289 -10q-109 0 -165 60.5t-56 186.5q0 129 56.5 190t165.5 61q69 0 114 -25t71 -72l-24 -16q-22 45 -63.5 66t-97.5 21q-95 0 -143 -53t-48 -172q0 -116 47.5 -168.5t142.5 -52.5q64 0 105 24t63 77l24 -13q-24 -60 -72.5 -87t-119.5 -27zM262 610q0 30 31 30 q30 0 30 -30t-30 -30q-31 0 -31 30z" />
<glyph unicode="&#x10c;" horiz-adv-x="693" d="M81 0zM378 807l95 86h37v-2l-118 -106h-27l-118 106v2h37zM380 -10q-71 0 -126.5 19.5t-93.5 62.5t-58.5 111.5t-20.5 166.5q0 99 20.5 167.5t58.5 111t93.5 62t126.5 19.5q86 0 148.5 -30t98.5 -99l-26 -17q-34 65 -90 92t-131 27q-61 0 -110.5 -16.5t-84 -55.5 t-53.5 -102.5t-19 -157.5t19 -158t53.5 -103t84 -56t110.5 -17q78 0 137 29t96 100l24 -16q-39 -76 -104 -108t-153 -32z" />
<glyph unicode="&#x10d;" horiz-adv-x="536" d="M68 0zM288 585l95 86h37v-2l-118 -106h-27l-118 106v2h37zM289 -10q-109 0 -165 60.5t-56 186.5q0 129 56.5 190t165.5 61q69 0 114 -25t71 -72l-24 -16q-22 45 -63.5 66t-97.5 21q-95 0 -143 -53t-48 -172q0 -116 47.5 -168.5t142.5 -52.5q64 0 105 24t63 77l24 -13 q-24 -60 -72.5 -87t-119.5 -27z" />
<glyph unicode="&#x10e;" horiz-adv-x="732" d="M119 0zM376 807l95 86h37v-2l-118 -106h-27l-118 106v2h37zM364 0h-245v700h246q68 0 121.5 -18.5t90 -59t56 -106t19.5 -158.5q0 -95 -19.5 -163t-56.5 -111.5t-90.5 -63.5t-121.5 -20zM151 27h212q58 0 105.5 17.5t81 56.5t52 102t18.5 155q0 88 -18 148.5t-51.5 97.5 t-80.5 53t-105 16h-214v-646z" />
<glyph unicode="&#x10f;" horiz-adv-x="639" d="M68 0zM628 515h-22l7 185h35zM466 245q0 55 -14 96t-38.5 68t-58 40t-72.5 13q-93 0 -138.5 -58.5t-45.5 -164.5q0 -109 45.5 -166t136.5 -57q40 0 74 14t58.5 42t38.5 71t14 102zM468 0l-2 119q-23 -66 -74 -97.5t-118 -31.5q-100 0 -153 64t-53 185q0 120 54.5 184.5 t157.5 64.5q63 0 111.5 -29.5t74.5 -89.5v331h30v-700h-28z" />
<glyph unicode="&#x110;" horiz-adv-x="745" d="M377 0h-245v354h-84v25h84v321h245q68 0 121.5 -18.5t90.5 -59t56.5 -106t19.5 -158.5q0 -95 -19.5 -163t-56.5 -111.5t-90.5 -63.5t-121.5 -20zM164 27h211q58 0 105.5 17.5t81.5 56.5t52.5 102t18.5 155q0 88 -18 148.5t-51.5 97.5t-81 53t-105.5 16h-213v-294h184v-25 h-184v-327z" />
<glyph unicode="&#x111;" horiz-adv-x="611" d="M466 245q0 55 -14 96t-38.5 68t-58 40t-72.5 13q-93 0 -138.5 -58.5t-45.5 -164.5q0 -109 45.5 -166t136.5 -57q40 0 74 14t58.5 42t38.5 71t14 102zM582 592v-23h-86v-569h-28l-2 119q-23 -66 -74 -97.5t-118 -31.5q-100 0 -153 64t-53 185q0 120 54.5 184.5t157.5 64.5 q63 0 111.5 -29.5t74.5 -89.5v200h-176v23h176v108h30v-108h86z" />
<glyph unicode="&#x112;" horiz-adv-x="643" d="M119 0zM119 0v700h477v-27h-446v-307h391v-28h-391v-311h456v-27h-487zM477 848v-23h-227v23h227z" />
<glyph unicode="&#x113;" horiz-adv-x="540" d="M68 0zM287 -10q-105 0 -162 60.5t-57 188.5q0 124 55.5 186.5t158.5 62.5q99 0 151 -60.5t52 -175.5q0 -5 -0.5 -8.5t-0.5 -6.5v-6h-385q2 -112 49.5 -163.5t139.5 -51.5q64 0 106.5 24t62.5 77l24 -13q-24 -60 -73.5 -87t-120.5 -27zM281 462q-87 0 -133 -52t-49 -154 h355q-5 206 -173 206zM396 626v-23h-227v23h227z" />
<glyph unicode="&#x114;" horiz-adv-x="643" d="M119 0zM119 0v700h477v-27h-446v-307h391v-28h-391v-311h456v-27h-487zM457 891h26q0 -59 -32 -82t-88 -23t-87.5 23t-31.5 82h25q0 -48 24.5 -65.5t69.5 -17.5t69.5 17.5t24.5 65.5z" />
<glyph unicode="&#x115;" horiz-adv-x="540" d="M68 0zM287 -10q-105 0 -162 60.5t-57 188.5q0 124 55.5 186.5t158.5 62.5q99 0 151 -60.5t52 -175.5q0 -5 -0.5 -8.5t-0.5 -6.5v-6h-385q2 -112 49.5 -163.5t139.5 -51.5q64 0 106.5 24t62.5 77l24 -13q-24 -60 -73.5 -87t-120.5 -27zM281 462q-87 0 -133 -52t-49 -154 h355q-5 206 -173 206zM375 669h26q0 -59 -32 -82t-88 -23t-87.5 23t-31.5 82h25q0 -48 24.5 -65.5t69.5 -17.5t69.5 17.5t24.5 65.5z" />
<glyph unicode="&#x116;" horiz-adv-x="643" d="M119 0zM119 0v700h477v-27h-446v-307h391v-28h-391v-311h456v-27h-487zM336 832q0 30 31 30q30 0 30 -30t-30 -30q-31 0 -31 30z" />
<glyph unicode="&#x117;" horiz-adv-x="540" d="M68 0zM287 -10q-105 0 -162 60.5t-57 188.5q0 124 55.5 186.5t158.5 62.5q99 0 151 -60.5t52 -175.5q0 -5 -0.5 -8.5t-0.5 -6.5v-6h-385q2 -112 49.5 -163.5t139.5 -51.5q64 0 106.5 24t62.5 77l24 -13q-24 -60 -73.5 -87t-120.5 -27zM281 462q-87 0 -133 -52t-49 -154 h355q-5 206 -173 206zM254 610q0 30 31 30q30 0 30 -30t-30 -30q-31 0 -31 30z" />
<glyph unicode="&#x118;" horiz-adv-x="643" d="M119 0v700h477v-27h-445v-307h390v-28h-390v-311h455v-27q-20 -2 -39 -11t-33.5 -23.5t-23.5 -33.5t-9 -41q0 -38 20.5 -52t49.5 -14q18 0 33.5 4t31.5 15l7 -21q-17 -11 -35.5 -16t-38.5 -5q-18 0 -35 4.5t-29.5 14.5t-20.5 26.5t-8 40.5q0 41 22 69.5t51 42.5h-430z " />
<glyph unicode="&#x119;" horiz-adv-x="540" d="M242 -112q0 35 16.5 61.5t40.5 41.5q-108 -4 -169.5 56t-61.5 192q0 124 55.5 186.5t158.5 62.5q100 0 151.5 -60.5t51.5 -175.5v-11q0 -7 -1 -10h-385q1 -112 49 -163.5t140 -51.5q64 0 106.5 24t62.5 77l24 -13q-17 -42 -47 -68.5t-78 -37.5q-38 -10 -63.5 -38.5 t-25.5 -68.5q0 -38 20.5 -52t49.5 -14q18 0 33.5 4t31.5 15l7 -21q-34 -21 -74 -21q-18 0 -35 4.5t-30 14.5t-20.5 26.5t-7.5 40.5zM281 462q-88 0 -133.5 -52t-48.5 -154h355q-3 206 -173 206z" />
<glyph unicode="&#x11a;" horiz-adv-x="643" d="M119 0zM362 807l95 86h37v-2l-118 -106h-27l-118 106v2h37zM119 0v700h477v-27h-446v-307h391v-28h-391v-311h456v-27h-487z" />
<glyph unicode="&#x11b;" horiz-adv-x="540" d="M68 0zM281 585l95 86h37v-2l-118 -106h-27l-118 106v2h37zM287 -10q-105 0 -162 60.5t-57 188.5q0 124 55.5 186.5t158.5 62.5q99 0 151 -60.5t52 -175.5q0 -5 -0.5 -8.5t-0.5 -6.5v-6h-385q2 -112 49.5 -163.5t139.5 -51.5q64 0 106.5 24t62.5 77l24 -13 q-24 -60 -73.5 -87t-120.5 -27zM281 462q-87 0 -133 -52t-49 -154h355q-5 206 -173 206z" />
<glyph unicode="&#x11c;" horiz-adv-x="715" d="M81 0zM380 871l-95 -86h-36v2l118 106h27l118 -106v-2h-38zM376 -10q-69 0 -123.5 20t-93 63t-58.5 111.5t-20 165.5q0 99 20.5 167.5t58.5 111t93.5 62t126.5 19.5q86 0 148 -30t98 -98l-26 -18q-33 64 -89 91.5t-131 27.5q-61 0 -110.5 -16.5t-84 -55.5t-53.5 -103 t-19 -158q0 -93 19 -157t53.5 -103t83.5 -56t110 -17q51 0 93 13t72.5 42.5t49 76t22.5 112.5v25h-222v26h252v-312h-27l-2 150q-25 -81 -86.5 -120.5t-154.5 -39.5z" />
<glyph unicode="&#x11d;" horiz-adv-x="596" d="M68 0zM278 649l-95 -86h-36v2l118 106h27l118 -106v-2h-38zM462 247q0 55 -14 95.5t-38.5 67t-58 39.5t-72.5 13q-91 0 -135.5 -57.5t-44.5 -163.5q0 -107 44.5 -164t133.5 -57q40 0 74 13.5t59 41.5t38.5 71t13.5 101zM492 478v-478q0 -55 -16.5 -94t-46 -63.5 t-70.5 -36t-90 -11.5q-63 0 -114.5 22t-83.5 83l23 17q29 -55 73 -75.5t102 -20.5q43 0 78.5 9.5t61 31t39.5 56.5t14 86v117q-24 -66 -74.5 -96.5t-116.5 -30.5q-98 0 -150.5 63t-52.5 184q0 118 52.5 182.5t153.5 64.5q66 0 115 -30t73 -92l4 112h26z" />
<glyph unicode="&#x11e;" horiz-adv-x="715" d="M81 0zM376 -10q-69 0 -123.5 20t-93 63t-58.5 111.5t-20 165.5q0 99 20.5 167.5t58.5 111t93.5 62t126.5 19.5q86 0 148 -30t98 -98l-26 -18q-33 64 -89 91.5t-131 27.5q-61 0 -110.5 -16.5t-84 -55.5t-53.5 -103t-19 -158q0 -93 19 -157t53.5 -103t83.5 -56t110 -17 q51 0 93 13t72.5 42.5t49 76t22.5 112.5v25h-222v26h252v-312h-27l-2 150q-25 -81 -86.5 -120.5t-154.5 -39.5zM472 891h26q0 -59 -32 -82t-88 -23t-87.5 23t-31.5 82h25q0 -48 24.5 -65.5t69.5 -17.5t69.5 17.5t24.5 65.5z" />
<glyph unicode="&#x11f;" horiz-adv-x="596" d="M68 0zM462 247q0 55 -14 95.5t-38.5 67t-58 39.5t-72.5 13q-91 0 -135.5 -57.5t-44.5 -163.5q0 -107 44.5 -164t133.5 -57q40 0 74 13.5t59 41.5t38.5 71t13.5 101zM492 478v-478q0 -55 -16.5 -94t-46 -63.5t-70.5 -36t-90 -11.5q-63 0 -114.5 22t-83.5 83l23 17 q29 -55 73 -75.5t102 -20.5q43 0 78.5 9.5t61 31t39.5 56.5t14 86v117q-24 -66 -74.5 -96.5t-116.5 -30.5q-98 0 -150.5 63t-52.5 184q0 118 52.5 182.5t153.5 64.5q66 0 115 -30t73 -92l4 112h26zM370 669h26q0 -59 -32 -82t-88 -23t-87.5 23t-31.5 82h25q0 -48 24.5 -65.5 t69.5 -17.5t69.5 17.5t24.5 65.5z" />
<glyph unicode="&#x120;" horiz-adv-x="715" d="M81 0zM376 -10q-69 0 -123.5 20t-93 63t-58.5 111.5t-20 165.5q0 99 20.5 167.5t58.5 111t93.5 62t126.5 19.5q86 0 148 -30t98 -98l-26 -18q-33 64 -89 91.5t-131 27.5q-61 0 -110.5 -16.5t-84 -55.5t-53.5 -103t-19 -158q0 -93 19 -157t53.5 -103t83.5 -56t110 -17 q51 0 93 13t72.5 42.5t49 76t22.5 112.5v25h-222v26h252v-312h-27l-2 150q-25 -81 -86.5 -120.5t-154.5 -39.5zM351 832q0 30 31 30q30 0 30 -30t-30 -30q-31 0 -31 30z" />
<glyph unicode="&#x121;" horiz-adv-x="596" d="M68 0zM462 247q0 55 -14 95.5t-38.5 67t-58 39.5t-72.5 13q-91 0 -135.5 -57.5t-44.5 -163.5q0 -107 44.5 -164t133.5 -57q40 0 74 13.5t59 41.5t38.5 71t13.5 101zM492 478v-478q0 -55 -16.5 -94t-46 -63.5t-70.5 -36t-90 -11.5q-63 0 -114.5 22t-83.5 83l23 17 q29 -55 73 -75.5t102 -20.5q43 0 78.5 9.5t61 31t39.5 56.5t14 86v117q-24 -66 -74.5 -96.5t-116.5 -30.5q-98 0 -150.5 63t-52.5 184q0 118 52.5 182.5t153.5 64.5q66 0 115 -30t73 -92l4 112h26zM249 610q0 30 31 30q30 0 30 -30t-30 -30q-31 0 -31 30z" />
<glyph unicode="&#x122;" horiz-adv-x="715" d="M81 0zM353 -224l-8 15q20 10 31 32.5t12 48.5q-19 -5 -30 3.5t-11 24.5q0 14 8 21.5t22 7.5t23 -10t9 -35q0 -35 -13.5 -66t-42.5 -42zM376 -10q-69 0 -123.5 20t-93 63t-58.5 111.5t-20 165.5q0 99 20.5 167.5t58.5 111t93.5 62t126.5 19.5q86 0 148 -30t98 -98l-26 -18 q-33 64 -89 91.5t-131 27.5q-61 0 -110.5 -16.5t-84 -55.5t-53.5 -103t-19 -158q0 -93 19 -157t53.5 -103t83.5 -56t110 -17q51 0 93 13t72.5 42.5t49 76t22.5 112.5v25h-222v26h252v-312h-27l-2 150q-25 -81 -86.5 -120.5t-154.5 -39.5z" />
<glyph unicode="&#x123;" horiz-adv-x="596" d="M304 728l8 -15q-20 -10 -31 -32.5t-12 -48.5q19 5 30 -3.5t11 -24.5q0 -14 -8 -21.5t-22 -7.5t-23 10t-9 35q0 35 13.5 66t42.5 42zM462 247q0 55 -14 95.5t-38.5 67t-58 39.5t-72.5 13q-91 0 -135.5 -57.5t-44.5 -163.5q0 -107 44.5 -164t133.5 -57q40 0 74 13.5 t59 41.5t38.5 71t13.5 101zM492 478v-478q0 -55 -16.5 -94t-46 -63.5t-70.5 -36t-90 -11.5q-63 0 -114.5 22t-83.5 83l23 17q29 -55 73 -75.5t102 -20.5q43 0 78.5 9.5t61 31t39.5 56.5t14 86v117q-24 -66 -74.5 -96.5t-116.5 -30.5q-98 0 -150.5 63t-52.5 184 q0 118 52.5 182.5t153.5 64.5q66 0 115 -30t73 -92l4 112h26z" />
<glyph unicode="&#x124;" horiz-adv-x="773" d="M119 0zM387 871l-95 -86h-36v2l118 106h27l118 -106v-2h-38zM622 0v338h-471v-338h-32v700h32v-334h471v334h32v-700h-32z" />
<glyph unicode="&#x125;" horiz-adv-x="605" d="M0 0zM120 824l-95 -86h-36v2l118 106h27l118 -106v-2h-38zM134 700v-351q23 69 75.5 104t125.5 35q85 0 129.5 -44.5t44.5 -138.5v-305h-31v296q0 46 -11 77.5t-31 51t-48 28t-62 8.5q-44 0 -78.5 -15t-58.5 -42.5t-38 -65.5t-17 -83v-255h-31v700h31z" />
<glyph unicode="&#x126;" horiz-adv-x="779" d="M154 366h471v143h-471v-143zM625 0v338h-471v-338h-32v509h-79v23h79v168h32v-168h471v168h31v-168h88v-23h-88v-509h-31z" />
<glyph unicode="&#x127;" horiz-adv-x="617" d="M29 569v23h86v108h31v-108h174v-23h-174v-220q23 69 75.5 104t125.5 35q85 0 129.5 -44.5t44.5 -138.5v-305h-31v296q0 46 -11 77.5t-31 51t-48 28t-62 8.5q-44 0 -78.5 -15t-58.5 -42.5t-38 -65.5t-17 -83v-255h-31v569h-86z" />
<glyph unicode="&#x128;" horiz-adv-x="270" d="M9 0zM119 0v700h32v-700h-32zM235 878h25q0 -23 -6 -37.5t-16 -23t-21.5 -11.5t-21.5 -3q-21 0 -36 8.5t-28 19t-26 19t-30 8.5q-14 0 -27 -10t-14 -41h-25q0 23 6 37.5t15.5 23t20.5 11.5t22 3q21 0 36 -8.5t28 -19t26.5 -19t31.5 -8.5q17 0 28 11t12 40z" />
<glyph unicode="&#x129;" horiz-adv-x="243" d="M0 0zM106 478h31v-478h-31v478zM221 656h25q0 -23 -6 -37.5t-16 -23t-21.5 -11.5t-21.5 -3q-21 0 -36 8.5t-28 19t-26 19t-30 8.5q-14 0 -27 -10t-14 -41h-25q0 23 6 37.5t15.5 23t20.5 11.5t22 3q21 0 36 -8.5t28 -19t26.5 -19t31.5 -8.5q17 0 28 11t12 40z" />
<glyph unicode="&#x12a;" horiz-adv-x="270" d="M22 0zM119 0v700h32v-700h-32zM249 848v-23h-227v23h227z" />
<glyph unicode="&#x12b;" horiz-adv-x="243" d="M8 0zM106 478h31v-478h-31v478zM235 626v-23h-227v23h227z" />
<glyph unicode="&#x12c;" horiz-adv-x="270" d="M15 0zM119 0v700h32v-700h-32zM228 891h26q0 -59 -32 -82t-88 -23t-87.5 23t-31.5 82h25q0 -48 24.5 -65.5t69.5 -17.5t69.5 17.5t24.5 65.5z" />
<glyph unicode="&#x12d;" horiz-adv-x="243" d="M1 0zM106 478h31v-478h-31v478zM214 669h26q0 -59 -32 -82t-88 -23t-87.5 23t-31.5 82h25q0 -48 24.5 -65.5t69.5 -17.5t69.5 17.5t24.5 65.5z" />
<glyph unicode="&#x12e;" horiz-adv-x="270" d="M105 -198q-18 0 -35 4.5t-30 14.5t-20.5 26.5t-7.5 40.5q0 26 9.5 47.5t24.5 37.5t34 26t39 14v687h32v-700h-13q-19 -2 -37 -11t-32.5 -23.5t-23 -33.5t-8.5 -41q0 -38 20.5 -52t49.5 -14q18 0 33.5 4t30.5 15l8 -21q-34 -21 -74 -21z" />
<glyph unicode="&#x12f;" horiz-adv-x="243" d="M91 609q0 30 30 30q31 0 31 -30t-31 -30q-30 0 -30 30zM92 -198q-18 0 -35 4.5t-30 14.5t-20.5 26.5t-7.5 40.5q0 26 9.5 47.5t24.5 37.5t34 26t39 14v465h31v-478h-11q-19 -2 -37.5 -11t-32.5 -23.5t-23 -33.5t-9 -41q0 -38 20.5 -52t49.5 -14q18 0 33.5 4t30.5 15 l8 -21q-34 -21 -74 -21z" />
<glyph unicode="&#x130;" horiz-adv-x="270" d="M107 0zM119 0v700h32v-700h-32zM107 832q0 30 31 30q30 0 30 -30t-30 -30q-31 0 -31 30z" />
<glyph unicode="&#x131;" horiz-adv-x="243" d="M106 478h31v-478h-31v478z" />
<glyph unicode="&#x132;" horiz-adv-x="766" d="M119 0zM119 0v700h32v-700h-32zM437 -10q-81 0 -136 40l15 26q24 -20 55.5 -29t66.5 -9q45 0 82 13t63.5 41.5t40.5 73.5t14 109v445h31v-443q0 -72 -16 -123t-46 -83t-73 -46.5t-97 -14.5z" />
<glyph unicode="&#x133;" horiz-adv-x="485" d="M91 0zM91 610q0 30 30 30q31 0 31 -30q0 -14 -8.5 -22t-22.5 -8t-22 8t-8 22zM106 478h31v-478h-31v478zM334 610q0 30 30 30q31 0 31 -30q0 -14 -8.5 -22t-22.5 -8t-22 8t-8 22zM349 -56v534h31v-540q0 -76 -28 -109.5t-81 -33.5q-19 0 -36 2.5t-37 10.5l6 25 q16 -6 30 -9t34 -3q41 0 61 27t20 96z" />
<glyph unicode="&#x134;" horiz-adv-x="494" d="M29 0zM383 871l-95 -86h-36v2l118 106h27l118 -106v-2h-38zM165 -10q-81 0 -136 40l15 26q24 -20 55.5 -29t66.5 -9q45 0 82 13t63.5 41.5t40.5 73.5t14 109v445h31v-443q0 -72 -16 -123t-46 -83t-73 -46.5t-97 -14.5z" />
<glyph unicode="&#x135;" horiz-adv-x="243" d="M0 0zM106 -56v534h31v-540q0 -76 -28 -109.5t-81 -33.5q-19 0 -36 2.5t-37 10.5l6 25q16 -6 30 -9t34 -3q41 0 61 27t20 96zM122 649l-95 -86h-36v2l118 106h27l118 -106v-2h-38z" />
<glyph unicode="&#x136;" horiz-adv-x="613" d="M119 0zM325 -224l-8 15q20 10 31 32.5t12 48.5q-19 -5 -30 3.5t-11 24.5q0 14 8 21.5t22 7.5t23 -10t9 -35q0 -35 -13.5 -66t-42.5 -42zM119 0v700h32v-443l390 443h39l-278 -314l301 -386h-39l-283 363l-130 -147v-216h-32z" />
<glyph unicode="&#x137;" horiz-adv-x="501" d="M104 0zM240 -224l-8 15q20 10 31 32.5t12 48.5q-19 -5 -30 3.5t-11 24.5q0 14 8 21.5t22 7.5t23 -10t9 -35q0 -35 -13.5 -66t-42.5 -42zM104 0v700h31v-527l289 305h38l-200 -210l215 -268h-38l-197 247l-107 -111v-136h-31z" />
<glyph unicode="&#x138;" horiz-adv-x="501" d="M104 0v478h31v-305l289 305h38l-200 -210l215 -268h-38l-197 247l-107 -111v-136h-31z" />
<glyph unicode="&#x139;" horiz-adv-x="608" d="M118 0zM245 889l-100 -104h-27v3l84 105h43v-4zM151 27h435v-27h-467v700h32v-673z" />
<glyph unicode="&#x13a;" horiz-adv-x="253" d="M100 0zM229 889l-100 -104h-27v3l84 105h43v-4zM188 0q-42 0 -65 22t-23 70v608h31v-603q0 -44 17.5 -57t46.5 -13h43v-27h-50z" />
<glyph unicode="&#x13b;" horiz-adv-x="608" d="M119 0zM329 -224l-8 15q20 10 31 32.5t12 48.5q-19 -5 -30 3.5t-11 24.5q0 14 8 21.5t22 7.5t23 -10t9 -35q0 -35 -13.5 -66t-42.5 -42zM151 27h435v-27h-467v700h32v-673z" />
<glyph unicode="&#x13c;" horiz-adv-x="248" d="M99 0zM187 0q-42 0 -65 22t-23 70v608h31v-603q0 -44 17.5 -57t46.5 -13h43v-27h-50zM138 -224l-8 15q20 10 31 32.5t12 48.5q-19 -5 -30 3.5t-11 24.5q0 14 8 21.5t22 7.5t23 -10t9 -35q0 -35 -13.5 -66t-42.5 -42z" />
<glyph unicode="&#x13d;" horiz-adv-x="608" d="M119 0zM415 515h-22l7 185h35zM151 27h435v-27h-467v700h32v-673z" />
<glyph unicode="&#x13e;" horiz-adv-x="278" d="M100 0zM267 515h-22l7 185h35zM188 0q-42 0 -65 22t-23 70v608h31v-603q0 -44 17.5 -57t46.5 -13h43v-27h-50z" />
<glyph unicode="&#x13f;" horiz-adv-x="608" d="M119 0zM151 27h435v-27h-467v700h32v-673zM389 353q0 30 31 30q30 0 30 -30t-30 -30q-31 0 -31 30z" />
<glyph unicode="&#x140;" horiz-adv-x="303" d="M100 0zM188 0q-42 0 -65 22t-23 70v608h31v-603q0 -44 17.5 -57t46.5 -13h43v-27h-50zM236 297q0 30 31 30q30 0 30 -30t-30 -30q-31 0 -31 30z" />
<glyph unicode="&#x141;" horiz-adv-x="628" d="M171 27h435v-27h-467v308l-114 -83v31l114 83v361h32v-340l173 125v-31l-173 -125v-302z" />
<glyph unicode="&#x142;" horiz-adv-x="267" d="M256 0h-50q-42 0 -65 22t-23 70v223l-110 -105v33l110 104v353h31v-328l122 116v-32l-122 -116v-243q0 -44 17.5 -57t46.5 -13h43v-27z" />
<glyph unicode="&#x143;" horiz-adv-x="766" d="M119 0zM493 889l-100 -104h-27v3l84 105h43v-4zM614 0l-465 656l1 -656h-31v700h35l463 -652l-1 652h31v-700h-33z" />
<glyph unicode="&#x144;" horiz-adv-x="605" d="M103 0zM419 667l-100 -104h-27v3l84 105h43v-4zM103 478h27l4 -126q24 68 76 102t125 34q85 0 129.5 -44.5t44.5 -138.5v-305h-31v296q0 46 -11 77.5t-30.5 51t-48 28t-62.5 8.5q-44 0 -78 -15t-58.5 -42.5t-38.5 -65.5t-17 -83v-255h-31v478z" />
<glyph unicode="&#x145;" horiz-adv-x="766" d="M119 0zM359 -224l-8 15q20 10 31 32.5t12 48.5q-19 -5 -30 3.5t-11 24.5q0 14 8 21.5t22 7.5t23 -10t9 -35q0 -35 -13.5 -66t-42.5 -42zM614 0l-465 656l1 -656h-31v700h35l463 -652l-1 652h31v-700h-33z" />
<glyph unicode="&#x146;" horiz-adv-x="605" d="M103 0zM283 -224l-8 15q20 10 31 32.5t12 48.5q-19 -5 -30 3.5t-11 24.5q0 14 8 21.5t22 7.5t23 -10t9 -35q0 -35 -13.5 -66t-42.5 -42zM103 478h27l4 -126q24 68 76 102t125 34q85 0 129.5 -44.5t44.5 -138.5v-305h-31v296q0 46 -11 77.5t-30.5 51t-48 28t-62.5 8.5 q-44 0 -78 -15t-58.5 -42.5t-38.5 -65.5t-17 -83v-255h-31v478z" />
<glyph unicode="&#x147;" horiz-adv-x="766" d="M119 0zM381 807l95 86h37v-2l-118 -106h-27l-118 106v2h37zM614 0l-465 656l1 -656h-31v700h35l463 -652l-1 652h31v-700h-33z" />
<glyph unicode="&#x148;" horiz-adv-x="605" d="M103 0zM308 585l95 86h37v-2l-118 -106h-27l-118 106v2h37zM103 478h27l4 -126q24 68 76 102t125 34q85 0 129.5 -44.5t44.5 -138.5v-305h-31v296q0 46 -11 77.5t-30.5 51t-48 28t-62.5 8.5q-44 0 -78 -15t-58.5 -42.5t-38.5 -65.5t-17 -83v-255h-31v478z" />
<glyph unicode="&#x14a;" horiz-adv-x="766" d="M616 -56v54l-467 658l1 -656h-31v700h35l463 -652l-1 652h31v-762q0 -76 -28.5 -109.5t-80.5 -33.5q-18 0 -35.5 2.5t-36.5 10.5l5 26q16 -6 30 -9t34 -3q40 0 60.5 27t20.5 95z" />
<glyph unicode="&#x14b;" horiz-adv-x="605" d="M478 -56v352q0 46 -11 77.5t-30.5 51t-48 28t-62.5 8.5q-44 0 -78 -15t-58.5 -42.5t-38.5 -65.5t-17 -83v-255h-31v478h27l4 -128q23 66 74 102t127 36q85 0 129.5 -44.5t44.5 -138.5v-367q0 -76 -28 -109.5t-81 -33.5q-18 0 -35 2.5t-37 10.5l5 26q16 -6 30 -9t35 -3 q40 0 60 27t20 95z" />
<glyph unicode="&#x14c;" horiz-adv-x="759" d="M81 0zM493 848v-23h-227v23h227zM379 -10q-72 0 -127.5 19.5t-93.5 62.5t-57.5 111.5t-19.5 166.5t20 166.5t58 111.5t93.5 62.5t126.5 19.5q72 0 128 -19.5t94 -62.5t57.5 -111.5t19.5 -166.5t-20 -166.5t-58 -111.5t-93.5 -62.5t-127.5 -19.5zM379 683 q-62 0 -111.5 -16.5t-84 -55.5t-52.5 -103t-18 -158q0 -93 18 -157t52.5 -103t84 -56t111.5 -17q63 0 112.5 17t84 56t52.5 103t18 158q0 93 -18 156.5t-52.5 102.5t-84 56t-112.5 17z" />
<glyph unicode="&#x14d;" horiz-adv-x="577" d="M68 0zM402 626v-23h-227v23h227zM68 238q0 128 56 189t165 61t164.5 -61t55.5 -189q0 -127 -55.5 -187.5t-164.5 -60.5t-165 60t-56 188zM478 237q0 115 -46 170t-143 55q-98 0 -144 -55t-46 -170q0 -113 46 -167t144 -54q97 0 143 54t46 167z" />
<glyph unicode="&#x14e;" horiz-adv-x="759" d="M81 0zM379 -10q-72 0 -127.5 19.5t-93.5 62.5t-57.5 111.5t-19.5 166.5t20 166.5t58 111.5t93.5 62.5t126.5 19.5q72 0 128 -19.5t94 -62.5t57.5 -111.5t19.5 -166.5t-20 -166.5t-58 -111.5t-93.5 -62.5t-127.5 -19.5zM379 683q-62 0 -111.5 -16.5t-84 -55.5t-52.5 -103 t-18 -158q0 -93 18 -157t52.5 -103t84 -56t111.5 -17q63 0 112.5 17t84 56t52.5 103t18 158q0 93 -18 156.5t-52.5 102.5t-84 56t-112.5 17zM472 891h26q0 -59 -32 -82t-88 -23t-87.5 23t-31.5 82h25q0 -48 24.5 -65.5t69.5 -17.5t69.5 17.5t24.5 65.5z" />
<glyph unicode="&#x14f;" horiz-adv-x="577" d="M68 0zM68 238q0 128 56 189t165 61t164.5 -61t55.5 -189q0 -127 -55.5 -187.5t-164.5 -60.5t-165 60t-56 188zM478 237q0 115 -46 170t-143 55q-98 0 -144 -55t-46 -170q0 -113 46 -167t144 -54q97 0 143 54t46 167zM381 669h26q0 -59 -32 -82t-88 -23t-87.5 23t-31.5 82 h25q0 -48 24.5 -65.5t69.5 -17.5t69.5 17.5t24.5 65.5z" />
<glyph unicode="&#x150;" horiz-adv-x="759" d="M81 0zM535 889l-102 -104h-25v3l83 105h44v-4zM427 889l-94 -104h-26v3l79 105h41v-4zM379 -10q-72 0 -127.5 19.5t-93.5 62.5t-57.5 111.5t-19.5 166.5t20 166.5t58 111.5t93.5 62.5t126.5 19.5q72 0 128 -19.5t94 -62.5t57.5 -111.5t19.5 -166.5t-20 -166.5t-58 -111.5 t-93.5 -62.5t-127.5 -19.5zM379 683q-62 0 -111.5 -16.5t-84 -55.5t-52.5 -103t-18 -158q0 -93 18 -157t52.5 -103t84 -56t111.5 -17q63 0 112.5 17t84 56t52.5 103t18 158q0 93 -18 156.5t-52.5 102.5t-84 56t-112.5 17z" />
<glyph unicode="&#x151;" horiz-adv-x="577" d="M68 0zM443 667l-102 -104h-25v3l83 105h44v-4zM335 667l-94 -104h-26v3l79 105h41v-4zM68 238q0 128 56 189t165 61t164.5 -61t55.5 -189q0 -127 -55.5 -187.5t-164.5 -60.5t-165 60t-56 188zM478 237q0 115 -46 170t-143 55q-98 0 -144 -55t-46 -170q0 -113 46 -167 t144 -54q97 0 143 54t46 167z" />
<glyph unicode="&#x152;" horiz-adv-x="1103" d="M1066 0h-698q-69 0 -122.5 20t-90 63.5t-56 111.5t-19.5 163q0 93 19.5 158.5t56 106t90.5 59t123 18.5h686v-27h-443v-307h389v-28h-389v-311h454v-27zM370 27h211v646h-212q-59 0 -106.5 -16t-81 -53t-51.5 -97.5t-18 -148.5q0 -92 18.5 -155t52 -102t81 -56.5 t106.5 -17.5z" />
<glyph unicode="&#x153;" horiz-adv-x="950" d="M68 238q0 128 56 189t165 61q164 0 204 -140q43 140 199 140q99 0 150.5 -60.5t51.5 -175.5q0 -4 -0.5 -7.5t-0.5 -6.5v-7h-385q2 -112 50 -163.5t139 -51.5q64 0 106.5 24t63.5 77l24 -13q-25 -60 -74.5 -87t-120.5 -27q-78 0 -130 34t-73 105q-41 -139 -204 -139 q-109 0 -165 60t-56 188zM691 462q-88 0 -134 -52t-49 -154h356q-5 206 -173 206zM476 237q0 115 -45 170t-142 55q-98 0 -144 -55t-46 -170q0 -113 46 -167t144 -54q97 0 142 54t45 167z" />
<glyph unicode="&#x154;" horiz-adv-x="654" d="M119 0zM471 889l-100 -104h-27v3l84 105h43v-4zM373 673h-222v-357h230q88 0 137.5 45t49.5 135q0 94 -47.5 135.5t-147.5 41.5zM119 0v700h253q122 0 175 -50t53 -153q0 -38 -9 -71t-27.5 -59.5t-48 -45t-71.5 -26.5l163 -295h-34l-161 290q-7 -1 -14 -1.5t-15 -0.5 h-232v-288h-32z" />
<glyph unicode="&#x155;" horiz-adv-x="332" d="M103 0zM298 667l-100 -104h-27v3l84 105h43v-4zM103 0v478h27l2 -135q23 67 72 103.5t113 34.5v-29q-79 2 -127 -50t-56 -151v-251h-31z" />
<glyph unicode="&#x156;" horiz-adv-x="654" d="M119 0zM317 -224l-8 15q20 10 31 32.5t12 48.5q-19 -5 -30 3.5t-11 24.5q0 14 8 21.5t22 7.5t23 -10t9 -35q0 -35 -13.5 -66t-42.5 -42zM373 673h-222v-357h230q88 0 137.5 45t49.5 135q0 94 -47.5 135.5t-147.5 41.5zM119 0v700h253q122 0 175 -50t53 -153q0 -38 -9 -71 t-27.5 -59.5t-48 -45t-71.5 -26.5l163 -295h-34l-161 290q-7 -1 -14 -1.5t-15 -0.5h-232v-288h-32z" />
<glyph unicode="&#x157;" horiz-adv-x="332" d="M86 0zM94 -224l-8 15q20 10 31 32.5t12 48.5q-19 -5 -30 3.5t-11 24.5q0 14 8 21.5t22 7.5t23 -10t9 -35q0 -35 -13.5 -66t-42.5 -42zM103 0v478h27l2 -135q23 67 72 103.5t113 34.5v-29q-79 2 -127 -50t-56 -151v-251h-31z" />
<glyph unicode="&#x158;" horiz-adv-x="654" d="M119 0zM360 807l95 86h37v-2l-118 -106h-27l-118 106v2h37zM373 673h-222v-357h230q88 0 137.5 45t49.5 135q0 94 -47.5 135.5t-147.5 41.5zM119 0v700h253q122 0 175 -50t53 -153q0 -38 -9 -71t-27.5 -59.5t-48 -45t-71.5 -26.5l163 -295h-34l-161 290q-7 -1 -14 -1.5 t-15 -0.5h-232v-288h-32z" />
<glyph unicode="&#x159;" horiz-adv-x="332" d="M79 0zM210 585l95 86h37v-2l-118 -106h-27l-118 106v2h37zM103 0v478h27l2 -135q23 67 72 103.5t113 34.5v-29q-79 2 -127 -50t-56 -151v-251h-31z" />
<glyph unicode="&#x15a;" horiz-adv-x="606" d="M40 0zM399 889l-100 -104h-27v3l84 105h43v-4zM526 587l-26 -16q-33 57 -80.5 85t-128.5 28q-96 0 -145.5 -41t-49.5 -110q0 -56 40.5 -95.5t135.5 -59.5l61 -13q58 -12 98.5 -30t65.5 -42t36 -54t11 -67t-14 -70t-43.5 -58t-76 -39.5t-112.5 -14.5q-91 0 -153.5 30 t-104.5 99l26 17q20 -32 42.5 -54.5t50 -37t62 -21t77.5 -6.5q103 0 159 39t56 117q0 27 -7.5 51t-28 44.5t-56 37t-91.5 28.5l-70 15q-91 20 -143 63.5t-52 120.5q0 36 13 68.5t41 56.5t71 38t102 14q90 0 144.5 -31.5t89.5 -91.5z" />
<glyph unicode="&#x15b;" horiz-adv-x="502" d="M55 0zM354 667l-100 -104h-27v3l84 105h43v-4zM254 15q80 0 112.5 30t32.5 73q0 19 -6 35t-20.5 28.5t-39 22.5t-62.5 19l-53 12q-68 15 -104 44.5t-36 83.5q0 56 40.5 90.5t126.5 34.5q54 0 94 -16t73 -57l-21 -20q-30 38 -64.5 52.5t-82.5 14.5q-69 0 -102.5 -26 t-33.5 -72q0 -38 25 -61.5t92 -38.5l53 -12q46 -11 75.5 -24t46.5 -29.5t23 -35.5t6 -41q0 -28 -9.5 -52t-30.5 -42t-55 -28t-82 -10q-66 0 -113 20t-84 69l22 19q32 -43 73 -63t104 -20z" />
<glyph unicode="&#x15c;" horiz-adv-x="606" d="M40 0zM290 871l-95 -86h-36v2l118 106h27l118 -106v-2h-38zM526 587l-26 -16q-33 57 -80.5 85t-128.5 28q-96 0 -145.5 -41t-49.5 -110q0 -56 40.5 -95.5t135.5 -59.5l61 -13q58 -12 98.5 -30t65.5 -42t36 -54t11 -67t-14 -70t-43.5 -58t-76 -39.5t-112.5 -14.5 q-91 0 -153.5 30t-104.5 99l26 17q20 -32 42.5 -54.5t50 -37t62 -21t77.5 -6.5q103 0 159 39t56 117q0 27 -7.5 51t-28 44.5t-56 37t-91.5 28.5l-70 15q-91 20 -143 63.5t-52 120.5q0 36 13 68.5t41 56.5t71 38t102 14q90 0 144.5 -31.5t89.5 -91.5z" />
<glyph unicode="&#x15d;" horiz-adv-x="502" d="M55 0zM245 649l-95 -86h-36v2l118 106h27l118 -106v-2h-38zM254 15q80 0 112.5 30t32.5 73q0 19 -6 35t-20.5 28.5t-39 22.5t-62.5 19l-53 12q-68 15 -104 44.5t-36 83.5q0 56 40.5 90.5t126.5 34.5q54 0 94 -16t73 -57l-21 -20q-30 38 -64.5 52.5t-82.5 14.5 q-69 0 -102.5 -26t-33.5 -72q0 -38 25 -61.5t92 -38.5l53 -12q46 -11 75.5 -24t46.5 -29.5t23 -35.5t6 -41q0 -28 -9.5 -52t-30.5 -42t-55 -28t-82 -10q-66 0 -113 20t-84 69l22 19q32 -43 73 -63t104 -20z" />
<glyph unicode="&#x15e;" horiz-adv-x="606" d="M280 -221q-33 0 -56 11t-40 37l17 15q15 -23 32 -32.5t46 -9.5q75 0 75 54q0 27 -18 37t-41 10q-6 0 -12 -0.5t-14 -2.5l-11 8l18 84q-82 4 -139.5 34.5t-96.5 94.5l26 17q20 -32 42.5 -54.5t50 -37t62 -21t77.5 -6.5q103 0 159 39t56 117q0 27 -7.5 51t-28 44.5t-56 37 t-91.5 28.5l-70 15q-91 20 -143 63.5t-52 120.5q0 36 13 68.5t41 56.5t71 38t102 14q90 0 144.5 -31.5t89.5 -91.5l-26 -16q-33 57 -80.5 85t-128.5 28q-96 0 -145.5 -41t-49.5 -110q0 -56 40.5 -95.5t135.5 -59.5l61 -13q58 -12 98.5 -30t65.5 -42t36 -54t11 -67t-14 -70 t-43.5 -58t-75.5 -39.5t-111 -14.5l-15 -72q2 1 7 1h11q14 0 27.5 -3.5t24.5 -11t17.5 -20t6.5 -30.5q0 -37 -26.5 -56t-72.5 -19z" />
<glyph unicode="&#x15f;" horiz-adv-x="502" d="M240 -221q-33 0 -56 11t-40 37l17 15q15 -23 32 -32.5t46 -9.5q75 0 75 54q0 27 -18 37t-41 10q-6 0 -12 -0.5t-14 -2.5l-11 8l18 84q-60 2 -103 22.5t-78 66.5l22 19q32 -43 73 -63t104 -20q80 0 112.5 30t32.5 73q0 19 -6 35t-20.5 28.5t-39 22.5t-62.5 19l-53 12 q-68 15 -104 44.5t-36 83.5q0 56 40.5 90.5t126.5 34.5q54 0 94 -16t73 -57l-21 -20q-30 38 -64.5 52.5t-82.5 14.5q-69 0 -102.5 -26t-33.5 -72q0 -38 25 -61.5t92 -38.5l53 -12q46 -11 75.5 -24t46.5 -29.5t23 -35.5t6 -41q0 -28 -9.5 -52t-29.5 -42t-52.5 -28t-77.5 -10 l-15 -72q2 1 7 1h11q14 0 27.5 -3.5t24.5 -11t17.5 -20t6.5 -30.5q0 -37 -26.5 -56t-72.5 -19z" />
<glyph unicode="&#x160;" horiz-adv-x="606" d="M40 0zM287 807l95 86h37v-2l-118 -106h-27l-118 106v2h37zM526 587l-26 -16q-33 57 -80.5 85t-128.5 28q-96 0 -145.5 -41t-49.5 -110q0 -56 40.5 -95.5t135.5 -59.5l61 -13q58 -12 98.5 -30t65.5 -42t36 -54t11 -67t-14 -70t-43.5 -58t-76 -39.5t-112.5 -14.5 q-91 0 -153.5 30t-104.5 99l26 17q20 -32 42.5 -54.5t50 -37t62 -21t77.5 -6.5q103 0 159 39t56 117q0 27 -7.5 51t-28 44.5t-56 37t-91.5 28.5l-70 15q-91 20 -143 63.5t-52 120.5q0 36 13 68.5t41 56.5t71 38t102 14q90 0 144.5 -31.5t89.5 -91.5z" />
<glyph unicode="&#x161;" horiz-adv-x="502" d="M55 0zM243 585l95 86h37v-2l-118 -106h-27l-118 106v2h37zM254 15q80 0 112.5 30t32.5 73q0 19 -6 35t-20.5 28.5t-39 22.5t-62.5 19l-53 12q-68 15 -104 44.5t-36 83.5q0 56 40.5 90.5t126.5 34.5q54 0 94 -16t73 -57l-21 -20q-30 38 -64.5 52.5t-82.5 14.5 q-69 0 -102.5 -26t-33.5 -72q0 -38 25 -61.5t92 -38.5l53 -12q46 -11 75.5 -24t46.5 -29.5t23 -35.5t6 -41q0 -28 -9.5 -52t-30.5 -42t-55 -28t-82 -10q-66 0 -113 20t-84 69l22 19q32 -43 73 -63t104 -20z" />
<glyph unicode="&#x162;" horiz-adv-x="560" d="M14 0zM256 -224l-8 15q20 10 31 32.5t12 48.5q-19 -5 -30 3.5t-11 24.5q0 14 8 21.5t22 7.5t23 -10t9 -35q0 -35 -13.5 -66t-42.5 -42zM14 700h532v-27h-250v-673h-32v673h-250v27z" />
<glyph unicode="&#x163;" horiz-adv-x="339" d="M19 0zM219 -224l-8 15q20 10 31 32.5t12 48.5q-19 -5 -30 3.5t-11 24.5q0 14 8 21.5t22 7.5t23 -10t9 -35q0 -35 -13.5 -66t-42.5 -42zM19 478h96v148h30v-148h168v-25h-168v-288q0 -46 8 -74.5t22.5 -44.5t34.5 -22t45 -6q22 0 36.5 3t31.5 8l6 -26q-26 -8 -43.5 -10.5 t-38.5 -2.5q-62 0 -97 37t-35 123v303h-96v25z" />
<glyph unicode="&#x164;" horiz-adv-x="560" d="M14 0zM278 807l95 86h37v-2l-118 -106h-27l-118 106v2h37zM14 700h532v-27h-250v-673h-32v673h-250v27z" />
<glyph unicode="&#x165;" horiz-adv-x="342" d="M244 554h-23l7 162h38zM19 478h96v148h30v-148h168v-25h-168v-288q0 -46 8 -74.5t22.5 -44.5t34.5 -22t45 -6q22 0 36.5 3t31.5 8l6 -26q-26 -8 -43.5 -10.5t-38.5 -2.5q-62 0 -97 37t-35 123v303h-96v25z" />
<glyph unicode="&#x166;" horiz-adv-x="560" d="M14 700h532v-27h-250v-310h204v-23h-204v-340h-32v340h-204v23h204v310h-250v27z" />
<glyph unicode="&#x167;" horiz-adv-x="339" d="M313 478v-25h-168v-131h168v-22h-168v-135q0 -46 8 -74.5t22.5 -44.5t34.5 -22t45 -6q22 0 36.5 3t31.5 8l6 -26q-26 -8 -43.5 -10.5t-38.5 -2.5q-62 0 -97 37t-35 123v150h-96v22h96v131h-96v25h96v148h30v-148h168z" />
<glyph unicode="&#x168;" horiz-adv-x="734" d="M97 0zM605 260v440h32v-440q0 -70 -18.5 -121t-53.5 -84t-85 -49t-113 -16q-127 0 -198.5 65t-71.5 205v440h32v-440q0 -66 17 -112t48 -75t75 -42.5t98 -13.5t98 13.5t75 42.5t48 75t17 112zM467 877h25q0 -23 -6 -37.5t-16 -23t-21.5 -11.5t-21.5 -3q-21 0 -36 8.5 t-28 19t-26 19t-30 8.5q-14 0 -27 -10t-14 -41h-25q0 23 6 37.5t15.5 23t20.5 11.5t22 3q21 0 36 -8.5t28 -19t26.5 -19t31.5 -8.5q17 0 28 11t12 40z" />
<glyph unicode="&#x169;" horiz-adv-x="604" d="M96 0zM474 0l-3 122q-23 -65 -74.5 -98.5t-123.5 -33.5q-87 0 -132 47.5t-45 144.5v296h31v-289q0 -48 11 -80.5t31 -53t48 -29.5t62 -9q46 0 80 14.5t57.5 40t37 61t16.5 77.5v268h31v-478h-27zM398 656h25q0 -23 -6 -37.5t-16 -23t-21.5 -11.5t-21.5 -3q-21 0 -36 8.5 t-28 19t-26 19t-30 8.5q-14 0 -27 -10t-14 -41h-25q0 23 6 37.5t15.5 23t20.5 11.5t22 3q21 0 36 -8.5t28 -19t26.5 -19t31.5 -8.5q17 0 28 11t12 40z" />
<glyph unicode="&#x16a;" horiz-adv-x="734" d="M97 0zM605 260v440h32v-440q0 -70 -18.5 -121t-53.5 -84t-85 -49t-113 -16q-127 0 -198.5 65t-71.5 205v440h32v-440q0 -66 17 -112t48 -75t75 -42.5t98 -13.5t98 13.5t75 42.5t48 75t17 112zM481 847v-23h-227v23h227z" />
<glyph unicode="&#x16b;" horiz-adv-x="604" d="M96 0zM474 0l-3 122q-23 -65 -74.5 -98.5t-123.5 -33.5q-87 0 -132 47.5t-45 144.5v296h31v-289q0 -48 11 -80.5t31 -53t48 -29.5t62 -9q46 0 80 14.5t57.5 40t37 61t16.5 77.5v268h31v-478h-27zM412 626v-23h-227v23h227z" />
<glyph unicode="&#x16c;" horiz-adv-x="734" d="M97 0zM605 260v440h32v-440q0 -70 -18.5 -121t-53.5 -84t-85 -49t-113 -16q-127 0 -198.5 65t-71.5 205v440h32v-440q0 -66 17 -112t48 -75t75 -42.5t98 -13.5t98 13.5t75 42.5t48 75t17 112zM461 890h26q0 -59 -32 -82t-88 -23t-87.5 23t-31.5 82h25q0 -48 24.5 -65.5 t69.5 -17.5t69.5 17.5t24.5 65.5z" />
<glyph unicode="&#x16d;" horiz-adv-x="604" d="M96 0zM474 0l-3 122q-23 -65 -74.5 -98.5t-123.5 -33.5q-87 0 -132 47.5t-45 144.5v296h31v-289q0 -48 11 -80.5t31 -53t48 -29.5t62 -9q46 0 80 14.5t57.5 40t37 61t16.5 77.5v268h31v-478h-27zM391 669h26q0 -59 -32 -82t-88 -23t-87.5 23t-31.5 82h25 q0 -48 24.5 -65.5t69.5 -17.5t69.5 17.5t24.5 65.5z" />
<glyph unicode="&#x16e;" horiz-adv-x="734" d="M97 0zM284 850q0 38 24.5 62t61.5 24q35 0 59 -24t24 -62t-24 -62t-61 -24q-35 0 -59.5 24t-24.5 62zM304 850q0 -29 19 -48.5t45 -19.5q28 0 46.5 19.5t18.5 48.5t-18.5 48.5t-44.5 19.5q-28 0 -47 -19.5t-19 -48.5zM605 260v440h32v-440q0 -70 -18.5 -121t-53.5 -84 t-85 -49t-113 -16q-127 0 -198.5 65t-71.5 205v440h32v-440q0 -66 17 -112t48 -75t75 -42.5t98 -13.5t98 13.5t75 42.5t48 75t17 112z" />
<glyph unicode="&#x16f;" horiz-adv-x="604" d="M96 0zM214 629q0 38 24.5 62t61.5 24q35 0 59 -24t24 -62t-24 -62t-61 -24q-35 0 -59.5 24t-24.5 62zM234 629q0 -29 19 -48.5t45 -19.5q28 0 46.5 19.5t18.5 48.5t-18.5 48.5t-44.5 19.5q-28 0 -47 -19.5t-19 -48.5zM474 0l-3 122q-23 -65 -74.5 -98.5t-123.5 -33.5 q-87 0 -132 47.5t-45 144.5v296h31v-289q0 -48 11 -80.5t31 -53t48 -29.5t62 -9q46 0 80 14.5t57.5 40t37 61t16.5 77.5v268h31v-478h-27z" />
<glyph unicode="&#x170;" horiz-adv-x="734" d="M97 0zM605 260v440h32v-440q0 -70 -18.5 -121t-53.5 -84t-85 -49t-113 -16q-127 0 -198.5 65t-71.5 205v440h32v-440q0 -66 17 -112t48 -75t75 -42.5t98 -13.5t98 13.5t75 42.5t48 75t17 112zM523 888l-102 -104h-25v3l83 105h44v-4zM415 888l-94 -104h-26v3l79 105h41 v-4z" />
<glyph unicode="&#x171;" horiz-adv-x="604" d="M96 0zM474 0l-3 122q-23 -65 -74.5 -98.5t-123.5 -33.5q-87 0 -132 47.5t-45 144.5v296h31v-289q0 -48 11 -80.5t31 -53t48 -29.5t62 -9q46 0 80 14.5t57.5 40t37 61t16.5 77.5v268h31v-478h-27zM451 667l-102 -104h-25v3l83 105h44v-4zM343 667l-94 -104h-26v3l79 105 h41v-4z" />
<glyph unicode="&#x172;" horiz-adv-x="734" d="M364 -101q0 34 13 57t34 38q-11 -2 -23.5 -3t-23.5 -1q-62 1 -111.5 17t-84 49t-53 83.5t-18.5 120.5v440h32v-440q0 -66 17 -112t48 -75t75 -42.5t98 -13.5t98 13.5t75 42.5t48 75t17 112v440h32v-440q0 -109 -44.5 -171.5t-123.5 -85.5q-32 -9 -56 -34t-24 -67 q0 -43 20.5 -60t49.5 -17q18 0 33.5 4t31.5 15l7 -21q-34 -21 -74 -21q-18 0 -35 5t-30 16.5t-20.5 30t-7.5 45.5z" />
<glyph unicode="&#x173;" horiz-adv-x="604" d="M467 -198q-18 0 -35 4.5t-29.5 14.5t-20.5 26.5t-8 40.5q0 25 8.5 45.5t23 36t32.5 26t36 15.5l-3 114q-23 -66 -74.5 -100.5t-123.5 -34.5q-87 0 -132 47.5t-45 144.5v296h31v-289q0 -48 11 -80.5t31 -53t48 -29.5t62 -9q46 0 80 14.5t57.5 40t37 61t16.5 77.5v268h31 v-478q-19 -2 -37.5 -11t-32.5 -23.5t-23 -33.5t-9 -41q0 -38 20.5 -52t50.5 -14q17 0 32.5 4t31.5 15l7 -21q-17 -11 -35.5 -16t-38.5 -5z" />
<glyph unicode="&#x174;" horiz-adv-x="902" d="M16 0zM450 871l-95 -86h-36v2l118 106h27l118 -106v-2h-38zM433 692h32l185 -648l204 656h31l-219 -700h-33l-185 645l-183 -645h-34l-215 700h33l199 -657z" />
<glyph unicode="&#x175;" horiz-adv-x="696" d="M13 0zM349 649l-95 -86h-36v2l118 106h27l118 -106v-2h-38zM333 467h32l140 -432l148 443h31l-162 -478h-35l-139 428l-138 -428h-35l-162 478h31l149 -443z" />
<glyph unicode="&#x176;" horiz-adv-x="590" d="M21 0zM279 286l-258 414h35l239 -385l240 385h34l-258 -414v-286h-32v286zM296 871l-95 -86h-36v2l118 106h27l118 -106v-2h-38z" />
<glyph unicode="&#x177;" horiz-adv-x="466" d="M0 0zM198 -48l18 46l-204 480h33l188 -448l188 448h32l-229 -538q-20 -46 -40.5 -74.5t-42 -44t-44 -21t-46.5 -5.5q-19 0 -36 2.5t-37 10.5l5 26q17 -6 31.5 -9t35.5 -3q19 0 37.5 4t36.5 17.5t36.5 39.5t37.5 69zM233 649l-95 -86h-36v2l118 106h27l118 -106v-2h-38z " />
<glyph unicode="&#x178;" horiz-adv-x="590" d="M21 0zM279 286l-258 414h35l239 -385l240 385h34l-258 -414v-286h-32v286zM332 832q0 14 8.5 22t22.5 8q31 0 31 -30t-31 -30q-14 0 -22.5 8t-8.5 22zM197 832q0 14 8 22t22 8q31 0 31 -30t-31 -30q-14 0 -22 8t-8 22z" />
<glyph unicode="&#x179;" horiz-adv-x="571" d="M31 0zM400 889l-100 -104h-27v3l84 105h43v-4zM31 0v25l468 648h-447v27h485v-25l-469 -648h480v-27h-517z" />
<glyph unicode="&#x17a;" horiz-adv-x="469" d="M40 0zM342 667l-100 -104h-27v3l84 105h43v-4zM40 0v24l342 429h-333v25h370v-24l-343 -429h349v-25h-385z" />
<glyph unicode="&#x17b;" horiz-adv-x="571" d="M31 0zM31 0v25l468 648h-447v27h485v-25l-469 -648h480v-27h-517zM262 832q0 30 31 30q30 0 30 -30t-30 -30q-31 0 -31 30z" />
<glyph unicode="&#x17c;" horiz-adv-x="469" d="M40 0zM40 0v24l342 429h-333v25h370v-24l-343 -429h349v-25h-385zM204 610q0 30 31 30q30 0 30 -30t-30 -30q-31 0 -31 30z" />
<glyph unicode="&#x17d;" horiz-adv-x="571" d="M31 0zM288 807l95 86h37v-2l-118 -106h-27l-118 106v2h37zM31 0v25l468 648h-447v27h485v-25l-469 -648h480v-27h-517z" />
<glyph unicode="&#x17e;" horiz-adv-x="469" d="M40 0zM231 585l95 86h37v-2l-118 -106h-27l-118 106v2h37zM40 0v24l342 429h-333v25h370v-24l-343 -429h349v-25h-385z" />
<glyph unicode="&#x192;" horiz-adv-x="380" d="M77 -57l60 385h-95l4 25h95l19 120q12 76 48.5 109.5t94.5 33.5q20 0 40 -4t38 -13l-9 -26q-16 8 -30.5 11.5t-37.5 3.5q-47 0 -75 -26.5t-39 -93.5l-19 -115h165l-4 -25h-164l-62 -390q-12 -76 -44.5 -109.5t-83.5 -33.5q-18 0 -36 2.5t-34 10.5l9 26q14 -6 27.5 -9 t33.5 -3q39 0 63.5 26.5t35.5 94.5z" />
<glyph unicode="&#x218;" horiz-adv-x="606" d="M40 0zM275 -224l-8 15q20 10 31 32.5t12 48.5q-19 -5 -30 3.5t-11 24.5q0 14 8 21.5t22 7.5t23 -10t9 -35q0 -35 -13.5 -66t-42.5 -42zM526 587l-26 -16q-33 57 -80.5 85t-128.5 28q-96 0 -145.5 -41t-49.5 -110q0 -56 40.5 -95.5t135.5 -59.5l61 -13q58 -12 98.5 -30 t65.5 -42t36 -54t11 -67t-14 -70t-43.5 -58t-76 -39.5t-112.5 -14.5q-91 0 -153.5 30t-104.5 99l26 17q20 -32 42.5 -54.5t50 -37t62 -21t77.5 -6.5q103 0 159 39t56 117q0 27 -7.5 51t-28 44.5t-56 37t-91.5 28.5l-70 15q-91 20 -143 63.5t-52 120.5q0 36 13 68.5t41 56.5 t71 38t102 14q90 0 144.5 -31.5t89.5 -91.5z" />
<glyph unicode="&#x219;" horiz-adv-x="502" d="M55 0zM235 -224l-8 15q20 10 31 32.5t12 48.5q-19 -5 -30 3.5t-11 24.5q0 14 8 21.5t22 7.5t23 -10t9 -35q0 -35 -13.5 -66t-42.5 -42zM254 15q80 0 112.5 30t32.5 73q0 19 -6 35t-20.5 28.5t-39 22.5t-62.5 19l-53 12q-68 15 -104 44.5t-36 83.5q0 56 40.5 90.5 t126.5 34.5q54 0 94 -16t73 -57l-21 -20q-30 38 -64.5 52.5t-82.5 14.5q-69 0 -102.5 -26t-33.5 -72q0 -38 25 -61.5t92 -38.5l53 -12q46 -11 75.5 -24t46.5 -29.5t23 -35.5t6 -41q0 -28 -9.5 -52t-30.5 -42t-55 -28t-82 -10q-66 0 -113 20t-84 69l22 19q32 -43 73 -63 t104 -20z" />
<glyph unicode="&#x237;" horiz-adv-x="243" d="M106 -56v534h31v-540q0 -76 -28 -109.5t-81 -33.5q-19 0 -36 2.5t-37 10.5l6 25q16 -6 30 -9t34 -3q41 0 61 27t20 96z" />
<glyph unicode="&#x2c6;" horiz-adv-x="600" d="M295 649l-95 -86h-36v2l118 106h27l118 -106v-2h-38z" />
<glyph unicode="&#x2c7;" horiz-adv-x="600" d="M295 585l95 86h37v-2l-118 -106h-27l-118 106v2h37z" />
<glyph unicode="&#x2d8;" horiz-adv-x="600" d="M393 669h26q0 -59 -32 -82t-88 -23t-87.5 23t-31.5 82h25q0 -48 24.5 -65.5t69.5 -17.5t69.5 17.5t24.5 65.5z" />
<glyph unicode="&#x2d9;" horiz-adv-x="600" d="M272 610q0 30 31 30q30 0 30 -30t-30 -30q-31 0 -31 30z" />
<glyph unicode="&#x2da;" horiz-adv-x="600" d="M218 629q0 38 24.5 62t61.5 24q35 0 59 -24t24 -62t-24 -62t-61 -24q-35 0 -59.5 24t-24.5 62zM238 629q0 -29 19 -48.5t45 -19.5q28 0 46.5 19.5t18.5 48.5t-18.5 48.5t-44.5 19.5q-28 0 -47 -19.5t-19 -48.5z" />
<glyph unicode="&#x2db;" horiz-adv-x="600" d="M308 -198q-18 0 -35 4.5t-30 14.5t-20.5 26.5t-7.5 40.5q0 29 11.5 52t29.5 39.5t40 25.5t43 11l2 -16q-19 -2 -37 -11t-32.5 -23.5t-23 -33.5t-8.5 -41q0 -38 20.5 -52t49.5 -14q18 0 33.5 4t30.5 15l8 -21q-34 -21 -74 -21z" />
<glyph unicode="&#x2dc;" horiz-adv-x="600" d="M408 656h25q0 -23 -6 -37.5t-16 -23t-21.5 -11.5t-21.5 -3q-21 0 -36 8.5t-28 19t-26 19t-30 8.5q-14 0 -27 -10t-14 -41h-25q0 23 6 37.5t15.5 23t20.5 11.5t22 3q21 0 36 -8.5t28 -19t26.5 -19t31.5 -8.5q17 0 28 11t12 40z" />
<glyph unicode="&#x2dd;" horiz-adv-x="600" d="M472 667l-102 -104h-25v3l83 105h44v-4zM364 667l-94 -104h-26v3l79 105h41v-4z" />
<glyph unicode="&#x1e80;" horiz-adv-x="902" d="M16 0zM433 692h32l185 -648l204 656h31l-219 -700h-33l-185 645l-183 -645h-34l-215 700h33l199 -657zM440 785l-100 104v4h43l84 -105v-3h-27z" />
<glyph unicode="&#x1e81;" horiz-adv-x="696" d="M13 0zM333 467h32l140 -432l148 443h31l-162 -478h-35l-139 428l-138 -428h-35l-162 478h31l149 -443zM338 563l-100 104v4h43l84 -105v-3h-27z" />
<glyph unicode="&#x1e82;" horiz-adv-x="902" d="M16 0zM559 889l-100 -104h-27v3l84 105h43v-4zM433 692h32l185 -648l204 656h31l-219 -700h-33l-185 645l-183 -645h-34l-215 700h33l199 -657z" />
<glyph unicode="&#x1e83;" horiz-adv-x="696" d="M13 0zM458 667l-100 -104h-27v3l84 105h43v-4zM333 467h32l140 -432l148 443h31l-162 -478h-35l-139 428l-138 -428h-35l-162 478h31l149 -443z" />
<glyph unicode="&#x1e84;" horiz-adv-x="902" d="M16 0zM487 832q0 14 8.5 22t22.5 8q31 0 31 -30t-31 -30q-14 0 -22.5 8t-8.5 22zM352 832q0 14 8 22t22 8q31 0 31 -30t-31 -30q-14 0 -22 8t-8 22zM433 692h32l185 -648l204 656h31l-219 -700h-33l-185 645l-183 -645h-34l-215 700h33l199 -657z" />
<glyph unicode="&#x1e85;" horiz-adv-x="696" d="M13 0zM385 610q0 14 8.5 22t22.5 8q31 0 31 -30t-31 -30q-14 0 -22.5 8t-8.5 22zM250 610q0 14 8 22t22 8q31 0 31 -30t-31 -30q-14 0 -22 8t-8 22zM333 467h32l140 -432l148 443h31l-162 -478h-35l-139 428l-138 -428h-35l-162 478h31l149 -443z" />
<glyph unicode="&#x2000;" horiz-adv-x="468" />
<glyph unicode="&#x2001;" horiz-adv-x="937" />
<glyph unicode="&#x2002;" horiz-adv-x="500" />
<glyph unicode="&#x2003;" horiz-adv-x="1000" />
<glyph unicode="&#x2004;" horiz-adv-x="333" />
<glyph unicode="&#x2005;" horiz-adv-x="250" />
<glyph unicode="&#x2006;" horiz-adv-x="167" />
<glyph unicode="&#x2007;" />
<glyph unicode="&#x2008;" horiz-adv-x="198" />
<glyph unicode="&#x2009;" horiz-adv-x="200" />
<glyph unicode="&#x200a;" horiz-adv-x="100" />
<glyph unicode="&#x200b;" horiz-adv-x="0" />
<glyph unicode="&#x2010;" horiz-adv-x="400" d="M350 256v-26h-300v26h300z" />
<glyph unicode="&#x2011;" horiz-adv-x="400" d="M350 256v-26h-300v26h300z" />
<glyph unicode="&#x2012;" horiz-adv-x="588" d="M539 256v-26h-489v26h489z" />
<glyph unicode="&#x2013;" horiz-adv-x="588" d="M539 256v-26h-489v26h489z" />
<glyph unicode="&#x2014;" horiz-adv-x="788" d="M739 256v-26h-689v26h689z" />
<glyph unicode="&#x2015;" horiz-adv-x="1087" d="M1038 256v-26h-988v26h988z" />
<glyph unicode="&#x2018;" horiz-adv-x="197" d="M124 720l7 -15q-20 -11 -31 -34t-12 -50q19 5 30 -3.5t11 -24.5q0 -14 -8 -21.5t-22 -7.5q-15 0 -23.5 9.5t-8.5 35.5q0 36 13.5 67.5t43.5 43.5z" />
<glyph unicode="&#x2019;" horiz-adv-x="197" d="M67 560zM74 560l-7 15q20 11 31 34t12 50q-19 -5 -30 3.5t-11 24.5q0 14 8 21.5t22 7.5q15 0 23.5 -9.5t8.5 -35.5q0 -36 -13.5 -67.5t-43.5 -43.5z" />
<glyph unicode="&#x201a;" horiz-adv-x="196" d="M74 -101l-7 14q20 11 30.5 34t11.5 50q-18 -5 -29 3.5t-11 24.5q0 14 8 21.5t21 7.5q15 0 23.5 -9.5t8.5 -35.5q0 -36 -13.5 -67.5t-42.5 -42.5z" />
<glyph unicode="&#x201c;" horiz-adv-x="297" d="M124 720l7 -15q-20 -11 -31 -34t-12 -50q19 5 30 -3.5t11 -24.5q0 -14 -8 -21.5t-22 -7.5q-15 0 -23.5 9.5t-8.5 35.5q0 36 13.5 67.5t43.5 43.5zM224 720l7 -15q-20 -11 -31 -34t-12 -50q19 5 30 -3.5t11 -24.5q0 -14 -8 -21.5t-22 -7.5q-15 0 -23.5 9.5t-8.5 35.5 q0 36 13.5 67.5t43.5 43.5z" />
<glyph unicode="&#x201d;" horiz-adv-x="297" d="M65 560zM72 560l-7 15q20 11 31 34t12 50q-19 -5 -30 3.5t-11 24.5q0 14 8 21.5t22 7.5q15 0 23.5 -9.5t8.5 -35.5q0 -36 -13.5 -67.5t-43.5 -43.5zM174 560l-7 15q20 11 31 34t12 50q-19 -5 -30 3.5t-11 24.5q0 14 8 21.5t22 7.5q15 0 23.5 -9.5t8.5 -35.5 q0 -36 -13.5 -67.5t-43.5 -43.5z" />
<glyph unicode="&#x201e;" horiz-adv-x="297" d="M73 -101l-7 14q20 11 30.5 34t11.5 50q-18 -5 -29 3.5t-11 24.5q0 14 8 21.5t21 7.5q15 0 23.5 -9.5t8.5 -35.5q0 -36 -13.5 -67.5t-42.5 -42.5zM174 -101l-7 14q20 11 30.5 34t11.5 50q-18 -5 -29 3.5t-11 24.5q0 14 8 21.5t21 7.5q15 0 23.5 -9.5t8.5 -35.5 q0 -36 -13.5 -67.5t-42.5 -42.5z" />
<glyph unicode="&#x2020;" horiz-adv-x="301" d="M237 570h-74l-1 -236h-25v236h-74v23h73l-1 116h30l-1 -116h73v-23z" />
<glyph unicode="&#x2021;" horiz-adv-x="301" d="M63 465h74v108h-74v23h73l-1 113h30l-2 -113h74v-23h-74v-108h74v-23h-74l2 -115h-30l1 115h-73v23z" />
<glyph unicode="&#x2022;" horiz-adv-x="430" d="M83 327q0 60 35.5 95.5t96.5 35.5t96.5 -35.5t35.5 -95.5t-35.5 -95.5t-96.5 -35.5t-96.5 35.5t-35.5 95.5z" />
<glyph unicode="&#x2026;" horiz-adv-x="594" d="M465 24q0 14 8 22t22 8q31 0 31 -30q0 -14 -8.5 -22t-22.5 -8t-22 8t-8 22zM266 24q0 30 31 30t31 -30q0 -14 -8.5 -22t-22.5 -8t-22.5 8t-8.5 22zM68 24q0 30 31 30t31 -30q0 -14 -8.5 -22t-22.5 -8t-22.5 8t-8.5 22z" />
<glyph unicode="&#x202f;" horiz-adv-x="187" />
<glyph unicode="&#x2030;" horiz-adv-x="1417" d="M48 0zM638 204q0 114 40.5 162t117.5 48q76 0 116 -48t40 -162q0 -113 -40 -162t-116 -49q-77 0 -117.5 48.5t-40.5 162.5zM924 204q0 52 -9 88t-25.5 58t-40 31.5t-53.5 9.5q-31 0 -55 -9.5t-40.5 -31.5t-25.5 -58t-9 -88q0 -53 9 -89t25.5 -57.5t40.5 -31t54 -9.5 t54 9.5t40.5 31t25.5 57.5t9 89zM48 497q0 114 40.5 162t117.5 48q76 0 116 -48t40 -162q0 -113 -40 -162t-116 -49q-77 0 -117.5 48.5t-40.5 162.5zM334 497q0 52 -9 88t-25.5 58t-40 31.5t-53.5 9.5q-31 0 -55 -9.5t-40.5 -31.5t-25.5 -58t-9 -88q0 -53 9 -89t25.5 -57.5 t40.5 -31t54 -9.5t54 9.5t40.5 31t25.5 57.5t9 89zM1052 204q0 114 40.5 162t117.5 48q76 0 116 -48t40 -162q0 -113 -40 -162t-116 -49q-77 0 -117.5 48.5t-40.5 162.5zM1338 204q0 52 -9 88t-25.5 58t-40 31.5t-53.5 9.5q-31 0 -55 -9.5t-40.5 -31.5t-25.5 -58t-9 -88 q0 -53 9 -89t25.5 -57.5t40.5 -31t54 -9.5t54 9.5t40.5 31t25.5 57.5t9 89zM678 700l-332 -700h-30l334 700h28z" />
<glyph unicode="&#x2039;" horiz-adv-x="403" d="M257 0l-191 238v3l191 237h36l-193 -239l194 -239h-37z" />
<glyph unicode="&#x203a;" horiz-adv-x="403" d="M146 478l191 -238v-3l-191 -237h-36l193 239l-194 239h37z" />
<glyph unicode="&#x2044;" horiz-adv-x="481" d="M425 700l-332 -700h-30l334 700h28z" />
<glyph unicode="&#x205f;" horiz-adv-x="234" />
<glyph unicode="&#x2070;" horiz-adv-x="412" d="M48 288zM48 499q0 114 40.5 162t117.5 48q76 0 116 -48t40 -162q0 -113 -40 -162t-116 -49q-77 0 -117.5 48.5t-40.5 162.5zM334 499q0 52 -9 88t-25.5 58t-40 31.5t-53.5 9.5q-31 0 -55 -9.5t-40.5 -31.5t-25.5 -58t-9 -88q0 -53 9 -89t25.5 -57.5t40.5 -31t54 -9.5 t54 9.5t40.5 31t25.5 57.5t9 89z" />
<glyph unicode="&#x2074;" horiz-adv-x="380" d="M33 295zM33 405v21l145 276h28l-145 -273h204v203h27v-203h68v-24h-68v-110h-27v110h-232z" />
<glyph unicode="&#x2075;" horiz-adv-x="356" d="M39 288zM98 679l-18 -168q26 20 53.5 28t57.5 8q60 0 98 -29t38 -93q0 -60 -37 -98.5t-111 -38.5q-45 0 -81.5 15.5t-58.5 52.5q1 2 10 8.5t10 7.5q17 -29 46 -44.5t73 -15.5q63 0 92.5 32t29.5 80q0 51 -29.5 76.5t-86.5 25.5q-36 0 -62.5 -10.5t-51.5 -30.5l-16 7 l23 210h229v-23h-208z" />
<glyph unicode="&#x2076;" horiz-adv-x="384" d="M48 288zM209 288q-35 0 -64 11.5t-51 36t-34 63.5t-12 95q0 113 44 164t119 51q42 0 73.5 -15t48.5 -48l-20 -14q-16 30 -43 42t-60 12q-30 0 -54.5 -10.5t-42.5 -33t-28 -59.5t-10 -89v-22q0 -13 2 -27q7 46 42 74.5t91 28.5q61 0 98 -32t37 -95q0 -61 -35 -97t-101 -36 zM90 415q0 -18 7 -36.5t21 -33.5t36.5 -24.5t52.5 -9.5q51 0 81 28t30 82q0 49 -29.5 76.5t-84.5 27.5q-53 0 -83.5 -29t-30.5 -81z" />
<glyph unicode="&#x2077;" horiz-adv-x="298" d="M29 295zM128 295h-28q0 52 11 106.5t32 106t50.5 95.5t66.5 75h-231v24h266v-21q-37 -25 -67.5 -66.5t-52.5 -93t-34 -110t-13 -116.5z" />
<glyph unicode="&#x2078;" horiz-adv-x="380" d="M46 288zM189 288q-69 0 -106 31t-37 87q0 44 25.5 71.5t68.5 35.5q-35 8 -55.5 32t-20.5 62q0 102 125 102q126 0 126 -101q0 -38 -21 -62.5t-56 -32.5q43 -8 68.5 -35.5t25.5 -71.5q0 -56 -36.5 -87t-106.5 -31zM290 607q0 38 -25 59t-76 21t-75.5 -21t-24.5 -59 t25 -60.5t75 -22.5t75.5 22.5t25.5 60.5zM305 407q0 43 -29.5 68t-86.5 25q-56 0 -85.5 -25t-29.5 -68q0 -45 28.5 -71t86.5 -26t87 26t29 71z" />
<glyph unicode="&#x2079;" horiz-adv-x="384" d="M35 288zM169 288q-42 0 -74.5 15t-49.5 47l19 15q17 -29 45 -41t60 -12q63 0 99.5 45.5t35.5 145.5v20q0 12 -2 23q-8 -45 -42.5 -71.5t-90.5 -26.5q-60 0 -97 32t-37 96q0 61 35 97t102 36q34 0 63.5 -11t51 -35.5t33.5 -64t12 -95.5q0 -113 -44.5 -164t-118.5 -51z M290 581q0 19 -7 37.5t-21.5 33.5t-37 24.5t-52.5 9.5q-51 0 -80.5 -27.5t-29.5 -81.5q0 -50 29 -78t83 -28q53 0 84.5 29t31.5 81z" />
<glyph unicode="&#x207a;" horiz-adv-x="309" d="M40 362zM167 362h-24v103h-103v22h103v107h24v-107h102v-22h-102v-103z" />
<glyph unicode="&#x207b;" horiz-adv-x="309" d="M40 465zM269 487v-22h-229v22h229z" />
<glyph unicode="&#x207c;" horiz-adv-x="309" d="M40 433zM269 523v-23h-229v23h229zM269 455v-22h-229v22h229z" />
<glyph unicode="&#x207d;" horiz-adv-x="212" d="M42 252zM169 274l-3 -22q-60 10 -92 69t-32 162t32 162.5t92 68.5l3 -21q-48 -10 -75.5 -62t-27.5 -148t27.5 -148t75.5 -61z" />
<glyph unicode="&#x207e;" horiz-adv-x="212" d="M43 252zM46 252l-3 22q48 9 75.5 61t27.5 148t-27.5 148t-75.5 62l3 21q60 -9 92 -68.5t32 -162.5t-32 -162t-92 -69z" />
<glyph unicode="&#x2080;" horiz-adv-x="412" d="M48 204q0 114 40.5 162t117.5 48q76 0 116 -48t40 -162q0 -113 -40 -162t-116 -49q-77 0 -117.5 48.5t-40.5 162.5zM334 204q0 52 -9 88t-25.5 58t-40 31.5t-53.5 9.5q-31 0 -55 -9.5t-40.5 -31.5t-25.5 -58t-9 -88q0 -53 9 -89t25.5 -57.5t40.5 -31t54 -9.5t54 9.5 t40.5 31t25.5 57.5t9 89z" />
<glyph unicode="&#x2081;" horiz-adv-x="184" d="M112 0h-27v373l-60 -49l-11 22l80 62h18v-408z" />
<glyph unicode="&#x2082;" horiz-adv-x="350" d="M30 0v23l163 161q46 46 61.5 75t15.5 52q0 40 -25 60t-72 20q-48 0 -74.5 -18.5t-45.5 -53.5l-20 15q22 39 54 59.5t87 20.5q62 0 92.5 -27t30.5 -72q0 -16 -4 -31.5t-14 -33t-26.5 -37t-40.5 -43.5l-145 -146l253 1v-25h-290z" />
<glyph unicode="&#x2083;" horiz-adv-x="363" d="M173 -7q-51 0 -84.5 16.5t-55.5 53.5l20 15q20 -32 48 -46.5t70 -14.5q63 0 91.5 26t28.5 71q0 18 -5 34t-16 28t-30 19t-47 7h-62v23h62q36 0 60.5 22t24.5 62q0 82 -103 82q-43 0 -68 -15.5t-45 -48.5l-19 13q21 38 52 56t82 18q65 0 96.5 -27.5t31.5 -75.5 q0 -35 -17.5 -60t-49.5 -36q24 -5 39.5 -15.5t24.5 -24t12.5 -29t3.5 -31.5q0 -57 -36 -89.5t-109 -32.5z" />
<glyph unicode="&#x2084;" horiz-adv-x="380" d="M33 110v21l145 276h28l-145 -273h204v203h27v-203h68v-24h-68v-110h-27v110h-232z" />
<glyph unicode="&#x2085;" horiz-adv-x="356" d="M98 384l-18 -168q26 20 53.5 28t57.5 8q60 0 98 -29t38 -93q0 -60 -37 -98.5t-111 -38.5q-45 0 -81.5 15.5t-58.5 52.5q1 2 10 8.5t10 7.5q17 -29 46 -44.5t73 -15.5q63 0 92.5 32t29.5 80q0 51 -29.5 76.5t-86.5 25.5q-36 0 -62.5 -10.5t-51.5 -30.5l-16 7l23 210h229 v-23h-208z" />
<glyph unicode="&#x2086;" horiz-adv-x="384" d="M209 -7q-35 0 -64 11.5t-51 36t-34 63.5t-12 95q0 113 44 164t119 51q42 0 73.5 -15t48.5 -48l-20 -14q-16 30 -43 42t-60 12q-30 0 -54.5 -10.5t-42.5 -33t-28 -59.5t-10 -89v-22q0 -13 2 -27q7 46 42 74.5t91 28.5q61 0 98 -32t37 -95q0 -61 -35 -97t-101 -36zM90 120 q0 -18 7 -36.5t21 -33.5t36.5 -24.5t52.5 -9.5q51 0 81 28t30 82q0 49 -29.5 76.5t-84.5 27.5q-53 0 -83.5 -29t-30.5 -81z" />
<glyph unicode="&#x2087;" horiz-adv-x="298" d="M128 0h-28q0 52 11 106.5t32 106t50.5 95.5t66.5 75h-231v24h266v-21q-37 -25 -67.5 -66.5t-52.5 -93t-34 -110t-13 -116.5z" />
<glyph unicode="&#x2088;" horiz-adv-x="380" d="M189 -7q-69 0 -106 31t-37 87q0 44 25.5 71.5t68.5 35.5q-35 8 -55.5 32t-20.5 62q0 102 125 102q126 0 126 -101q0 -38 -21 -62.5t-56 -32.5q43 -8 68.5 -35.5t25.5 -71.5q0 -56 -36.5 -87t-106.5 -31zM290 312q0 38 -25 59t-76 21t-75.5 -21t-24.5 -59t25 -60.5 t75 -22.5t75.5 22.5t25.5 60.5zM305 112q0 43 -29.5 68t-86.5 25q-56 0 -85.5 -25t-29.5 -68q0 -45 28.5 -71t86.5 -26t87 26t29 71z" />
<glyph unicode="&#x2089;" horiz-adv-x="384" d="M169 -7q-42 0 -74.5 15t-49.5 47l19 15q17 -29 45 -41t60 -12q63 0 99.5 45.5t35.5 145.5v20q0 12 -2 23q-8 -45 -42.5 -71.5t-90.5 -26.5q-60 0 -97 32t-37 96q0 61 35 97t102 36q34 0 63.5 -11t51 -35.5t33.5 -64t12 -95.5q0 -113 -44.5 -164t-118.5 -51zM290 286 q0 19 -7 37.5t-21.5 33.5t-37 24.5t-52.5 9.5q-51 0 -80.5 -27.5t-29.5 -81.5q0 -50 29 -78t83 -28q53 0 84.5 29t31.5 81z" />
<glyph unicode="&#x208a;" horiz-adv-x="309" d="M167 64h-24v103h-103v22h103v107h24v-107h102v-22h-102v-103z" />
<glyph unicode="&#x208b;" horiz-adv-x="309" d="M269 189v-22h-229v22h229z" />
<glyph unicode="&#x208c;" horiz-adv-x="309" d="M269 225v-23h-229v23h229zM269 157v-22h-229v22h229z" />
<glyph unicode="&#x208d;" horiz-adv-x="212" d="M169 -24l-3 -22q-60 10 -92 69t-32 162t32 162.5t92 68.5l3 -21q-48 -10 -75.5 -62t-27.5 -148t27.5 -148t75.5 -61z" />
<glyph unicode="&#x208e;" horiz-adv-x="212" d="M46 -46l-3 22q48 9 75.5 61t27.5 148t-27.5 148t-75.5 62l3 21q60 -9 92 -68.5t32 -162.5t-32 -162t-92 -69z" />
<glyph unicode="&#x20ac;" horiz-adv-x="681" d="M375 -10q-62 0 -111.5 16.5t-85.5 53t-57.5 94.5t-26.5 141h-82v25h80v62h-80v25h81q6 82 27.5 139.5t57.5 94t85.5 53t111.5 16.5q85 0 146 -30t96 -101l-26 -17q-33 66 -87 93.5t-129 27.5q-53 0 -96.5 -14t-76 -46.5t-52.5 -85.5t-25 -130h354l-8 -25h-347v-62h326 l-8 -25h-316q5 -77 24.5 -130t52 -86t76 -47.5t96.5 -14.5q76 0 133.5 29t92.5 98l25 -16q-38 -75 -101.5 -106.5t-149.5 -31.5z" />
<glyph unicode="&#x2122;" horiz-adv-x="686" d="M32 700h240v-19h-109v-275h-21v275h-110v19zM309 406v294h27l120 -271l122 271h26v-294h-21v260l-117 -260h-19l-117 259v-259h-21z" />
<glyph unicode="&#x2153;" horiz-adv-x="783" d="M14 0zM594 -7q-51 0 -84.5 16.5t-55.5 53.5l20 15q20 -32 48 -46.5t70 -14.5q63 0 91.5 26t28.5 71q0 18 -5 34t-16 28t-30 19t-47 7h-62v23h62q36 0 60.5 22t24.5 62q0 82 -103 82q-43 0 -68 -15.5t-45 -48.5l-19 13q21 38 52 56t82 18q65 0 96.5 -27.5t31.5 -75.5 q0 -35 -17.5 -60t-49.5 -36q24 -5 39.5 -15.5t24.5 -24t12.5 -29t3.5 -31.5q0 -57 -36 -89.5t-109 -32.5zM112 293h-27v373l-60 -49l-11 22l80 62h18v-408zM501 700l-332 -700h-30l334 700h28z" />
<glyph unicode="&#x2154;" horiz-adv-x="919" d="M30 0zM730 -7q-51 0 -84.5 16.5t-55.5 53.5l20 15q20 -32 48 -46.5t70 -14.5q63 0 91.5 26t28.5 71q0 18 -5 34t-16 28t-30 19t-47 7h-62v23h62q36 0 60.5 22t24.5 62q0 82 -103 82q-43 0 -68 -15.5t-45 -48.5l-19 13q21 38 52 56t82 18q65 0 96.5 -27.5t31.5 -75.5 q0 -35 -17.5 -60t-49.5 -36q24 -5 39.5 -15.5t24.5 -24t12.5 -29t3.5 -31.5q0 -57 -36 -89.5t-109 -32.5zM30 293v23l163 161q46 46 61.5 75t15.5 52q0 40 -25 60t-72 20q-48 0 -74.5 -18.5t-45.5 -53.5l-20 15q22 39 54 59.5t87 20.5q62 0 92.5 -27t30.5 -72 q0 -16 -4 -31.5t-14 -33t-26.5 -37t-40.5 -43.5l-145 -146l253 1v-25h-290zM637 700l-332 -700h-30l334 700h28z" />
<glyph unicode="&#x2155;" horiz-adv-x="794" d="M14 0zM112 293h-27v373l-60 -49l-11 22l80 62h18v-408zM537 384l-18 -168q26 20 53.5 28t57.5 8q60 0 98 -29t38 -93q0 -60 -37 -98.5t-111 -38.5q-45 0 -81.5 15.5t-58.5 52.5q1 2 10 8.5t10 7.5q17 -29 46 -44.5t73 -15.5q63 0 92.5 32t29.5 80q0 51 -29.5 76.5 t-86.5 25.5q-36 0 -62.5 -10.5t-51.5 -30.5l-16 7l23 210h229v-23h-208zM501 700l-332 -700h-30l334 700h28z" />
<glyph unicode="&#x2156;" horiz-adv-x="938" d="M30 0zM30 293v23l163 161q46 46 61.5 75t15.5 52q0 40 -25 60t-72 20q-48 0 -74.5 -18.5t-45.5 -53.5l-20 15q22 39 54 59.5t87 20.5q62 0 92.5 -27t30.5 -72q0 -16 -4 -31.5t-14 -33t-26.5 -37t-40.5 -43.5l-145 -146l253 1v-25h-290zM680 384l-18 -168q26 20 53.5 28 t57.5 8q60 0 98 -29t38 -93q0 -60 -37 -98.5t-111 -38.5q-45 0 -81.5 15.5t-58.5 52.5q1 2 10 8.5t10 7.5q17 -29 46 -44.5t73 -15.5q63 0 92.5 32t29.5 80q0 51 -29.5 76.5t-86.5 25.5q-36 0 -62.5 -10.5t-51.5 -30.5l-16 7l23 210h229v-23h-208zM644 700l-332 -700h-30 l334 700h28z" />
<glyph unicode="&#x2157;" horiz-adv-x="938" d="M33 0zM173 286q-51 0 -84.5 16.5t-55.5 53.5l20 15q20 -32 48 -46.5t70 -14.5q63 0 91.5 26t28.5 71q0 18 -5 34t-16 28t-30 19t-47 7h-62v23h62q36 0 60.5 22t24.5 62q0 82 -103 82q-43 0 -68 -15.5t-45 -48.5l-19 13q21 38 52 56t82 18q65 0 96.5 -27.5t31.5 -75.5 q0 -35 -17.5 -60t-49.5 -36q24 -5 39.5 -15.5t24.5 -24t12.5 -29t3.5 -31.5q0 -57 -36 -89.5t-109 -32.5zM680 384l-18 -168q26 20 53.5 28t57.5 8q60 0 98 -29t38 -93q0 -60 -37 -98.5t-111 -38.5q-45 0 -81.5 15.5t-58.5 52.5q1 2 10 8.5t10 7.5q17 -29 46 -44.5t73 -15.5 q63 0 92.5 32t29.5 80q0 51 -29.5 76.5t-86.5 25.5q-36 0 -62.5 -10.5t-51.5 -30.5l-16 7l23 210h229v-23h-208zM644 700l-332 -700h-30l334 700h28z" />
<glyph unicode="&#x2158;" horiz-adv-x="963" d="M33 0zM705 384l-18 -168q26 20 53.5 28t57.5 8q60 0 98 -29t38 -93q0 -60 -37 -98.5t-111 -38.5q-45 0 -81.5 15.5t-58.5 52.5q1 2 10 8.5t10 7.5q17 -29 46 -44.5t73 -15.5q63 0 92.5 32t29.5 80q0 51 -29.5 76.5t-86.5 25.5q-36 0 -62.5 -10.5t-51.5 -30.5l-16 7 l23 210h229v-23h-208zM669 700l-332 -700h-30l334 700h28zM33 403v21l145 276h28l-145 -273h204v203h27v-203h68v-24h-68v-110h-27v110h-232z" />
<glyph unicode="&#x2159;" horiz-adv-x="823" d="M14 0zM112 293h-27v373l-60 -49l-11 22l80 62h18v-408zM648 -7q-35 0 -64 11.5t-51 36t-34 63.5t-12 95q0 113 44 164t119 51q42 0 73.5 -15t48.5 -48l-20 -14q-16 30 -43 42t-60 12q-30 0 -54.5 -10.5t-42.5 -33t-28 -59.5t-10 -89v-22q0 -13 2 -27q7 46 42 74.5 t91 28.5q61 0 98 -32t37 -95q0 -61 -35 -97t-101 -36zM529 120q0 -18 7 -36.5t21 -33.5t36.5 -24.5t52.5 -9.5q51 0 81 28t30 82q0 49 -29.5 76.5t-84.5 27.5q-53 0 -83.5 -29t-30.5 -81zM501 700l-332 -700h-30l334 700h28z" />
<glyph unicode="&#x215a;" horiz-adv-x="948" d="M39 0zM98 677l-18 -168q26 20 53.5 28t57.5 8q60 0 98 -29t38 -93q0 -60 -37 -98.5t-111 -38.5q-45 0 -81.5 15.5t-58.5 52.5q1 2 10 8.5t10 7.5q17 -29 46 -44.5t73 -15.5q63 0 92.5 32t29.5 80q0 51 -29.5 76.5t-86.5 25.5q-36 0 -62.5 -10.5t-51.5 -30.5l-16 7l23 210 h229v-23h-208zM773 -7q-35 0 -64 11.5t-51 36t-34 63.5t-12 95q0 113 44 164t119 51q42 0 73.5 -15t48.5 -48l-20 -14q-16 30 -43 42t-60 12q-30 0 -54.5 -10.5t-42.5 -33t-28 -59.5t-10 -89v-22q0 -13 2 -27q7 46 42 74.5t91 28.5q61 0 98 -32t37 -95q0 -61 -35 -97 t-101 -36zM654 120q0 -18 7 -36.5t21 -33.5t36.5 -24.5t52.5 -9.5q51 0 81 28t30 82q0 49 -29.5 76.5t-84.5 27.5q-53 0 -83.5 -29t-30.5 -81zM644 700l-332 -700h-30l334 700h28z" />
<glyph unicode="&#x215b;" horiz-adv-x="819" d="M14 0zM112 293h-27v373l-60 -49l-11 22l80 62h18v-408zM628 -7q-69 0 -106 31t-37 87q0 44 25.5 71.5t68.5 35.5q-35 8 -55.5 32t-20.5 62q0 102 125 102q126 0 126 -101q0 -38 -21 -62.5t-56 -32.5q43 -8 68.5 -35.5t25.5 -71.5q0 -56 -36.5 -87t-106.5 -31zM729 312 q0 38 -25 59t-76 21t-75.5 -21t-24.5 -59t25 -60.5t75 -22.5t75.5 22.5t25.5 60.5zM744 112q0 43 -29.5 68t-86.5 25q-56 0 -85.5 -25t-29.5 -68q0 -45 28.5 -71t86.5 -26t87 26t29 71zM501 700l-332 -700h-30l334 700h28z" />
<glyph unicode="&#x215c;" horiz-adv-x="962" d="M33 0zM173 286q-51 0 -84.5 16.5t-55.5 53.5l20 15q20 -32 48 -46.5t70 -14.5q63 0 91.5 26t28.5 71q0 18 -5 34t-16 28t-30 19t-47 7h-62v23h62q36 0 60.5 22t24.5 62q0 82 -103 82q-43 0 -68 -15.5t-45 -48.5l-19 13q21 38 52 56t82 18q65 0 96.5 -27.5t31.5 -75.5 q0 -35 -17.5 -60t-49.5 -36q24 -5 39.5 -15.5t24.5 -24t12.5 -29t3.5 -31.5q0 -57 -36 -89.5t-109 -32.5zM771 -7q-69 0 -106 31t-37 87q0 44 25.5 71.5t68.5 35.5q-35 8 -55.5 32t-20.5 62q0 102 125 102q126 0 126 -101q0 -38 -21 -62.5t-56 -32.5q43 -8 68.5 -35.5 t25.5 -71.5q0 -56 -36.5 -87t-106.5 -31zM872 312q0 38 -25 59t-76 21t-75.5 -21t-24.5 -59t25 -60.5t75 -22.5t75.5 22.5t25.5 60.5zM887 112q0 43 -29.5 68t-86.5 25q-56 0 -85.5 -25t-29.5 -68q0 -45 28.5 -71t86.5 -26t87 26t29 71zM644 700l-332 -700h-30l334 700h28z " />
<glyph unicode="&#x215d;" horiz-adv-x="962" d="M39 0zM771 -7q-69 0 -106 31t-37 87q0 44 25.5 71.5t68.5 35.5q-35 8 -55.5 32t-20.5 62q0 102 125 102q126 0 126 -101q0 -38 -21 -62.5t-56 -32.5q43 -8 68.5 -35.5t25.5 -71.5q0 -56 -36.5 -87t-106.5 -31zM872 312q0 38 -25 59t-76 21t-75.5 -21t-24.5 -59t25 -60.5 t75 -22.5t75.5 22.5t25.5 60.5zM887 112q0 43 -29.5 68t-86.5 25q-56 0 -85.5 -25t-29.5 -68q0 -45 28.5 -71t86.5 -26t87 26t29 71zM98 677l-18 -168q26 20 53.5 28t57.5 8q60 0 98 -29t38 -93q0 -60 -37 -98.5t-111 -38.5q-45 0 -81.5 15.5t-58.5 52.5q1 2 10 8.5t10 7.5 q17 -29 46 -44.5t73 -15.5q63 0 92.5 32t29.5 80q0 51 -29.5 76.5t-86.5 25.5q-36 0 -62.5 -10.5t-51.5 -30.5l-16 7l23 210h229v-23h-208zM644 700l-332 -700h-30l334 700h28z" />
<glyph unicode="&#x215e;" horiz-adv-x="892" d="M29 0zM701 -7q-69 0 -106 31t-37 87q0 44 25.5 71.5t68.5 35.5q-35 8 -55.5 32t-20.5 62q0 102 125 102q126 0 126 -101q0 -38 -21 -62.5t-56 -32.5q43 -8 68.5 -35.5t25.5 -71.5q0 -56 -36.5 -87t-106.5 -31zM802 312q0 38 -25 59t-76 21t-75.5 -21t-24.5 -59t25 -60.5 t75 -22.5t75.5 22.5t25.5 60.5zM817 112q0 43 -29.5 68t-86.5 25q-56 0 -85.5 -25t-29.5 -68q0 -45 28.5 -71t86.5 -26t87 26t29 71zM128 293h-28q0 52 11 106.5t32 106t50.5 95.5t66.5 75h-231v24h266v-21q-37 -25 -67.5 -66.5t-52.5 -93t-34 -110t-13 -116.5zM574 700 l-332 -700h-30l334 700h28z" />
<glyph unicode="&#x215f;" horiz-adv-x="831" d="M14 0zM112 293h-27v373l-60 -49l-11 22l80 62h18v-408zM501 700l-332 -700h-30l334 700h28z" />
<glyph unicode="&#x2212;" horiz-adv-x="487" d="M437 318v-26h-387v26h387z" />
<glyph unicode="&#x2248;" horiz-adv-x="490" d="M330 354q28 0 58 7.5t52 24.5v-27q-21 -15 -52.5 -23t-58.5 -8q-26 0 -46.5 6.5t-40 14.5t-40 14.5t-46.5 6.5t-55 -7.5t-51 -23.5v27q21 14 51 22t56 8q28 0 49.5 -6.5t41 -14.5t39 -14.5t43.5 -6.5zM330 242q28 0 58 8t52 24v-27q-21 -15 -52.5 -22.5t-58.5 -7.5 q-26 0 -46.5 6.5t-40 14.5t-40 14.5t-46.5 6.5t-55 -7.5t-51 -24.5v27q21 15 51 22.5t56 7.5q28 0 49.5 -6.5t41 -14.5t39 -14.5t43.5 -6.5z" />
<glyph unicode="&#x2260;" horiz-adv-x="487" d="M50 351v26h234l106 125h29l-106 -125h124v-26h-144l-71 -84h215v-26h-235l-103 -121h-29l103 121h-123v26h142l72 84h-214z" />
<glyph unicode="&#x2264;" horiz-adv-x="447" d="M339 495l13 -21l-225 -157l226 -157l-15 -21l-248 170v15zM86 0v26h272v-26h-272z" />
<glyph unicode="&#x2265;" horiz-adv-x="447" d="M104 139l-13 20l225 157l-226 158l15 21l248 -171v-14zM358 26v-26h-272v26h272z" />
<glyph unicode="&#x25fc;" horiz-adv-x="480" d="M0 480h480v-480h-480v480z" />
<glyph unicode="&#xf6c3;" horiz-adv-x="600" d="M269 -224l-8 15q20 10 31 32.5t12 48.5q-19 -5 -30 3.5t-11 24.5q0 14 8 21.5t22 7.5t23 -10t9 -35q0 -35 -13.5 -66t-42.5 -42z" />
<glyph horiz-adv-x="371" d="M223 -65v831h29v-831h-29zM119 -65v831h29v-831h-29z" />
<glyph horiz-adv-x="197" d="M124 560q-30 12 -43.5 43.5t-13.5 67.5q0 26 8.5 35.5t23.5 9.5q14 0 22 -7.5t8 -21.5q0 -16 -11 -24.5t-30 -3.5q1 -27 12 -50t31 -34z" />
<glyph horiz-adv-x="297" d="M123 560q-30 12 -43.5 43.5t-13.5 67.5q0 26 8.5 35.5t23.5 9.5q14 0 22 -7.5t8 -21.5q0 -16 -11 -24.5t-30 -3.5q1 -27 12 -50t31 -34zM224 560q-30 12 -43.5 43.5t-13.5 67.5q0 26 8.5 35.5t23.5 9.5q14 0 22 -7.5t8 -21.5q0 -16 -11 -24.5t-30 -3.5q1 -27 12 -50 t31 -34z" />
<glyph horiz-adv-x="599" d="M467 9l-3 112q-23 -68 -73.5 -99.5t-116.5 -31.5q-100 0 -153 64t-53 185q0 120 54.5 184.5t157.5 64.5q63 0 113 -31t73 -95l3 116h26v-478q-19 -2 -37 -11t-32.5 -23.5t-23 -33.5t-8.5 -41q0 -38 20.5 -52t49.5 -14q18 0 33.5 4t31.5 15l7 -21q-34 -21 -74 -21 q-18 0 -35 4.5t-30 14.5t-20.5 26.5t-7.5 40.5q0 25 8.5 45t22 35.5t31.5 25.5t36 15zM465 245q0 55 -14 96t-38.5 68t-57.5 40t-72 13q-93 0 -138.5 -58.5t-45.5 -164.5q0 -109 45.5 -166t136.5 -57q40 0 73.5 14t58 42t38.5 71t14 102z" />
<glyph horiz-adv-x="599" d="M465 245q0 55 -14 96t-38.5 68t-57.5 40t-72 13q-93 0 -138.5 -58.5t-45.5 -164.5q0 -109 45.5 -166t136.5 -57q40 0 73.5 14t58 42t38.5 71t14 102zM467 0l-3 121q-23 -68 -73.5 -99.5t-116.5 -31.5q-100 0 -153 64t-53 185q0 120 54.5 184.5t157.5 64.5q63 0 113 -31 t73 -95l3 116h26v-478h-28z" />
<glyph horiz-adv-x="599" d="M68 0zM465 245q0 55 -14 96t-38.5 68t-57.5 40t-72 13q-93 0 -138.5 -58.5t-45.5 -164.5q0 -109 45.5 -166t136.5 -57q40 0 73.5 14t58 42t38.5 71t14 102zM467 0l-3 121q-23 -68 -73.5 -99.5t-116.5 -31.5q-100 0 -153 64t-53 185q0 120 54.5 184.5t157.5 64.5 q63 0 113 -31t73 -95l3 116h26v-478h-28zM268 563l-100 104v4h43l84 -105v-3h-27z" />
<glyph horiz-adv-x="599" d="M68 0zM465 245q0 55 -14 96t-38.5 68t-57.5 40t-72 13q-93 0 -138.5 -58.5t-45.5 -164.5q0 -109 45.5 -166t136.5 -57q40 0 73.5 14t58 42t38.5 71t14 102zM467 0l-3 121q-23 -68 -73.5 -99.5t-116.5 -31.5q-100 0 -153 64t-53 185q0 120 54.5 184.5t157.5 64.5 q63 0 113 -31t73 -95l3 116h26v-478h-28zM378 667l-100 -104h-27v3l84 105h43v-4z" />
<glyph horiz-adv-x="599" d="M68 0zM278 649l-95 -86h-36v2l118 106h27l118 -106v-2h-38zM465 245q0 55 -14 96t-38.5 68t-57.5 40t-72 13q-93 0 -138.5 -58.5t-45.5 -164.5q0 -109 45.5 -166t136.5 -57q40 0 73.5 14t58 42t38.5 71t14 102zM467 0l-3 121q-23 -68 -73.5 -99.5t-116.5 -31.5 q-100 0 -153 64t-53 185q0 120 54.5 184.5t157.5 64.5q63 0 113 -31t73 -95l3 116h26v-478h-28z" />
<glyph horiz-adv-x="599" d="M68 0zM312 610q0 14 8.5 22t22.5 8q31 0 31 -30t-31 -30q-14 0 -22.5 8t-8.5 22zM177 610q0 14 8 22t22 8q31 0 31 -30t-31 -30q-14 0 -22 8t-8 22zM465 245q0 55 -14 96t-38.5 68t-57.5 40t-72 13q-93 0 -138.5 -58.5t-45.5 -164.5q0 -109 45.5 -166t136.5 -57 q40 0 73.5 14t58 42t38.5 71t14 102zM467 0l-3 121q-23 -68 -73.5 -99.5t-116.5 -31.5q-100 0 -153 64t-53 185q0 120 54.5 184.5t157.5 64.5q63 0 113 -31t73 -95l3 116h26v-478h-28z" />
<glyph horiz-adv-x="599" d="M68 0zM465 245q0 55 -14 96t-38.5 68t-57.5 40t-72 13q-93 0 -138.5 -58.5t-45.5 -164.5q0 -109 45.5 -166t136.5 -57q40 0 73.5 14t58 42t38.5 71t14 102zM467 0l-3 121q-23 -68 -73.5 -99.5t-116.5 -31.5q-100 0 -153 64t-53 185q0 120 54.5 184.5t157.5 64.5 q63 0 113 -31t73 -95l3 116h26v-478h-28zM378 656h25q0 -23 -6 -37.5t-16 -23t-21.5 -11.5t-21.5 -3q-21 0 -36 8.5t-28 19t-26 19t-30 8.5q-14 0 -27 -10t-14 -41h-25q0 23 6 37.5t15.5 23t20.5 11.5t22 3q21 0 36 -8.5t28 -19t26.5 -19t31.5 -8.5q17 0 28 11t12 40z" />
<glyph horiz-adv-x="599" d="M68 0zM465 245q0 55 -14 96t-38.5 68t-57.5 40t-72 13q-93 0 -138.5 -58.5t-45.5 -164.5q0 -109 45.5 -166t136.5 -57q40 0 73.5 14t58 42t38.5 71t14 102zM467 0l-3 121q-23 -68 -73.5 -99.5t-116.5 -31.5q-100 0 -153 64t-53 185q0 120 54.5 184.5t157.5 64.5 q63 0 113 -31t73 -95l3 116h26v-478h-28zM192 629q0 38 24.5 62t61.5 24q35 0 59 -24t24 -62t-24 -62t-61 -24q-35 0 -59.5 24t-24.5 62zM212 629q0 -29 19 -48.5t45 -19.5q28 0 46.5 19.5t18.5 48.5t-18.5 48.5t-44.5 19.5q-28 0 -47 -19.5t-19 -48.5z" />
<glyph horiz-adv-x="599" d="M68 0zM465 245q0 55 -14 96t-38.5 68t-57.5 40t-72 13q-93 0 -138.5 -58.5t-45.5 -164.5q0 -109 45.5 -166t136.5 -57q40 0 73.5 14t58 42t38.5 71t14 102zM467 0l-3 121q-23 -68 -73.5 -99.5t-116.5 -31.5q-100 0 -153 64t-53 185q0 120 54.5 184.5t157.5 64.5 q63 0 113 -31t73 -95l3 116h26v-478h-28zM390 626v-23h-227v23h227z" />
<glyph horiz-adv-x="599" d="M68 0zM465 245q0 55 -14 96t-38.5 68t-57.5 40t-72 13q-93 0 -138.5 -58.5t-45.5 -164.5q0 -109 45.5 -166t136.5 -57q40 0 73.5 14t58 42t38.5 71t14 102zM467 0l-3 121q-23 -68 -73.5 -99.5t-116.5 -31.5q-100 0 -153 64t-53 185q0 120 54.5 184.5t157.5 64.5 q63 0 113 -31t73 -95l3 116h26v-478h-28zM369 669h26q0 -59 -32 -82t-88 -23t-87.5 23t-31.5 82h25q0 -48 24.5 -65.5t69.5 -17.5t69.5 17.5t24.5 65.5z" />
<glyph horiz-adv-x="597" d="M274 -205q-63 0 -113 22t-81 83l23 17q28 -55 71 -75.5t100 -20.5q42 0 77 9.5t60 31t39 56.5t14 86v112q-23 -59 -74.5 -89t-120.5 -30q-85 0 -129 47t-44 145v289h31v-282q0 -48 10.5 -81t30 -53.5t47 -29.5t60.5 -9q90 0 135.5 52.5t52.5 137.5v265h31v-478 q0 -55 -16 -94t-45.5 -63.5t-70 -36t-88.5 -11.5z" />
<glyph horiz-adv-x="597" d="M80 0zM274 -205q-63 0 -113 22t-81 83l23 17q28 -55 71 -75.5t100 -20.5q42 0 77 9.5t60 31t39 56.5t14 86v112q-23 -59 -74.5 -89t-120.5 -30q-85 0 -129 47t-44 145v289h31v-282q0 -48 10.5 -81t30 -53.5t47 -29.5t60.5 -9q90 0 135.5 52.5t52.5 137.5v265h31v-478 q0 -55 -16 -94t-45.5 -63.5t-70 -36t-88.5 -11.5zM387 667l-100 -104h-27v3l84 105h43v-4z" />
<glyph horiz-adv-x="597" d="M80 0zM302 649l-95 -86h-36v2l118 106h27l118 -106v-2h-38zM274 -205q-63 0 -113 22t-81 83l23 17q28 -55 71 -75.5t100 -20.5q42 0 77 9.5t60 31t39 56.5t14 86v112q-23 -59 -74.5 -89t-120.5 -30q-85 0 -129 47t-44 145v289h31v-282q0 -48 10.5 -81t30 -53.5t47 -29.5 t60.5 -9q90 0 135.5 52.5t52.5 137.5v265h31v-478q0 -55 -16 -94t-45.5 -63.5t-70 -36t-88.5 -11.5z" />
<glyph horiz-adv-x="597" d="M80 0zM341 610q0 14 8.5 22t22.5 8q31 0 31 -30t-31 -30q-14 0 -22.5 8t-8.5 22zM206 610q0 14 8 22t22 8q31 0 31 -30t-31 -30q-14 0 -22 8t-8 22zM274 -205q-63 0 -113 22t-81 83l23 17q28 -55 71 -75.5t100 -20.5q42 0 77 9.5t60 31t39 56.5t14 86v112 q-23 -59 -74.5 -89t-120.5 -30q-85 0 -129 47t-44 145v289h31v-282q0 -48 10.5 -81t30 -53.5t47 -29.5t60.5 -9q90 0 135.5 52.5t52.5 137.5v265h31v-478q0 -55 -16 -94t-45.5 -63.5t-70 -36t-88.5 -11.5z" />
<glyph horiz-adv-x="389" d="M208 360q-77 0 -116.5 42t-39.5 132q0 91 39.5 133.5t117.5 42.5q49 0 80.5 -18t49.5 -50l-19 -14q-15 31 -44 46t-67 15q-66 0 -99 -36.5t-33 -118.5q0 -81 32.5 -117t98.5 -36q45 0 72.5 16.5t43.5 52.5l20 -10q-17 -42 -51 -61t-85 -19z" />
<glyph horiz-adv-x="427" d="M328 539q0 76 -35.5 113t-89.5 37q-64 0 -95 -40t-31 -115t31.5 -114t93.5 -39q56 0 91 38.5t35 119.5zM331 367l-2 81q-17 -45 -51.5 -66.5t-81.5 -21.5q-70 0 -107.5 44.5t-37.5 129.5t38.5 130.5t110.5 45.5q45 0 78.5 -21t50.5 -65l3 78h22v-335h-23z" />
<glyph horiz-adv-x="600" d="M281 515h-22l7 185h35z" />
<glyph horiz-adv-x="210" d="M92 0l5 530h27l5 -530h-37zM141 676q0 -30 -31 -30q-14 0 -22 8t-8 22t8 22t22 8t22.5 -8t8.5 -22z" />
<glyph horiz-adv-x="489" d="M253 533v-131h-19q-103 0 -156 -52.5t-53 -142.5q0 -89 56.5 -137.5t154.5 -48.5q76 0 126 29t82 97l25 -15q-35 -74 -91.5 -106.5t-143.5 -32.5q-55 0 -99.5 14.5t-76 42t-48.5 67t-17 88.5q0 99 60 157.5t169 60.5v110h31zM268 679q0 -14 -8 -22t-22 -8q-31 0 -31 30 q0 14 8.5 22t22.5 8t22 -8t8 -22z" />
<glyph horiz-adv-x="371" d="M322 256v-26h-272v26h272z" />
<glyph horiz-adv-x="695" d="M646 256v-26h-596v26h596z" />
<glyph horiz-adv-x="715" d="M375 -10q-69 0 -123.5 20t-92.5 63t-58 111.5t-20 165.5q0 99 20 167.5t58.5 111t93.5 62t126 19.5q87 0 149 -30t98 -98l-26 -18q-34 64 -89.5 91.5t-131.5 27.5q-61 0 -110 -16.5t-83.5 -55.5t-53.5 -103t-19 -158q0 -93 18.5 -157t53 -103t83.5 -56t110 -17 q55 0 99 14t75 46t47 83t15 126h-220v26h252v-23q1 -88 -19.5 -145.5t-57 -91.5t-86.5 -48t-108 -14z" />
<glyph horiz-adv-x="609" d="M556 0l-387 343v2l365 355h38l-362 -353l389 -347h-43zM119 0v700h32v-700h-32z" />
<glyph horiz-adv-x="498" d="M104 0v700h31v-700h-31zM434 0l-283 233v3l268 242h36l-265 -242l284 -236h-40z" />
<glyph horiz-adv-x="818" d="M78 13zM676 111q-44 -47 -108.5 -72.5t-148.5 -25.5q-81 0 -144 24t-107 68t-67 106t-23 138q0 75 23 137t67 106t107 68t144 24q77 0 136.5 -21.5t100.5 -61t62.5 -95.5t21.5 -124q0 -84 -34 -134.5t-102 -50.5q-34 0 -59 18t-29 67q-17 -49 -53 -72t-88 -23 q-51 0 -81 25t-30 73q0 51 38.5 75.5t107.5 24.5h105q0 70 -27 95.5t-81 25.5q-45 0 -70 -12.5t-42 -36.5l-14 14q37 56 128 56q63 0 96.5 -32t33.5 -107v-89q0 -83 69 -83q57 0 84.5 44t27.5 122q0 66 -20.5 118.5t-59.5 89.5t-95 56.5t-126 19.5q-75 0 -134.5 -22 t-101 -63.5t-63.5 -100t-22 -131.5q0 -74 22 -132.5t63.5 -100t101 -63.5t134.5 -22q79 0 141 24t104 69zM380 207q64 0 97 40.5t38 106.5v13h-99q-62 0 -94.5 -19t-32.5 -63q0 -78 91 -78z" />
<glyph horiz-adv-x="687" d="M80 350q0 98 17 166.5t50.5 111.5t82.5 62.5t113 19.5t113.5 -19.5t83 -62.5t50.5 -111.5t17 -166.5t-17.5 -166t-51 -111.5t-82.5 -63t-113 -19.5t-113 19.5t-82.5 62.5t-50.5 111.5t-17 166.5zM575 350q0 93 -16 157t-46 103t-73 56t-97 17t-97 -17t-72.5 -56 t-45.5 -102.5t-16 -157.5t16 -157.5t45.5 -102.5t72.5 -56t97 -17t97 17t73 56t46 102.5t16 157.5z" />
<glyph horiz-adv-x="285" d="M167 0h-31v658l-105 -88l-15 24l130 106h21v-700z" />
<glyph horiz-adv-x="574" d="M43 0v28l287 288q42 42 68 75.5t40.5 60.5t19.5 49t5 40q1 69 -44 105.5t-130 36.5q-42 0 -74.5 -8t-58 -24t-45 -39.5t-35.5 -54.5l-24 17q18 33 40 58t50.5 42.5t65 26.5t83.5 9q52 0 90.5 -12t63.5 -34t37.5 -52.5t12.5 -67.5q0 -26 -7.5 -53t-24.5 -56.5t-45 -63.5 t-69 -75l-267 -270l454 1v-27h-493z" />
<glyph horiz-adv-x="603" d="M286 -10q-85 0 -141 27.5t-93 89.5l23 18q35 -57 85.5 -82.5t125.5 -25.5q112 0 164 48.5t52 129.5q0 31 -8.5 60t-29 51.5t-54.5 35.5t-84 13h-110v27h109q32 0 60 10.5t49 30t33 48.5t12 65q0 72 -47 109.5t-139 37.5q-76 0 -122 -28t-79 -86l-23 17q35 61 87 92.5 t139 31.5q109 0 162 -46.5t53 -127.5q0 -62 -31.5 -105t-87.5 -61q43 -8 71 -26.5t43.5 -42.5t21.5 -51t6 -52q0 -97 -61 -152.5t-186 -55.5z" />
<glyph horiz-adv-x="631" d="M50 195v25l253 480h34l-254 -477h368v362h31v-362h121v-28h-121v-195h-31v195h-401z" />
<glyph horiz-adv-x="593" d="M152 673l-32 -306q46 38 95 52t102 14q51 0 94 -12.5t74 -38t48 -65t17 -93.5q0 -51 -16 -94t-47.5 -74t-79 -48.5t-110.5 -17.5q-74 0 -135 27t-99 90l24 18q31 -52 82.5 -80.5t127.5 -28.5q58 0 100 16t69 44t40 66t13 81q0 91 -53.5 137t-154.5 46q-66 0 -113 -19 t-91 -56l-19 9l39 360h386v-27h-361z" />
<glyph horiz-adv-x="632" d="M350 -10q-57 0 -106.5 19.5t-86 62t-57 109.5t-20.5 161q0 97 19.5 166.5t55.5 114.5t86.5 66t112.5 21q69 0 121.5 -25t81.5 -81l-24 -17q-29 54 -77 75t-104 21q-52 0 -96 -18.5t-76 -59.5t-50 -106t-18 -159q0 -20 1.5 -46.5t5.5 -53.5q4 43 22 79t47.5 62t70 40 t90.5 14q51 0 93.5 -14t73 -41.5t47.5 -68.5t17 -95q0 -104 -59 -165t-171 -61zM137 205q0 -33 12.5 -66.5t38.5 -60.5t66 -44.5t95 -17.5q91 0 145 50.5t54 148.5q0 91 -52.5 142t-150.5 51q-47 0 -85 -14t-65.5 -40t-42.5 -63.5t-15 -85.5z" />
<glyph horiz-adv-x="491" d="M166 0q0 90 19.5 186.5t55.5 187t88 168.5t118 131h-405v27h451v-25q-66 -42 -119.5 -115.5t-92 -164.5t-60.5 -193t-24 -202h-31z" />
<glyph horiz-adv-x="629" d="M314 -10q-117 0 -178.5 53.5t-61.5 147.5q0 77 45.5 124t123.5 61q-66 13 -103 54.5t-37 108.5q0 83 53.5 127t157.5 44t158 -44t54 -126q0 -68 -38 -109t-103 -55q78 -13 123.5 -60.5t45.5 -124.5q0 -94 -61.5 -147.5t-178.5 -53.5zM495 539q0 69 -44.5 107t-136.5 38 t-136.5 -38t-44.5 -107t45.5 -109t135.5 -40t135.5 40t45.5 109zM523 191q0 78 -53.5 124.5t-155.5 46.5q-101 0 -154.5 -46.5t-53.5 -124.5q0 -81 51.5 -127.5t156.5 -46.5t157 46.5t52 127.5z" />
<glyph horiz-adv-x="632" d="M495 495q0 33 -12.5 66.5t-38.5 60.5t-65.5 44.5t-94.5 17.5q-92 0 -146 -50.5t-54 -150.5q0 -91 53 -142t150 -51q46 0 84.5 14t66 40.5t42.5 64.5t15 86zM279 -10q-69 0 -123.5 25t-83.5 81l24 17q29 -54 78.5 -75t106.5 -21q52 0 96 18.5t76 59.5t50 106t18 159 q0 20 -1.5 44t-5.5 51q-5 -42 -22.5 -77t-47 -60.5t-69.5 -39.5t-91 -14q-52 0 -94.5 14t-73 41.5t-47 68.5t-16.5 96q0 104 58.5 165t170.5 61q57 0 106.5 -18.5t86 -60.5t57 -109t20.5 -164t-19.5 -166.5t-55 -114.5t-86 -66t-112.5 -21z" />
<glyph d="M54 300q0 84 17.5 143t50.5 96t81 54t109 17t109 -17t81 -54t50.5 -96t17.5 -143t-17.5 -143t-50.5 -96t-81 -54t-109 -17t-109 17t-81 54t-50.5 96t-17.5 143zM539 300q0 80 -15.5 134t-45 87t-71.5 47.5t-95 14.5t-95 -14t-71.5 -47t-45 -87.5t-15.5 -134.5 t15.5 -134.5t45 -87.5t71.5 -47t95 -14t95 14t71.5 47t45 87.5t15.5 134.5z" />
<glyph d="M116 0v28h177v530l-103 -88l-15 24l128 106h20v-572h186v-28h-393z" />
<glyph d="M90 0v28l254 236q42 38 67 68.5t39 55t18.5 43.5t4.5 36q1 57 -38.5 86.5t-114.5 29.5q-78 0 -121.5 -27.5t-73.5 -81.5l-23 16q33 57 82.5 88.5t136.5 31.5q96 0 140 -38.5t44 -101.5q0 -24 -7 -48t-23 -51t-43 -58t-67 -68l-235 -219l411 1v-27h-451z" />
<glyph d="M306 -110q-85 0 -141 27.5t-94 89.5l24 18q35 -57 85 -82.5t126 -25.5q112 0 163.5 48.5t51.5 129.5q0 31 -8.5 60t-29 51.5t-54 35.5t-83.5 13h-110v27h109q32 0 60 10.5t48.5 30t32.5 48.5t12 65q0 72 -47 109.5t-138 37.5q-76 0 -122.5 -28t-78.5 -86l-23 17 q34 61 86 92.5t139 31.5q110 0 163 -46.5t53 -127.5q0 -62 -31.5 -105t-87.5 -61q43 -8 70.5 -26.5t43.5 -42.5t22 -51t6 -52q0 -97 -61 -152.5t-186 -55.5z" />
<glyph d="M36 95v25l253 480h34l-254 -477h368v362h31v-362h121v-28h-121v-195h-31v195h-401z" />
<glyph d="M158 573l-32 -306q46 38 95 52t102 14q51 0 94 -12.5t74 -38t48 -65t17 -93.5q0 -51 -16 -94t-47.5 -74t-79 -48.5t-110.5 -17.5q-74 0 -135 27t-99 90l24 18q31 -52 82.5 -80.5t127.5 -28.5q58 0 100 16t69 44t39.5 66t12.5 81q0 91 -53 137t-154 46q-66 0 -113 -19 t-91 -56l-19 9l39 360h386v-27h-361z" />
<glyph d="M332 -10q-57 0 -106.5 19.5t-86 62t-57 109.5t-20.5 161q0 97 19.5 166.5t55.5 114.5t86.5 66t112.5 21q69 0 121.5 -25t81.5 -81l-24 -17q-29 54 -77 75t-104 21q-52 0 -96 -18.5t-76 -59.5t-50 -106t-18 -159q0 -20 1.5 -46.5t5.5 -53.5q4 43 22 79t47.5 62t70 40 t90.5 14q51 0 93.5 -14t73 -41.5t47.5 -68.5t17 -95q0 -104 -59 -165t-171 -61zM119 205q0 -33 12.5 -66.5t38.5 -60.5t66 -44.5t95 -17.5q91 0 145 50.5t54 148.5q0 91 -52.5 142t-150.5 51q-47 0 -85 -14t-65.5 -40t-42.5 -63.5t-15 -85.5z" />
<glyph d="M210 -100q0 90 19.5 186.5t55.5 187t88 168.5t118 131h-404v27h451v-25q-66 -42 -119.5 -115.5t-92.5 -164.5t-61 -193t-24 -202h-31z" />
<glyph d="M312 -10q-117 0 -178.5 53.5t-61.5 147.5q0 77 45.5 124t123.5 61q-66 13 -103.5 54.5t-37.5 108.5q0 83 54 127t158 44t158 -44t54 -126q0 -68 -38 -109t-103 -55q77 -13 123 -60.5t46 -124.5q0 -94 -61.5 -147.5t-178.5 -53.5zM493 539q0 69 -44.5 107t-136.5 38 t-136.5 -38t-44.5 -107t45.5 -109t135.5 -40t135.5 40t45.5 109zM521 191q0 78 -53.5 124.5t-155.5 46.5q-101 0 -154.5 -46.5t-53.5 -124.5q0 -81 51.5 -127.5t156.5 -46.5t157 46.5t52 127.5z" />
<glyph d="M505 395q0 33 -12.5 66.5t-38.5 60.5t-65.5 44.5t-94.5 17.5q-92 0 -146 -50.5t-54 -150.5q0 -91 53 -142t150 -51q46 0 84.5 14t66 40.5t42.5 64.5t15 86zM289 -110q-69 0 -123.5 25t-83.5 81l24 17q29 -54 78.5 -75t106.5 -21q52 0 96 18.5t76 59.5t50 106t18 159 q0 20 -1.5 44t-5.5 51q-5 -42 -22.5 -77t-47 -60.5t-69.5 -39.5t-91 -14q-52 0 -94.5 14t-73 41.5t-47 68.5t-16.5 96q0 104 58.5 165t170.5 61q57 0 106.5 -18.5t86 -60.5t57 -109t20.5 -164t-19.5 -166.5t-55 -114.5t-86 -66t-112.5 -21z" />
<glyph horiz-adv-x="644" d="M76 300q0 84 16.5 143t48 96t77.5 54t104 17t103.5 -17t77 -54t48 -96t16.5 -143t-16.5 -143t-48 -96t-77 -54t-103.5 -17t-104 17t-77.5 54t-48 96t-16.5 143zM536 300q0 80 -14.5 134t-42 87t-67.5 47.5t-90 14.5t-90 -14t-67.5 -47t-42 -87.5t-14.5 -134.5 t14.5 -134.5t42 -87.5t67.5 -47t90 -14t90 14t67.5 47t42 87.5t14.5 134.5z" />
<glyph horiz-adv-x="262" d="M163 0h-30v558l-103 -88l-14 24l128 106h19v-600z" />
<glyph horiz-adv-x="515" d="M54 0v25l252 243q39 37 62 67.5t35 54.5t15.5 43t3.5 35q1 57 -36.5 86.5t-109.5 29.5t-113.5 -28.5t-69.5 -80.5l-24 16q31 57 78.5 88t130.5 31q91 0 133.5 -38t42.5 -100q0 -23 -6 -47t-21 -51t-39.5 -57.5t-61.5 -66.5l-232 -225l385 1v-26h-425z" />
<glyph horiz-adv-x="572" d="M270 -110q-80 0 -133.5 27.5t-88.5 89.5l23 17q33 -57 80.5 -82.5t118.5 -25.5q106 0 156 49t50 129q0 32 -8 61t-27.5 51.5t-52 35.5t-80.5 13h-104v27h104q31 0 57.5 10.5t46 30t30.5 48t11 64.5q0 72 -44 110.5t-132 38.5q-72 0 -115 -28.5t-74 -86.5l-24 17 q34 62 83 93t131 31q105 0 155.5 -46.5t50.5 -127.5q0 -62 -29.5 -105t-83.5 -61q41 -9 67.5 -27t42 -42t21.5 -51t6 -52q0 -97 -59 -152.5t-179 -55.5z" />
<glyph horiz-adv-x="600" d="M48 95v24l241 481h31l-241 -479h349v364h31v-364h114v-26h-114v-195h-31v195h-380z" />
<glyph horiz-adv-x="563" d="M146 573l-31 -305q44 38 90 51.5t97 13.5q49 0 89.5 -12.5t70 -38t46 -65t16.5 -94.5q0 -51 -15.5 -94t-45.5 -73.5t-75 -48t-105 -17.5q-71 0 -129.5 27t-93.5 90l23 18q29 -52 78 -80.5t122 -28.5q55 0 94.5 16t65 43.5t38 65t12.5 80.5q0 91 -50.5 138t-147.5 47 q-62 0 -106.5 -19t-86.5 -56l-19 9l37 360h368v-27h-342z" />
<glyph horiz-adv-x="600" d="M334 -10q-56 0 -103 20t-81.5 62.5t-54 109.5t-19.5 160q0 97 18.5 166.5t53 114.5t82.5 66t107 21q66 0 116.5 -25t77.5 -81l-25 -17q-27 54 -72.5 75t-98.5 21q-50 0 -91.5 -18.5t-72 -59.5t-47.5 -106t-17 -159q0 -21 1.5 -47.5t5.5 -55.5q3 42 18.5 78.5t43.5 63 t67 41.5t89 15q99 0 159.5 -55t60.5 -164q0 -104 -56 -165t-162 -61zM131 205q0 -33 13 -66.5t38 -60.5t62.5 -44.5t87.5 -17.5q87 0 138 50.5t51 148.5q0 91 -49.5 142t-142.5 51q-44 0 -80.5 -14t-62.5 -40t-40.5 -63.5t-14.5 -85.5z" />
<glyph horiz-adv-x="467" d="M158 -100q0 90 18.5 186.5t53 187t83.5 168.5t112 131h-384v27h428v-25q-62 -42 -113.5 -115.5t-88 -164.5t-57.5 -193t-23 -202h-29z" />
<glyph horiz-adv-x="597" d="M299 -10q-111 0 -170 53.5t-59 147.5q0 77 43.5 124.5t116.5 60.5q-62 14 -97 55t-35 108q0 83 51 127t150 44t150 -44t51 -126q0 -68 -35.5 -109t-97.5 -55q73 -12 116.5 -60t43.5 -125q0 -94 -58.5 -147.5t-169.5 -53.5zM470 539q0 69 -41.5 107t-129.5 38 q-87 0 -129 -38t-42 -107t42.5 -109t128.5 -40q85 0 128 40t43 109zM497 191q0 78 -50.5 124.5t-147.5 46.5t-147.5 -46.5t-50.5 -124.5q0 -81 49 -127.5t149 -46.5q99 0 148.5 46.5t49.5 127.5z" />
<glyph horiz-adv-x="600" d="M470 395q0 33 -11.5 66.5t-36 60.5t-62.5 44.5t-90 17.5q-87 0 -138 -50.5t-51 -150.5q0 -91 49.5 -142t142.5 -51q44 0 80 14t62 40.5t40.5 64.5t14.5 86zM264 -110q-66 0 -117.5 25t-79.5 81l25 17q28 -54 74 -75t100 -21q50 0 92 18.5t72.5 59.5t47.5 106t17 159 q0 22 -2 48t-6 56q-2 -41 -16.5 -77t-42 -63.5t-67 -43.5t-91.5 -16q-50 0 -90.5 14t-69.5 41.5t-45 68.5t-16 96q0 104 56.5 165t162.5 61q55 0 102 -18.5t81.5 -60.5t54.5 -109t20 -164t-18.5 -166.5t-53 -114.5t-83 -66t-107.5 -21z" />
<glyph horiz-adv-x="412" d="M48 0zM48 4q0 114 40.5 162t117.5 48q76 0 116 -48t40 -162q0 -113 -40 -162t-116 -49q-77 0 -117.5 48.5t-40.5 162.5zM334 4q0 52 -9 88t-25.5 58t-40 31.5t-53.5 9.5q-31 0 -55 -9.5t-40.5 -31.5t-25.5 -58t-9 -88q0 -53 9 -89t25.5 -57.5t40.5 -31t54 -9.5t54 9.5 t40.5 31t25.5 57.5t9 89z" />
<glyph horiz-adv-x="184" d="M14 0zM112 -200h-27v373l-60 -49l-11 22l80 62h18v-408z" />
<glyph horiz-adv-x="350" d="M30 0zM30 -200v23l163 161q46 46 61.5 75t15.5 52q0 40 -25 60t-72 20q-48 0 -74.5 -18.5t-45.5 -53.5l-20 15q22 39 54 59.5t87 20.5q62 0 92.5 -27t30.5 -72q0 -16 -4 -31.5t-14 -33t-26.5 -37t-40.5 -43.5l-145 -146l253 1v-25h-290z" />
<glyph horiz-adv-x="363" d="M33 0zM173 -207q-51 0 -84.5 16.5t-55.5 53.5l20 15q20 -32 48 -46.5t70 -14.5q63 0 91.5 26t28.5 71q0 18 -5 34t-16 28t-30 19t-47 7h-62v23h62q36 0 60.5 22t24.5 62q0 82 -103 82q-43 0 -68 -15.5t-45 -48.5l-19 13q21 38 52 56t82 18q65 0 96.5 -27.5t31.5 -75.5 q0 -35 -17.5 -60t-49.5 -36q24 -5 39.5 -15.5t24.5 -24t12.5 -29t3.5 -31.5q0 -57 -36 -89.5t-109 -32.5z" />
<glyph horiz-adv-x="380" d="M33 0zM33 -90v21l145 276h28l-145 -273h204v203h27v-203h68v-24h-68v-110h-27v110h-232z" />
<glyph horiz-adv-x="356" d="M39 0zM98 184l-18 -168q26 20 53.5 28t57.5 8q60 0 98 -29t38 -93q0 -60 -37 -98.5t-111 -38.5q-45 0 -81.5 15.5t-58.5 52.5q1 2 10 8.5t10 7.5q17 -29 46 -44.5t73 -15.5q63 0 92.5 32t29.5 80q0 51 -29.5 76.5t-86.5 25.5q-36 0 -62.5 -10.5t-51.5 -30.5l-16 7l23 210 h229v-23h-208z" />
<glyph horiz-adv-x="384" d="M48 0zM209 -207q-35 0 -64 11.5t-51 36t-34 63.5t-12 95q0 113 44 164t119 51q42 0 73.5 -15t48.5 -48l-20 -14q-16 30 -43 42t-60 12q-30 0 -54.5 -10.5t-42.5 -33t-28 -59.5t-10 -89v-22q0 -13 2 -27q7 46 42 74.5t91 28.5q61 0 98 -32t37 -95q0 -61 -35 -97t-101 -36z M90 -80q0 -18 7 -36.5t21 -33.5t36.5 -24.5t52.5 -9.5q51 0 81 28t30 82q0 49 -29.5 76.5t-84.5 27.5q-53 0 -83.5 -29t-30.5 -81z" />
<glyph horiz-adv-x="298" d="M29 0zM128 -200h-28q0 52 11 106.5t32 106t50.5 95.5t66.5 75h-231v24h266v-21q-37 -25 -67.5 -66.5t-52.5 -93t-34 -110t-13 -116.5z" />
<glyph horiz-adv-x="380" d="M46 0zM189 -207q-69 0 -106 31t-37 87q0 44 25.5 71.5t68.5 35.5q-35 8 -55.5 32t-20.5 62q0 102 125 102q126 0 126 -101q0 -38 -21 -62.5t-56 -32.5q43 -8 68.5 -35.5t25.5 -71.5q0 -56 -36.5 -87t-106.5 -31zM290 112q0 38 -25 59t-76 21t-75.5 -21t-24.5 -59 t25 -60.5t75 -22.5t75.5 22.5t25.5 60.5zM305 -88q0 43 -29.5 68t-86.5 25q-56 0 -85.5 -25t-29.5 -68q0 -45 28.5 -71t86.5 -26t87 26t29 71z" />
<glyph horiz-adv-x="384" d="M35 0zM169 -207q-42 0 -74.5 15t-49.5 47l19 15q17 -29 45 -41t60 -12q63 0 99.5 45.5t35.5 145.5v20q0 12 -2 23q-8 -45 -42.5 -71.5t-90.5 -26.5q-60 0 -97 32t-37 96q0 61 35 97t102 36q34 0 63.5 -11t51 -35.5t33.5 -64t12 -95.5q0 -113 -44.5 -164t-118.5 -51z M290 86q0 19 -7 37.5t-21.5 33.5t-37 24.5t-52.5 9.5q-51 0 -80.5 -27.5t-29.5 -81.5q0 -50 29 -78t83 -28q53 0 84.5 29t31.5 81z" />
<glyph horiz-adv-x="309" d="M40 0zM167 -136h-24v103h-103v22h103v107h24v-107h102v-22h-102v-103z" />
<glyph horiz-adv-x="309" d="M40 -11zM269 -11v-22h-229v22h229z" />
<glyph horiz-adv-x="309" d="M40 0zM269 25v-23h-229v23h229zM269 -43v-22h-229v22h229z" />
<glyph horiz-adv-x="212" d="M42 0zM169 -224l-3 -22q-60 10 -92 69t-32 162t32 162.5t92 68.5l3 -21q-48 -10 -75.5 -62t-27.5 -148t27.5 -148t75.5 -61z" />
<glyph horiz-adv-x="212" d="M43 0zM46 -246l-3 22q48 9 75.5 61t27.5 148t-27.5 148t-75.5 62l3 21q60 -9 92 -68.5t32 -162.5t-32 -162t-92 -69z" />
<glyph horiz-adv-x="243" d="M91 610q0 30 30 30q31 0 31 -30q0 -14 -8.5 -22t-22.5 -8t-22 8t-8 22zM106 478h31v-478h-31v478z" />
<glyph horiz-adv-x="498" d="M104 0zM240 -224l-8 15q20 10 31 32.5t12 48.5q-19 -5 -30 3.5t-11 24.5q0 14 8 21.5t22 7.5t23 -10t9 -35q0 -35 -13.5 -66t-42.5 -42zM104 0v700h31v-700h-31zM434 0l-283 233v3l268 242h36l-265 -242l284 -236h-40z" />
<glyph horiz-adv-x="715" d="M472 891h26q0 -59 -32 -82t-88 -23t-87.5 23t-31.5 82h25q0 -48 24.5 -65.5t69.5 -17.5t69.5 17.5t24.5 65.5zM375 -10q-69 0 -123.5 20t-92.5 63t-58 111.5t-20 165.5q0 99 20 167.5t58.5 111t93.5 62t126 19.5q87 0 149 -30t98 -98l-26 -18q-34 64 -89.5 91.5 t-131.5 27.5q-61 0 -110 -16.5t-83.5 -55.5t-53.5 -103t-19 -158q0 -93 18.5 -157t53 -103t83.5 -56t110 -17q55 0 99 14t75 46t47 83t15 126h-220v26h252v-23q1 -88 -19.5 -145.5t-57 -91.5t-86.5 -48t-108 -14z" />
<glyph horiz-adv-x="715" d="M380 871l-95 -86h-36v2l118 106h27l118 -106v-2h-38zM375 -10q-69 0 -123.5 20t-92.5 63t-58 111.5t-20 165.5q0 99 20 167.5t58.5 111t93.5 62t126 19.5q87 0 149 -30t98 -98l-26 -18q-34 64 -89.5 91.5t-131.5 27.5q-61 0 -110 -16.5t-83.5 -55.5t-53.5 -103t-19 -158 q0 -93 18.5 -157t53 -103t83.5 -56t110 -17q55 0 99 14t75 46t47 83t15 126h-220v26h252v-23q1 -88 -19.5 -145.5t-57 -91.5t-86.5 -48t-108 -14z" />
<glyph horiz-adv-x="715" d="M375 -10q-69 0 -123.5 20t-92.5 63t-58 111.5t-20 165.5q0 99 20 167.5t58.5 111t93.5 62t126 19.5q87 0 149 -30t98 -98l-26 -18q-34 64 -89.5 91.5t-131.5 27.5q-61 0 -110 -16.5t-83.5 -55.5t-53.5 -103t-19 -158q0 -93 18.5 -157t53 -103t83.5 -56t110 -17 q55 0 99 14t75 46t47 83t15 126h-220v26h252v-23q1 -88 -19.5 -145.5t-57 -91.5t-86.5 -48t-108 -14zM353 -224l-8 15q20 10 31 33t12 49q-5 -3 -10 -3q-31 0 -31 30q0 14 8 21.5t22 7.5t23 -10t9 -35q0 -35 -13.5 -66t-42.5 -42z" />
<glyph horiz-adv-x="715" d="M351 832q0 30 31 30q30 0 30 -30t-30 -30q-31 0 -31 30zM375 -10q-69 0 -123.5 20t-92.5 63t-58 111.5t-20 165.5q0 99 20 167.5t58.5 111t93.5 62t126 19.5q87 0 149 -30t98 -98l-26 -18q-34 64 -89.5 91.5t-131.5 27.5q-61 0 -110 -16.5t-83.5 -55.5t-53.5 -103 t-19 -158q0 -93 18.5 -157t53 -103t83.5 -56t110 -17q55 0 99 14t75 46t47 83t15 126h-220v26h252v-23q1 -88 -19.5 -145.5t-57 -91.5t-86.5 -48t-108 -14z" />
<glyph horiz-adv-x="609" d="M119 0zM325 -224l-8 15q20 10 31 32.5t12 48.5q-19 -5 -30 3.5t-11 24.5q0 14 8 21.5t22 7.5t23 -10t9 -35q0 -35 -13.5 -66t-42.5 -42zM556 0l-387 343v2l365 355h38l-362 -353l389 -347h-43zM119 0v700h32v-700h-32z" />
<glyph horiz-adv-x="400" d="M350 363v-26h-300v26h300z" />
<glyph horiz-adv-x="588" d="M539 363v-26h-489v26h489z" />
<glyph horiz-adv-x="788" d="M739 363v-26h-689v26h689z" />
<glyph horiz-adv-x="588" d="M539 363v-26h-489v26h489z" />
<glyph horiz-adv-x="238" d="M135 700v-700h-31v700h31z" />
<glyph horiz-adv-x="583" d="M134 0v453h-97v25h97v87q0 77 32 110t92 33q21 0 41 -3.5t40 -13.5l-6 -26q-17 8 -33 11.5t-39 3.5q-48 0 -72.5 -26.5t-24.5 -93.5v-82h168v-25h-168v-453h-30zM479 700v-700h-31v700h31z" />
<glyph horiz-adv-x="583" d="M0 0z" />
</font>
</defs>
</svg>
