<?xml version="1.0" standalone="no"?>
<!DOCTYPE svg PUBLIC "-//W3C//DTD SVG 1.1//EN" "http://www.w3.org/Graphics/SVG/1.1/DTD/svg11.dtd" >
<svg xmlns="http://www.w3.org/2000/svg" xmlns:xlink="http://www.w3.org/1999/xlink" version="1.1">
<metadata></metadata>
<defs>
<font id="honeywell_sans_webbold_italic" horiz-adv-x="625" >
<font-face units-per-em="1000" ascent="774" descent="-226" />
<missing-glyph horiz-adv-x="230" />
<glyph unicode="fi" horiz-adv-x="640" d="M552 574q-62 0 -62 55q0 39 22 58t57 19q29 0 45.5 -14.5t16.5 -41.5q0 -39 -22 -57.5t-57 -18.5zM65 0l64 406h-85l14 85h85l9 51q14 95 63.5 137.5t125.5 42.5q23 0 49 -4t43 -14l-31 -84q-12 6 -24.5 9.5t-29.5 3.5q-35 0 -58 -20.5t-32 -74.5l-7 -47h134l-13 -85 h-135l-63 -406h-109zM482 491h112l-77 -491h-111z" />
<glyph unicode="fl" horiz-adv-x="637" d="M65 0l64 406h-85l14 85h85l9 51q14 95 63.5 137.5t125.5 42.5q23 0 49 -4t43 -14l-31 -84q-12 6 -24.5 9.5t-29.5 3.5q-35 0 -58 -20.5t-32 -74.5l-7 -47h134l-13 -85h-135l-63 -406h-109zM524 0q-58 0 -87 27.5t-18 96.5l91 576h111l-89 -567q-4 -24 5 -35t35 -11h40 l-13 -87h-75z" />
<glyph horiz-adv-x="176" />
<glyph horiz-adv-x="176" />
<glyph unicode="&#xd;" horiz-adv-x="176" />
<glyph unicode=" "  horiz-adv-x="230" />
<glyph unicode="&#x09;" horiz-adv-x="230" />
<glyph unicode="&#xa0;" horiz-adv-x="230" />
<glyph unicode="!" horiz-adv-x="234" d="M245 700l-94 -496h-85l62 496h117zM77 -6q-29 0 -44.5 15t-15.5 41q0 38 21.5 57.5t55.5 19.5q61 0 61 -56q0 -38 -21.5 -57.5t-56.5 -19.5z" />
<glyph unicode="&#x22;" horiz-adv-x="313" d="M274 479h-80l33 234h98zM146 479h-80l24 234h97z" />
<glyph unicode="#" horiz-adv-x="755" d="M338 428l-70 -152h173l70 152h-173zM118 428l36 82h108l89 190h112l-88 -190h173l89 190h113l-89 -190h106l-36 -82h-107l-71 -152h114l-36 -83h-115l-88 -193h-113l89 193h-174l-88 -193h-113l89 193h-101l36 83h102l71 152h-108z" />
<glyph unicode="$" horiz-adv-x="611" d="M208 500q0 -32 19.5 -53t61.5 -34l30 185q-111 -10 -111 -98zM342 293l-31 -191q59 6 88.5 33t29.5 72q0 32 -19.5 52t-67.5 34zM215 -62l12 77q-66 6 -118 34.5t-79 90.5l84 57q22 -45 51.5 -67t74.5 -28l33 210q-166 46 -166 176q0 84 58 138t168 61l13 79h71l-13 -81 q64 -7 106 -34t63 -79l-86 -54q-16 35 -38.5 54t-58.5 24l-33 -203q48 -14 81.5 -29t55 -35t31.5 -45t10 -58q0 -98 -64.5 -151t-172.5 -60l-12 -77h-71z" />
<glyph unicode="%" horiz-adv-x="1043" d="M69 0zM838 419q77 0 113.5 -37t36.5 -115q0 -17 -1 -30.5t-4 -32.5q-16 -107 -63.5 -161t-140.5 -54q-77 0 -113.5 36.5t-36.5 114.5q0 14 1.5 30.5t3.5 33.5q16 112 65.5 163.5t138.5 51.5zM831 347q-21 0 -38 -7t-31 -24t-24 -44.5t-17 -68.5l-4 -32q-2 -16 -2 -27 q0 -48 18.5 -65.5t51.5 -17.5q21 0 39 7t32 23.5t24 44t17 68.5q2 17 4 32t2 27q0 47 -19 65.5t-53 18.5zM278 712q77 0 113.5 -37t36.5 -115q0 -17 -1 -30.5t-4 -32.5q-16 -107 -63.5 -161t-140.5 -54q-77 0 -113.5 36.5t-36.5 114.5q0 14 1.5 30.5t3.5 33.5 q16 112 65.5 163.5t138.5 51.5zM271 640q-21 0 -38 -7t-31 -24t-24 -44.5t-17 -68.5l-4 -32q-2 -16 -2 -27q0 -48 18.5 -65.5t51.5 -17.5q21 0 39 7t32 23.5t24 44t17 68.5q2 17 4 32t2 27q0 47 -19 65.5t-53 18.5zM796 700l-444 -700h-103l445 700h102z" />
<glyph unicode="&#x26;" horiz-adv-x="702" d="M586 479h97q-17 -107 -49 -191t-80 -145q25 -20 51.5 -40t56.5 -40l-63 -77q-29 20 -62 43.5t-56 42.5q-103 -85 -247 -85q-47 0 -87 9t-69 29.5t-45 52t-16 76.5q0 42 13.5 74.5t37 59t53.5 48.5t63 42q-24 46 -33.5 84.5t-9.5 70.5q0 81 55.5 130.5t158.5 49.5 q79 0 117 -31t38 -89q0 -38 -14.5 -70.5t-40.5 -61t-61 -53.5t-76 -48q28 -35 68.5 -75t97.5 -88q36 50 62.5 120.5t39.5 161.5zM237 532q0 -22 7.5 -49t25.5 -59q68 39 104.5 73t36.5 75q0 29 -18 44.5t-53 15.5q-50 0 -76.5 -27t-26.5 -73zM249 71q88 0 161 58 q-61 51 -104.5 96t-74.5 86q-23 -14 -43 -28.5t-35 -32t-24 -37.5t-9 -45q0 -51 37 -74t92 -23z" />
<glyph unicode="'" horiz-adv-x="179" d="M145 479h-80l28 234h98z" />
<glyph unicode="(" horiz-adv-x="345" d="M248 -102q-107 10 -157.5 80.5t-50.5 204.5q0 29 2 61.5t7 67.5q28 196 108.5 298.5t219.5 114.5l-4 -88q-44 -6 -79.5 -26t-63 -58t-48 -97t-34.5 -144q-12 -78 -12 -132q0 -97 34.5 -141.5t99.5 -54.5z" />
<glyph unicode=")" horiz-adv-x="345" d="M103 725q107 -10 157.5 -80.5t50.5 -204.5q0 -29 -2 -61.5t-7 -67.5q-28 -196 -108.5 -298.5t-219.5 -114.5l4 88q44 6 79.5 26t63 58t48 97t34.5 144q12 78 12 132q0 97 -34.5 141.5t-99.5 54.5z" />
<glyph unicode="*" horiz-adv-x="434" d="M134 340l-60 56l97 101l-110 31l35 84l111 -40l14 141h96l-31 -141l124 40l10 -84l-120 -31l65 -101l-79 -56l-59 109z" />
<glyph unicode="+" horiz-adv-x="505" d="M263 110h-85l25 160h-157l13 79h157l25 162h86l-27 -162h158l-13 -79h-157z" />
<glyph unicode="," horiz-adv-x="235" d="M17 -140l-14 49q30 9 51.5 31.5t30.5 53.5q-30 0 -45.5 14.5t-15.5 40.5q0 38 21.5 57t53.5 19q29 0 45.5 -16t16.5 -51q0 -28 -8 -58.5t-25.5 -58t-45 -49.5t-65.5 -32z" />
<glyph unicode="-" horiz-adv-x="440" d="M400 305l-14 -91h-344l14 91h344z" />
<glyph unicode="." horiz-adv-x="235" d="M84 -6q-30 0 -46 15t-16 41q0 37 21 57t56 20q62 0 62 -57q0 -38 -21.5 -57t-55.5 -19z" />
<glyph unicode="/" horiz-adv-x="515" d="M582 700l-497 -700h-122l498 700h121z" />
<glyph unicode="0" d="M47 350q25 191 104.5 277t219.5 86q118 0 176.5 -60.5t58.5 -192.5q0 -25 -2 -52t-6 -58q-27 -188 -108 -275.5t-220 -87.5q-117 0 -174.5 59.5t-57.5 189.5q0 51 9 114zM499 460q0 89 -35 125t-100 36q-40 0 -73 -13.5t-59 -45t-45.5 -83.5t-31.5 -130q-5 -32 -8 -60 t-3 -52q0 -89 34.5 -124t98.5 -35q41 0 75 13.5t60 45t45.5 84t31.5 130.5q5 32 7.5 59t2.5 50z" />
<glyph unicode="1" d="M68 99h167l73 463l-97 -60l-31 91l190 109h72l-96 -603h176l-16 -99h-454z" />
<glyph unicode="2" d="M12 0l14 96l259 212q43 35 75 64t52.5 56t30.5 53t10 55q0 43 -28 63.5t-80 20.5q-64 0 -106.5 -25.5t-79.5 -80.5l-68 58q51 75 114.5 108t155.5 33q100 0 153.5 -39.5t53.5 -118.5q0 -40 -12 -76t-38 -72.5t-67 -76.5t-99 -88l-180 -147l357 1l-16 -96h-501z" />
<glyph unicode="3" d="M254 -13q-90 0 -146.5 34t-83.5 100l87 54q20 -51 56 -74.5t94 -23.5q76 0 124 38t48 115q0 42 -26.5 64t-83.5 22h-91l14 92h89q55 0 92.5 34t37.5 95q0 44 -30.5 64.5t-86.5 20.5q-54 0 -93 -20.5t-76 -68.5l-69 58q48 65 110 93.5t151 28.5q98 0 152 -39t54 -117 q0 -58 -30.5 -110.5t-88.5 -81.5q84 -35 84 -126q0 -54 -19 -100t-56 -80t-90.5 -53t-122.5 -19z" />
<glyph unicode="4" d="M1 171l14 84l301 445h107l-292 -431h253l43 272h108l-44 -272h95l-16 -98h-94l-27 -171h-108l27 171h-367z" />
<glyph unicode="5" d="M245 605l-48 -190q32 17 70.5 26t77.5 9q43 0 80.5 -10.5t65 -32.5t43 -55.5t15.5 -79.5q0 -64 -21 -116.5t-60.5 -90t-96 -58t-127.5 -20.5q-83 0 -142 36t-87 101l86 55q41 -104 153 -104q40 0 74 13t58.5 36.5t38 57t13.5 74.5q0 54 -34 80t-95 26q-50 0 -90 -15 t-75 -41l-62 34l90 360h415l-15 -95h-327z" />
<glyph unicode="6" d="M283 -13q-54 0 -98.5 15t-75.5 47t-48 82t-17 119q0 26 1.5 52.5t6.5 54.5q27 179 114.5 267.5t218.5 88.5q88 0 143 -31.5t76 -90.5l-84 -56q-34 88 -138 88q-54 0 -92 -22t-64 -60t-42 -88.5t-25 -107.5l-3 -23q29 54 82.5 85.5t122.5 31.5q94 0 146 -46.5t52 -132.5 q0 -55 -17 -104.5t-51.5 -87t-86.5 -59.5t-121 -22zM328 352q-35 0 -65.5 -11t-54 -32t-37 -51t-13.5 -67q0 -52 33 -84t94 -32q74 0 118.5 46t44.5 124q0 50 -29 78.5t-91 28.5z" />
<glyph unicode="7" d="M140 0q13 84 42 168.5t70 163t93.5 148t112.5 122.5l-345 -2l15 100h477l-15 -94q-62 -38 -116 -103t-97.5 -146.5t-74 -173.5t-44.5 -183h-118z" />
<glyph unicode="8" d="M260 -13q-112 0 -171 45t-59 129q0 42 12.5 76.5t34.5 60.5t51.5 43t62.5 26q-40 16 -61.5 47t-21.5 79q0 55 18.5 96t52.5 68.5t82 41.5t107 14q102 0 155 -38.5t53 -116.5q0 -73 -36 -123t-97 -73q47 -14 75.5 -47.5t28.5 -88.5q0 -56 -20 -100.5t-57.5 -75t-90.5 -47 t-119 -16.5zM323 408q30 0 56.5 9t47 26t32.5 41.5t12 56.5q0 43 -29.5 65t-83.5 22q-66 0 -107 -33t-41 -98q0 -42 28.5 -65.5t84.5 -23.5zM269 73q33 0 63.5 9t54 27.5t37.5 45.5t14 63q0 48 -34.5 73t-95.5 25q-37 0 -67.5 -9.5t-53 -28t-35 -45.5t-12.5 -61 q0 -49 33 -74t96 -25z" />
<glyph unicode="9" d="M299 342q35 0 66 11.5t54 33t36.5 52.5t13.5 69q0 52 -33 83.5t-93 31.5q-37 0 -67.5 -12t-52 -34t-33 -53.5t-11.5 -70.5q0 -51 29 -81t91 -30zM344 713q55 0 99 -15t75 -47t48 -82t17 -120q0 -26 -1.5 -52t-6.5 -54q-27 -179 -114.5 -267.5t-219.5 -88.5 q-87 0 -142.5 30.5t-78.5 87.5l84 57q17 -43 53.5 -64t87.5 -21q54 0 92 22t64 60t42 88.5t25 107.5l4 21q-29 -55 -83 -88t-122 -33q-94 0 -146.5 47.5t-52.5 135.5q0 55 17 105t51.5 87.5t86.5 60t121 22.5z" />
<glyph unicode=":" horiz-adv-x="235" d="M18 0zM80 -6q-30 0 -46 15t-16 41q0 37 21 57t56 20q62 0 62 -57q0 -38 -21.5 -57t-55.5 -19zM142 357q-30 0 -46 15t-16 41q0 37 21 57t56 20q62 0 62 -57q0 -38 -21.5 -57t-55.5 -19z" />
<glyph unicode=";" horiz-adv-x="235" d="M3 0zM17 -140l-14 49q30 9 51.5 31.5t30.5 53.5q-30 0 -45.5 14.5t-15.5 40.5q0 38 21.5 57t53.5 19q29 0 45.5 -16t16.5 -51q0 -28 -8 -58.5t-25.5 -58t-45 -49.5t-65.5 -32zM147 357q-30 0 -46 15t-16 41q0 37 21 57t56 20q62 0 62 -57q0 -38 -21.5 -57t-55.5 -19z" />
<glyph unicode="&#x3c;" horiz-adv-x="493" d="M431 464l-240 -157l187 -154l-56 -65l-243 198l8 46l305 198z" />
<glyph unicode="=" horiz-adv-x="502" d="M468 422l-12 -79h-399l11 79h400zM445 276l-12 -79h-399l12 79h399z" />
<glyph unicode="&#x3e;" horiz-adv-x="493" d="M101 88l-38 66l239 157l-185 155l55 64l243 -198l-7 -45z" />
<glyph unicode="?" horiz-adv-x="488" d="M511 544q0 -113 -62.5 -174.5t-168.5 -72.5l-17 -93h-98l23 162h49q37 0 67.5 9.5t52.5 29.5t34 50.5t12 72.5q0 47 -31.5 71.5t-93.5 24.5q-53 0 -94 -22t-80 -82l-66 51q45 76 109.5 110t152.5 34q101 0 156 -43.5t55 -127.5zM182 -6q-61 0 -61 56q0 38 21.5 57 t55.5 19q61 0 61 -56q0 -38 -21.5 -57t-55.5 -19z" />
<glyph unicode="@" horiz-adv-x="799" d="M628 -3q-51 -48 -117.5 -74t-152.5 -26q-72 0 -127.5 19.5t-93.5 56t-57.5 89t-19.5 117.5q0 89 29 163.5t81.5 128.5t125.5 84t161 30q68 0 120.5 -18t88 -52t54 -82t18.5 -108q0 -55 -13.5 -100t-38 -77.5t-60 -50.5t-78.5 -18q-38 0 -60 15t-27 47 q-20 -32 -52.5 -50.5t-77.5 -18.5q-46 0 -74 21.5t-28 64.5q0 54 41 89t125 35h77q1 5 1.5 10.5t0.5 10.5q0 33 -19 45.5t-53 12.5t-59 -11.5t-42 -29.5l-29 44q51 59 147 59q28 0 52.5 -5.5t41.5 -18.5t27 -34t10 -51q0 -15 -3 -34l-14 -89q-1 -5 -2 -12.5t-1 -12.5 q0 -41 42 -41q24 0 45.5 13t38 38.5t26.5 63t10 85.5q0 55 -17 96t-48 68t-74.5 40t-96.5 13q-71 0 -134.5 -23.5t-111.5 -69.5t-76.5 -114t-28.5 -157q0 -60 18 -105t51.5 -74t80.5 -43.5t105 -14.5q72 0 134 21.5t110 66.5zM355 127q43 0 71 27.5t38 76.5l-73 1 q-90 0 -90 -64q0 -41 54 -41z" />
<glyph unicode="A" horiz-adv-x="647" d="M378 590l-175 -366h237zM476 0l-21 131h-297l-63 -131h-116l347 700h141l126 -700h-117z" />
<glyph unicode="B" horiz-adv-x="686" d="M60 0l111 700h305q48 0 82 -10.5t55 -30t31 -46t10 -59.5q0 -70 -32.5 -119.5t-89.5 -72.5q47 -11 68.5 -47.5t21.5 -81.5q0 -57 -18.5 -101t-53 -73t-83 -44t-109.5 -15h-298zM451 608h-184l-32 -206h182q32 0 55 10.5t38 28.5t22.5 41t7.5 48q0 40 -23 59t-66 19z M407 309h-186l-35 -218h181q66 0 104 34t38 103q0 39 -24 60t-78 21z" />
<glyph unicode="C" horiz-adv-x="685" d="M352 -13q-141 0 -210.5 61.5t-69.5 201.5q0 26 1.5 49t5.5 52q13 97 44 166t77 112.5t107 63.5t135 20q106 0 164.5 -40t83.5 -119l-99 -46q-20 62 -57 86t-101 24q-44 0 -82 -12t-69 -42.5t-53 -82t-35 -130.5q-4 -27 -6 -51.5t-2 -46.5q0 -49 11.5 -82t34 -53 t54.5 -28.5t74 -8.5q59 0 108 21t87 80l79 -61q-25 -39 -55.5 -64.5t-66 -41t-76 -22t-84.5 -6.5z" />
<glyph unicode="D" horiz-adv-x="741" d="M331 0h-271l129 700h250q132 0 196 -59t64 -187q0 -19 -2 -46.5t-6 -53.5q-27 -183 -118 -268.5t-242 -85.5zM189 97h148q43 0 81.5 12t69.5 41.5t53.5 78t34.5 121.5q3 20 5 44t2 43q0 90 -40.5 128t-115.5 38h-157z" />
<glyph unicode="E" horiz-adv-x="663" d="M60 0l111 700h507l-15 -96h-396l-32 -203h345l-15 -97h-345l-33 -208h405l-15 -96h-517z" />
<glyph unicode="F" horiz-adv-x="608" d="M60 0l111 700h491l-15 -97h-377l-33 -208h335l-17 -100h-334l-47 -295h-114z" />
<glyph unicode="G" horiz-adv-x="729" d="M326 -13q-125 0 -189.5 65.5t-64.5 203.5q0 23 1.5 46t5.5 49q13 96 42 165t74.5 112.5t107.5 64t141 20.5q103 0 160 -36.5t82 -109.5l-99 -47q-18 54 -53.5 76t-98.5 22q-47 0 -86 -12.5t-69.5 -43t-52 -82t-33.5 -129.5q-5 -28 -6.5 -52t-1.5 -44q0 -50 11 -83.5 t32.5 -53.5t52.5 -29t70 -9q30 0 62 8t60 30t50.5 59t33.5 96h-171l13 89h276l-58 -362h-88l8 94q-35 -51 -89 -79t-123 -28z" />
<glyph unicode="H" horiz-adv-x="786" d="M528 0l48 301h-354l-48 -301h-114l111 700h114l-47 -298h354l47 298h115l-111 -700h-115z" />
<glyph unicode="I" horiz-adv-x="318" d="M60 0l111 700h114l-111 -700h-114z" />
<glyph unicode="J" horiz-adv-x="515" d="M-23 40l61 87q23 -21 53 -32t62 -11q61 0 103.5 41t56.5 137l70 438h114l-69 -439q-13 -79 -39 -131.5t-63 -84t-84 -45t-101 -13.5q-45 0 -88 13t-76 40z" />
<glyph unicode="K" horiz-adv-x="660" d="M60 0l111 700h114l-57 -362l347 362h137l-308 -316l204 -384h-136l-157 301l-110 -111l-31 -190h-114z" />
<glyph unicode="L" horiz-adv-x="621" d="M189 98h383l-16 -98h-497l111 700h114z" />
<glyph unicode="M" horiz-adv-x="943" d="M388 0l-144 509l-76 -509h-107l111 700h121l156 -567l338 567h124l-111 -700h-110l87 509l-305 -509h-84z" />
<glyph unicode="N" horiz-adv-x="777" d="M524 0l-276 527l-79 -527h-109l111 700h102l280 -535l81 535h110l-111 -700h-109z" />
<glyph unicode="O" horiz-adv-x="768" d="M79 351q26 190 116.5 276t251.5 86q142 0 208.5 -62.5t66.5 -196.5q0 -23 -1.5 -48.5t-5.5 -54.5q-26 -190 -117.5 -277t-251.5 -87q-140 0 -207 63.5t-67 199.5q0 23 1.5 48t5.5 53zM607 446q0 96 -43.5 134t-125.5 38q-50 0 -90 -13t-70 -43.5t-51 -82t-33 -129.5 q-9 -56 -9 -97q0 -95 43.5 -133t124.5 -38q50 0 90 13t70.5 44.5t52 83t33.5 129.5q5 27 6.5 50t1.5 44z" />
<glyph unicode="P" horiz-adv-x="670" d="M60 0l111 700h289q106 0 157 -47t51 -134q0 -70 -20.5 -124t-58 -90.5t-91 -55.5t-118.5 -19h-169l-37 -230h-114zM444 601h-174l-44 -273h174q32 0 60 11t49 32.5t33 54t12 74.5q0 48 -26.5 74.5t-83.5 26.5z" />
<glyph unicode="Q" horiz-adv-x="768" d="M447 713q142 0 208.5 -62.5t66.5 -196.5q0 -23 -1.5 -48.5t-5.5 -54.5q-17 -125 -61.5 -204t-118.5 -119l63 -119h-114l-45 86q-46 -8 -93 -8q-140 0 -207 63.5t-67 199.5q0 23 1.5 48t5.5 53q26 190 116.5 276t251.5 86zM438 619q-50 0 -89.5 -13t-70 -44t-51.5 -83 t-33 -130q-5 -28 -6.5 -52t-1.5 -45q0 -95 43 -133t124 -38h20q10 0 20 2l-63 123h113l46 -89q41 29 68 85t42 149q5 28 6.5 51.5t1.5 44.5q0 96 -43.5 134t-125.5 38z" />
<glyph unicode="R" horiz-adv-x="676" d="M446 602h-177l-40 -253h176q30 0 57 10t47 29.5t32 49.5t12 70q0 45 -25.5 69.5t-81.5 24.5zM386 252h-172l-40 -252h-114l111 700h292q104 0 154.5 -45.5t50.5 -128.5q0 -100 -45 -164t-120 -90l95 -272h-126z" />
<glyph unicode="S" horiz-adv-x="618" d="M598 585l-93 -53q-23 46 -57 69t-93 23q-39 0 -67 -8.5t-46.5 -22.5t-27 -32.5t-8.5 -39.5q0 -18 4.5 -33.5t15.5 -29t31 -24.5t52 -20l47 -13q57 -16 95.5 -34.5t62 -41.5t33.5 -51t10 -64q0 -53 -20 -94.5t-57 -70t-90 -43.5t-118 -15q-87 0 -153 31.5t-102 107.5 l91 56q30 -59 68 -83.5t99 -24.5q85 0 127 32t42 83q0 45 -26 67.5t-85 38.5l-49 13q-101 27 -144.5 78t-43.5 115q0 45 17 83.5t50.5 67t83.5 45t116 16.5q89 0 146 -30.5t89 -97.5z" />
<glyph unicode="T" horiz-adv-x="578" d="M77 700h554l-16 -99h-220l-95 -601h-114l95 601h-220z" />
<glyph unicode="U" horiz-adv-x="745" d="M547 275l67 425h114l-66 -421q-23 -148 -107.5 -220t-217.5 -72q-124 0 -189.5 55.5t-65.5 167.5q0 31 6 69l67 421h114l-67 -424q-3 -14 -3.5 -26.5t-0.5 -26.5q0 -67 35.5 -103.5t110.5 -36.5q82 0 134 45t69 147z" />
<glyph unicode="V" horiz-adv-x="632" d="M74 700h117l97 -584l283 584h118l-349 -700h-139z" />
<glyph unicode="W" horiz-adv-x="914" d="M471 698h104l57 -528l225 530h115l-309 -700h-110l-57 530l-226 -530h-114l-84 700h117l54 -535z" />
<glyph unicode="X" horiz-adv-x="642" d="M459 0l-139 275l-224 -275h-130l301 360l-174 340h127l129 -263l208 263h128l-285 -343l187 -357h-128z" />
<glyph unicode="Y" horiz-adv-x="614" d="M244 273l-177 427h122l128 -327l232 327h124l-315 -429l-43 -271h-114z" />
<glyph unicode="Z" horiz-adv-x="575" d="M-21 0l13 80l474 525l-370 -2l15 97h510l-12 -80l-477 -525l399 2l-16 -97h-536z" />
<glyph unicode="[" horiz-adv-x="340" d="M8 -121l133 838h235l-13 -84h-134l-107 -671h137l-14 -83h-237z" />
<glyph unicode="\" horiz-adv-x="530" d="M350 0l-290 700h119l290 -700h-119z" />
<glyph unicode="]" horiz-adv-x="340" d="M349 717l-133 -838h-235l13 84h134l107 671h-137l14 83h237z" />
<glyph unicode="^" horiz-adv-x="444" d="M28 379l199 321h106l97 -321v-2h-99l-65 230l-139 -230h-99v2z" />
<glyph unicode="_" horiz-adv-x="476" d="M437 0l-15 -91h-480l14 91h481z" />
<glyph unicode="`" horiz-adv-x="600" d="M271 573l-102 117l1 6h130l58 -119v-4h-87z" />
<glyph unicode="a" horiz-adv-x="561" d="M213 68q60 0 104.5 40t55.5 114v3h-107q-60 0 -94.5 -24t-34.5 -70q0 -63 76 -63zM174 -12q-63 0 -102 33t-39 96q0 39 15 72.5t44.5 58t74 38t103.5 13.5h115q3 18 3 31q0 50 -27 68t-78 18q-50 0 -87 -17t-63 -45l-45 66q38 42 91 62.5t126 20.5q43 0 78.5 -8t61 -26 t40 -47.5t14.5 -72.5q0 -11 -1 -23.5t-3 -26.5l-47 -299h-94l4 82q-30 -45 -77 -69.5t-107 -24.5z" />
<glyph unicode="b" horiz-adv-x="609" d="M265 700l-46 -286q62 89 176 89q82 0 125.5 -48t43.5 -142q0 -15 -1.5 -31t-3.5 -34q-17 -122 -81 -191.5t-170 -69.5q-56 0 -95 23t-58 69l-19 -79h-92l111 700h110zM192 243q-2 -14 -3.5 -26.5t-1.5 -24.5q0 -62 30 -90t78 -28q64 0 103 41t53 129q2 17 3 30t1 26 q0 60 -26 88t-77 28q-58 0 -102 -41t-58 -132z" />
<glyph unicode="c" horiz-adv-x="526" d="M401 146l73 -50q-38 -59 -93.5 -84t-126.5 -25q-102 0 -154.5 48t-52.5 148q0 14 1.5 29t3.5 32q20 132 88 195.5t180 63.5q84 0 129 -32.5t64 -92.5l-86 -44q-12 38 -37 59t-77 21q-63 0 -101 -41t-52 -129q-2 -16 -3.5 -30.5t-1.5 -26.5q0 -61 26.5 -86.5t86.5 -25.5 q42 0 74.5 15t58.5 56z" />
<glyph unicode="d" horiz-adv-x="614" d="M419 246q2 14 3 27t1 24q0 63 -30 91t-79 28q-63 0 -100.5 -41t-53.5 -131q-3 -20 -4 -30.5t-1 -23.5q0 -115 104 -115q58 0 102 40.5t58 130.5zM488 0h-96l6 78q-62 -91 -179 -91q-83 0 -127.5 49t-44.5 143q0 15 1.5 31.5t3.5 33.5q17 128 82 193.5t167 65.5 q51 0 87.5 -19.5t56.5 -57.5l44 274h110z" />
<glyph unicode="e" horiz-adv-x="547" d="M251 -13q-97 0 -150.5 47.5t-53.5 149.5q0 14 1.5 28.5t3.5 31.5q17 126 87 192.5t186 66.5q48 0 82.5 -14t57 -39t33 -59.5t10.5 -75.5q0 -46 -14 -102h-340q-1 -8 -1 -15v-14q0 -61 28.5 -87t84.5 -26q46 0 79.5 14.5t60.5 54.5l68 -46q-38 -55 -90.5 -81t-132.5 -26z M312 419q-54 0 -91.5 -30t-54.5 -101h238q1 7 1 13v15q1 54 -22.5 78.5t-70.5 24.5z" />
<glyph unicode="f" horiz-adv-x="361" d="M65 0l64 406h-85l14 85h85l9 51q14 95 63.5 137.5t125.5 42.5q23 0 49.5 -4t43.5 -14l-31 -84q-13 6 -25.5 9.5t-29.5 3.5q-35 0 -58 -20.5t-32 -74.5l-7 -47h134l-13 -85h-135l-63 -406h-109z" />
<glyph unicode="g" horiz-adv-x="608" d="M416 255q2 12 3 23.5t1 22.5q0 61 -30.5 88.5t-78.5 27.5q-64 0 -101.5 -39t-50.5 -124q-2 -15 -3.5 -27.5t-1.5 -25.5q0 -58 26.5 -84.5t77.5 -26.5q58 0 101 38.5t57 126.5zM562 491l-75 -475q-9 -59 -34 -103t-62 -73t-84.5 -43.5t-102.5 -14.5q-72 0 -123.5 25 t-74.5 88l77 56q17 -46 48.5 -64.5t78.5 -18.5q66 0 110 33t56 109l12 76q-59 -83 -168 -83q-83 0 -128 47.5t-45 142.5q0 14 1 28.5t3 31.5q17 124 79.5 187t161.5 63q59 0 100 -22.5t59 -68.5l21 79h90z" />
<glyph unicode="h" horiz-adv-x="622" d="M265 700l-49 -302q35 55 85 80t106 25q78 0 115.5 -40t37.5 -109q0 -22 -5 -50l-48 -304h-110l44 278q3 22 3 42q0 86 -88 86q-60 0 -105 -43.5t-59 -124.5l-38 -238h-110l111 700h110z" />
<glyph unicode="i" horiz-adv-x="279" d="M192 574q-63 0 -63 55q0 39 22 58t57 19q62 0 62 -56q0 -39 -21.5 -57.5t-56.5 -18.5zM122 491h110l-77 -491h-111z" />
<glyph unicode="j" horiz-adv-x="279" d="M192 574q-62 0 -62 55q0 39 22 58t57 19q29 0 45.5 -14.5t16.5 -41.5q0 -39 -22 -57.5t-57 -18.5zM41 -28l83 519h109l-83 -529q-15 -93 -66 -136.5t-125 -43.5q-23 0 -42.5 3.5t-42.5 12.5l30 85q12 -5 23.5 -8t28.5 -3q16 0 29.5 4.5t24.5 16t18.5 31t12.5 48.5z" />
<glyph unicode="k" horiz-adv-x="535" d="M266 700l-76 -460l249 251h128l-225 -219l150 -272h-125l-107 199l-89 -84l-17 -115h-110l111 700h111z" />
<glyph unicode="l" horiz-adv-x="284" d="M164 0q-58 0 -87 27.5t-18 96.5l91 576h111l-89 -567q-4 -24 5 -35t35 -11h40l-13 -87h-75z" />
<glyph unicode="m" horiz-adv-x="919" d="M44 0l77 491h93l-3 -89q34 53 81 77t99 24q60 0 91.5 -31.5t39.5 -85.5q35 61 86 89t108 28q72 0 106.5 -38.5t34.5 -107.5q0 -13 -1.5 -26t-3.5 -27l-48 -304h-110l44 280q3 22 3 44q0 82 -77 82q-53 0 -93.5 -42.5t-53.5 -118.5l-39 -245h-110l45 280q3 22 3 44 q0 82 -77 82q-53 0 -93 -42.5t-54 -119.5l-38 -244h-110z" />
<glyph unicode="n" horiz-adv-x="622" d="M44 0l77 491h93l-3 -91q35 54 86 78.5t108 24.5q79 0 117 -40t38 -109q0 -22 -5 -50l-48 -304h-110l44 278q3 22 3 42q0 86 -88 86q-60 0 -105 -42.5t-58 -118.5l-39 -245h-110z" />
<glyph unicode="o" horiz-adv-x="585" d="M52 246q18 134 89 195.5t186 61.5q106 0 158 -45.5t52 -145.5q0 -15 -1.5 -31.5t-3.5 -34.5q-17 -132 -87 -195.5t-188 -63.5q-103 0 -156.5 47t-53.5 149q0 14 1.5 30t3.5 33zM425 245q3 17 4 31.5t1 28.5q0 60 -27.5 85.5t-84.5 25.5q-70 0 -107.5 -38.5t-51.5 -132.5 q-2 -17 -3.5 -32t-1.5 -28q0 -60 27 -85.5t83 -25.5q67 0 106.5 39t54.5 132z" />
<glyph unicode="p" horiz-adv-x="613" d="M193 243q-2 -14 -3 -26.5t-1 -23.5q0 -63 30 -91.5t78 -28.5q127 0 155 171q2 17 3.5 30.5t1.5 27.5q0 60 -26.5 87t-76.5 27q-58 0 -102.5 -41t-58.5 -132zM15 -186l107 677h94l-4 -86q32 49 79 73.5t106 24.5q83 0 125.5 -48t42.5 -142q0 -15 -1.5 -31.5t-3.5 -33.5 q-17 -122 -81 -191.5t-171 -69.5q-50 0 -86.5 19t-56.5 57l-40 -249h-110z" />
<glyph unicode="q" horiz-adv-x="611" d="M458 -186h-109l39 253q-29 -38 -70.5 -59t-98.5 -21q-83 0 -127.5 49t-44.5 143q0 15 1.5 31t3.5 34q17 127 82 193t167 66q54 0 93 -23t57 -69l23 80h92zM418 246q2 14 3 27t1 24q0 63 -29.5 91t-78.5 28q-64 0 -102 -41t-52 -131q-2 -14 -3.5 -27.5t-1.5 -26.5 q0 -115 104 -115q58 0 101.5 40.5t57.5 130.5z" />
<glyph unicode="r" horiz-adv-x="386" d="M44 0l77 491h94l-4 -100q35 58 86 86t110 24l-18 -108q-82 8 -132.5 -38t-67.5 -135l-35 -220h-110z" />
<glyph unicode="s" horiz-adv-x="502" d="M220 69q57 0 82.5 17.5t25.5 45.5q0 24 -15.5 37t-56.5 24l-39 10q-68 17 -104 53t-36 90q0 33 13 62t39 50t63.5 33t87.5 12q67 0 109.5 -21t71.5 -63l-70 -61q-11 14 -22.5 25.5t-25 19.5t-31 12t-39.5 4q-49 0 -71.5 -18t-22.5 -44t16 -37.5t49 -20.5l49 -13 q75 -20 106.5 -54t31.5 -85q0 -30 -11.5 -59t-37 -51.5t-67 -36t-101.5 -13.5q-69 0 -118.5 24t-78.5 81l76 53q39 -76 127 -76z" />
<glyph unicode="t" horiz-adv-x="363" d="M368 491l-13 -85h-136l-36 -228q-8 -56 6.5 -78.5t56.5 -22.5q16 0 29.5 3t28.5 8l4 -81q-28 -11 -48.5 -15t-42.5 -4q-68 0 -107.5 30t-39.5 100q0 14 1.5 29.5t3.5 29.5l37 229h-81l13 85h82l22 142h107l-22 -142h135z" />
<glyph unicode="u" horiz-adv-x="620" d="M224 -13q-84 0 -123 41.5t-39 113.5q0 21 3 45l49 304h111l-45 -278q-2 -12 -2 -23v-20q0 -91 88 -91q61 0 103 41t56 121l39 250h111l-79 -491h-93l5 84q-35 -51 -83 -74t-101 -23z" />
<glyph unicode="v" horiz-adv-x="513" d="M39 491h115l76 -384l195 384h116l-268 -491h-118z" />
<glyph unicode="w" horiz-adv-x="743" d="M355 488h101l49 -361l158 364h105l-229 -491h-108l-45 363l-158 -363h-108l-77 491h106l45 -365z" />
<glyph unicode="x" horiz-adv-x="509" d="M49 491h120l94 -175l147 175h122l-217 -245l146 -246h-120l-100 178l-155 -178h-121l225 248z" />
<glyph unicode="y" horiz-adv-x="521" d="M135 -56l26 50l-118 497h114l78 -386l195 386h116l-320 -584q-40 -72 -90 -98t-111 -26q-24 0 -43.5 3.5t-40.5 11.5l27 87q16 -6 30 -9.5t34 -3.5q12 0 25 2.5t26 10t26.5 21.5t25.5 38z" />
<glyph unicode="z" horiz-adv-x="487" d="M-1 0l11 74l332 330h-275l14 87h399l-12 -77l-330 -328h287l-14 -86h-412z" />
<glyph unicode="{" horiz-adv-x="353" d="M251 -103q-72 5 -111 35t-39 89q0 23 4.5 45t10.5 43t10.5 42.5t4.5 43.5q0 40 -22 57.5t-67 17.5h-29l12 83h32q54 0 83 24.5t37 77.5q5 29 4.5 59t4.5 62q10 72 59 108t130 42v-87q-40 -5 -64 -24t-31 -60q-5 -29 -5 -59t-5 -58q-8 -48 -34 -79t-71 -48q65 -28 65 -97 q0 -22 -4.5 -43t-10.5 -41.5t-10.5 -41t-4.5 -40.5q0 -32 19 -46t53 -18z" />
<glyph unicode="|" horiz-adv-x="298" d="M48 -65l131 831h102l-131 -831h-102z" />
<glyph unicode="}" horiz-adv-x="353" d="M105 726q72 -5 111 -35t39 -89q0 -23 -4.5 -45t-10.5 -43t-10.5 -42.5t-4.5 -43.5q0 -40 22 -57.5t67 -17.5h29l-12 -83h-32q-54 0 -83 -24.5t-37 -77.5q-5 -29 -4.5 -59t-4.5 -62q-10 -72 -59 -108t-130 -42v87q40 5 64 24t31 60q5 29 5 59t5 58q8 48 34 79t71 48 q-65 28 -65 97q0 22 4.5 43t10.5 41.5t10.5 41t4.5 40.5q0 32 -19 46t-53 18z" />
<glyph unicode="~" horiz-adv-x="536" d="M436 418l85 -14q-13 -70 -53.5 -105t-100.5 -35q-29 0 -54.5 10t-49 21.5t-45.5 21.5t-43 10q-27 0 -43 -16.5t-21 -45.5l-85 14q13 72 54 106.5t100 34.5q30 0 55 -10t48.5 -21.5t45 -21.5t43.5 -10q26 0 42 16t22 45z" />
<glyph unicode="&#xa1;" horiz-adv-x="234" d="M10 -199l94 496h85l-62 -496h-117zM178 507q29 0 44.5 -15t15.5 -41q0 -38 -21.5 -57.5t-55.5 -19.5q-61 0 -61 56q0 38 21.5 57.5t56.5 19.5z" />
<glyph unicode="&#xa2;" horiz-adv-x="538" d="M204 -62l11 76q-156 17 -156 182q0 14 1 29t3 32q16 119 76 178t154 66l12 77h72l-12 -79q63 -8 96.5 -40t49.5 -80l-80 -43q-10 30 -27.5 50.5t-52.5 28.5l-49 -318q31 4 56 18.5t46 46.5l68 -48q-33 -51 -79.5 -74t-103.5 -27l-12 -75h-73zM158 202q0 -47 17 -71 t54 -32l50 315q-48 -10 -76.5 -47.5t-40.5 -109.5q-2 -15 -3 -29.5t-1 -25.5z" />
<glyph unicode="&#xa3;" horiz-adv-x="581" d="M524 74q-41 -45 -87.5 -59.5t-108.5 -14.5h-346l15 94h34q32 0 44.5 27.5t18.5 77.5l12 98h-78l13 80h76l15 122q7 55 27 95.5t50.5 66.5t70 39t86.5 13q87 0 135 -36t71 -106l-89 -44q-13 43 -40.5 68t-75.5 25q-57 0 -86.5 -33.5t-38.5 -100.5l-13 -109h173l-13 -80 h-170l-12 -95q-5 -35 -13.5 -63t-21.5 -45h170q39 0 72 11t61 42z" />
<glyph unicode="&#xa5;" horiz-adv-x="635" d="M560 288l-12 -73h-185l-34 -215h-116l35 215h-186l11 73h177l-22 52h-146l11 73h106l-120 287h121l130 -330l234 330h123l-212 -287h105l-12 -73h-146l-39 -52h177z" />
<glyph unicode="&#xa6;" horiz-adv-x="298" d="M120 386l60 380h101l-60 -380h-101zM49 -65l60 380h100l-59 -380h-101z" />
<glyph unicode="&#xa7;" horiz-adv-x="519" d="M226 279l17 -5q51 -13 85.5 5.5t34.5 60.5q0 49 -69 66l-20 5q-49 11 -80.5 -8t-31.5 -58q0 -21 14 -38t50 -28zM202 -26q-65 0 -111.5 19.5t-70.5 70.5l73 53q17 -35 44 -50.5t73 -15.5q57 0 81 19.5t24 50.5q0 24 -18 39t-60 26l-36 9q-71 20 -101 56.5t-30 81.5 q0 18 5 37.5t16 37t30 31.5t47 21q-50 38 -50 101q0 28 10.5 55.5t34 49t61 34.5t91.5 13q59 0 95 -18t61 -53l-67 -60q-19 26 -40.5 39.5t-59.5 13.5q-47 0 -69 -18t-22 -47q0 -22 13.5 -40.5t51.5 -29.5l47 -12q71 -20 103 -52t32 -81q0 -19 -5 -38t-16 -36.5t-29.5 -31.5 t-46.5 -22q50 -35 50 -96q0 -27 -10 -55t-34 -50.5t-64.5 -37t-102.5 -14.5z" />
<glyph unicode="&#xa8;" horiz-adv-x="600" d="M392 576q-59 0 -59 52q0 38 21 56.5t53 18.5q60 0 60 -53q0 -37 -20.5 -55.5t-54.5 -18.5zM206 576q-59 0 -59 52q0 39 21.5 57t53.5 18q59 0 59 -52q0 -38 -20 -56.5t-55 -18.5z" />
<glyph unicode="&#xa9;" horiz-adv-x="808" d="M77 351q11 78 43 141.5t82 108.5t116.5 69.5t147.5 24.5q72 0 127 -20t92.5 -56t57 -87.5t19.5 -114.5q0 -18 -1.5 -32.5t-3.5 -33.5q-12 -78 -44 -141t-82.5 -108t-117 -69.5t-146.5 -24.5q-71 0 -126 19.5t-92.5 56t-57 87.5t-19.5 114q0 16 1.5 32.5t3.5 33.5z M123 351q-6 -36 -6 -67q0 -58 18 -101.5t51 -73t79.5 -44t103.5 -14.5q65 0 122 19t101.5 56.5t75 93.5t42.5 131q6 36 6 69q0 58 -18 101.5t-51 72.5t-79.5 43.5t-103.5 14.5q-65 0 -122 -19t-101.5 -56.5t-75 -94t-42.5 -131.5zM396 173q-72 0 -111.5 33.5t-39.5 105.5 q0 14 1 24t3 19q13 96 63.5 140t135.5 44q56 0 89.5 -20t48.5 -57l-64 -41q-10 26 -29 39.5t-51 13.5q-47 0 -75 -27t-39 -93q-4 -20 -4 -37q0 -42 20.5 -60t61.5 -18q32 0 56 12.5t42 42.5l56 -33q-28 -46 -69 -67t-95 -21z" />
<glyph unicode="&#xaa;" horiz-adv-x="402" d="M186 404q42 0 70.5 27.5t36.5 76.5l1 5h-74q-42 0 -64 -17t-22 -49q0 -43 52 -43zM153 344q-45 0 -72.5 23t-27.5 68q0 56 42 93t127 37h79q1 6 1.5 11t0.5 10q0 34 -19 47t-54 13t-60.5 -12.5t-44.5 -32.5l-33 51q26 29 65.5 45t91.5 16q61 0 100 -25.5t39 -87.5 q0 -14 -3 -35l-34 -210h-70l2 56q-21 -32 -54 -49.5t-76 -17.5z" />
<glyph unicode="&#xab;" horiz-adv-x="647" d="M432 0l-158 245v3l228 243h123l-236 -248l157 -243h-114zM207 0l-153 243l1 3l227 245h120l-232 -250l153 -241h-116z" />
<glyph unicode="&#xad;" horiz-adv-x="405" d="M363 305l-15 -91h-307l15 91h307z" />
<glyph unicode="&#xae;" horiz-adv-x="464" d="M86 524q12 85 68 137t147 52q78 0 120.5 -41t42.5 -111q0 -9 -1 -21t-3 -21q-16 -87 -70.5 -135.5t-144.5 -48.5q-79 0 -120.5 41.5t-41.5 111.5q0 18 3 36zM117 524q-3 -18 -3 -35q0 -63 37 -95t97 -32q68 0 117.5 41t62.5 121q3 19 3 36q0 62 -36 93.5t-96 31.5 q-69 0 -118.5 -40.5t-63.5 -120.5zM287 587h-38l-9 -60h33q19 0 30.5 8t11.5 29q0 23 -28 23zM186 435l28 186h81q31 0 45.5 -14.5t14.5 -37.5q0 -29 -12 -45t-31 -24l24 -65h-43l-19 58h-40l-9 -58h-39z" />
<glyph unicode="&#xaf;" horiz-adv-x="600" d="M439 666l-12 -69h-262l11 69h263z" />
<glyph unicode="&#xb0;" horiz-adv-x="459" d="M453 566q0 -48 -15 -88t-42.5 -68.5t-65.5 -44t-84 -15.5q-77 0 -116.5 40t-39.5 107q0 48 15 87.5t42 68t65 44.5t84 16q77 0 117 -40t40 -107zM165 504q0 -42 24 -64t64 -22q25 0 47.5 9t39.5 26.5t27 43.5t10 61q0 43 -24 65t-64 22q-25 0 -47.5 -9t-39.5 -26.5 t-27 -44t-10 -61.5z" />
<glyph unicode="&#xb1;" horiz-adv-x="506" d="M278 140h-86l23 145h-156l12 79h157l23 147h85l-24 -147h158l-12 -79h-158zM424 79l-12 -79h-399l12 79h399z" />
<glyph unicode="&#xb2;" horiz-adv-x="375" d="M34 294zM34 294l11 68l150 120q42 33 65.5 58t23.5 55q0 45 -62 45q-31 0 -52 -13.5t-41 -42.5l-51 45q31 45 70 64.5t89 19.5q63 0 100 -23.5t37 -76.5q0 -24 -7.5 -46t-23 -43t-39 -42.5t-54.5 -46.5l-83 -65l186 1l-11 -77h-308z" />
<glyph unicode="&#xb3;" horiz-adv-x="376" d="M38 283zM183 283q-57 0 -92.5 21.5t-52.5 63.5l67 39q12 -26 31 -39.5t52 -13.5q37 0 61 17.5t24 51.5q0 23 -14.5 34t-46.5 11h-49l11 67h48q29 0 48.5 17.5t19.5 44.5q0 24 -14.5 34t-46.5 10q-28 0 -47.5 -9.5t-39.5 -37.5l-54 44q27 38 64.5 56.5t91.5 18.5 q134 0 134 -97q0 -38 -18.5 -67.5t-52.5 -46.5q23 -8 36.5 -26t13.5 -50q0 -30 -12 -56t-34.5 -45.5t-54.5 -30.5t-73 -11z" />
<glyph unicode="&#xb4;" horiz-adv-x="600" d="M324 696h130l-1 -6l-134 -117h-93v4z" />
<glyph unicode="&#xb6;" horiz-adv-x="668" d="M537 604h-67l-44 -279h68zM198 438q-1 -56 28 -84t83 -28h18l43 278h-18q-72 0 -112.5 -45.5t-41.5 -120.5zM277 0l35 231h-9q-103 0 -157.5 53t-52.5 147q1 63 20.5 113t55 84.5t86 53t114.5 18.5h282l-111 -700h-99l36 230h-66l-36 -230h-98z" />
<glyph unicode="&#xb7;" horiz-adv-x="239" d="M53 271zM115 271q-30 0 -46 15t-16 41q0 37 21 57t56 20q62 0 62 -57q0 -38 -21.5 -57t-55.5 -19z" />
<glyph unicode="&#xb8;" horiz-adv-x="600" d="M298 -103l-17 12l39 91h70l-31 -59q32 -3 55.5 -23t23.5 -56q0 -26 -11 -45.5t-29.5 -32.5t-43 -19.5t-51.5 -6.5q-40 0 -71.5 16t-45.5 49l53 44q11 -23 26 -35.5t44 -12.5q23 0 39 10.5t16 31.5q0 22 -19.5 29.5t-46.5 6.5z" />
<glyph unicode="&#xb9;" horiz-adv-x="237" d="M64 294zM176 294h-86l48 306l-53 -31l-21 70l121 66h55z" />
<glyph unicode="&#xba;" horiz-adv-x="418" d="M66 528q11 92 62 138.5t135 46.5q151 0 151 -142q0 -14 -0.5 -22t-2.5 -21q-13 -93 -64 -138t-134 -45q-150 0 -150 140q0 22 3 43zM329 528q3 21 3 39q0 42 -18 61t-57 19q-46 0 -73 -28t-37 -91q-3 -21 -3 -39q0 -79 75 -79q47 0 73.5 28t36.5 90z" />
<glyph unicode="&#xbb;" horiz-adv-x="647" d="M216 491l158 -245v-3l-228 -243h-123l236 248l-157 243h114zM441 491l153 -243l-1 -3l-227 -245h-120l232 250l-153 241h116z" />
<glyph unicode="&#xbc;" horiz-adv-x="865" d="M64 0zM176 293h-86l48 306l-53 -31l-21 70l121 66h55zM639 700l-444 -700h-103l445 700h102zM454 91l9 60l165 257h85l-158 -242h128l26 154h81l-24 -154h55l-12 -75h-56l-14 -91h-82l15 91h-218z" />
<glyph unicode="&#xbd;" horiz-adv-x="849" d="M64 0zM458 0l11 68l150 120q42 33 65.5 58t23.5 55q0 45 -62 45q-31 0 -52 -13.5t-41 -42.5l-51 45q31 45 70 64.5t89 19.5q63 0 100 -23.5t37 -76.5q0 -24 -7.5 -46t-23 -43t-39 -42.5t-54.5 -46.5l-83 -65l186 1l-11 -77h-308zM176 293h-86l48 306l-53 -31l-21 70 l121 66h55zM639 700l-444 -700h-103l445 700h102z" />
<glyph unicode="&#xbe;" horiz-adv-x="963" d="M35 0zM180 282q-57 0 -92.5 21.5t-52.5 63.5l67 39q12 -26 31 -39.5t52 -13.5q37 0 61 17.5t24 51.5q0 23 -14.5 34t-46.5 11h-49l11 67h48q29 0 48.5 17.5t19.5 44.5q0 24 -14.5 34t-46.5 10q-28 0 -47.5 -9.5t-39.5 -37.5l-54 44q27 38 64.5 56.5t91.5 18.5 q134 0 134 -97q0 -38 -18.5 -67.5t-52.5 -46.5q23 -8 36.5 -26t13.5 -50q0 -30 -12 -56t-34.5 -45.5t-54.5 -30.5t-73 -11zM757 700l-444 -700h-103l445 700h102zM553 91l9 60l165 257h85l-158 -242h128l26 154h81l-24 -154h55l-12 -75h-56l-14 -91h-82l15 91h-218z" />
<glyph unicode="&#xbf;" horiz-adv-x="495" d="M-4 -47q0 113 62.5 174.5t168.5 72.5l17 93h98l-23 -162h-49q-74 0 -120 -39.5t-46 -122.5q0 -47 31.5 -71.5t93.5 -24.5q53 0 94 22t80 82l66 -51q-45 -76 -109.5 -110t-152.5 -34q-101 0 -156 43.5t-55 127.5zM325 503q61 0 61 -56q0 -38 -21.5 -57t-55.5 -19 q-61 0 -61 56q0 38 21.5 57t55.5 19z" />
<glyph unicode="&#xc0;" horiz-adv-x="647" d="M0 0zM378 590l-175 -366h237zM476 0l-21 131h-297l-63 -131h-116l347 700h141l126 -700h-117zM370 783l-102 117l1 6h130l58 -119v-4h-87z" />
<glyph unicode="&#xc1;" horiz-adv-x="647" d="M0 0zM378 590l-175 -366h237zM476 0l-21 131h-297l-63 -131h-116l347 700h141l126 -700h-117zM455 906h130l-1 -6l-134 -117h-93v4z" />
<glyph unicode="&#xc2;" horiz-adv-x="647" d="M0 0zM378 590l-175 -366h237zM476 0l-21 131h-297l-63 -131h-116l347 700h141l126 -700h-117zM416 848l-76 -65h-106v3l139 120h99l101 -120v-3h-103z" />
<glyph unicode="&#xc3;" horiz-adv-x="647" d="M0 0zM378 590l-175 -366h237zM476 0l-21 131h-297l-63 -131h-116l347 700h141l126 -700h-117zM511 900h74q-2 -31 -12.5 -52t-26.5 -33.5t-34.5 -18t-35.5 -5.5q-21 0 -38 6t-31.5 13.5t-27.5 13.5t-26 6q-18 0 -25.5 -11t-9.5 -25h-75q3 31 13.5 52t25.5 33.5t33 18 t36 5.5q21 0 38 -6t32 -13.5t28.5 -13.5t26.5 -6q17 0 25 11t10 25z" />
<glyph unicode="&#xc4;" horiz-adv-x="647" d="M0 0zM378 590l-175 -366h237zM476 0l-21 131h-297l-63 -131h-116l347 700h141l126 -700h-117zM503 786q-59 0 -59 52q0 38 21 56.5t53 18.5q60 0 60 -53q0 -37 -20.5 -55.5t-54.5 -18.5zM317 786q-59 0 -59 52q0 39 21.5 57t53.5 18q59 0 59 -52q0 -38 -20 -56.5 t-55 -18.5z" />
<glyph unicode="&#xc5;" horiz-adv-x="647" d="M0 0zM378 590l-175 -366h237zM476 0l-21 131h-297l-63 -131h-116l347 700h141l126 -700h-117zM405 758q-39 0 -64.5 21.5t-25.5 61.5q0 25 8.5 45.5t24 35.5t36 23t44.5 8q41 0 65.5 -22.5t24.5 -60.5q0 -51 -32.5 -81.5t-80.5 -30.5zM425 905q-23 0 -39 -16.5t-16 -43.5 q0 -18 10.5 -29t27.5 -11q21 0 38 16.5t17 44.5q0 18 -10.5 28.5t-27.5 10.5z" />
<glyph unicode="&#xc6;" horiz-adv-x="946" d="M381 590l-180 -366h235zM469 0l-20 131h-294l-64 -131h-117l355 700h633l-15 -96h-456l32 -203h340l-15 -97h-309l33 -208h304l-15 -96h-392z" />
<glyph unicode="&#xc7;" horiz-adv-x="685" d="M304 -239q-40 0 -71.5 16t-45.5 49l53 44q11 -23 26 -35.5t44 -12.5q23 0 39 10.5t16 31.5q0 22 -19.5 29.5t-46.5 6.5l-17 12l33 76q-123 8 -183 69.5t-60 192.5q0 26 1.5 49t5.5 52q13 97 44 166t77 112.5t107 63.5t135 20q106 0 164.5 -40t83.5 -119l-99 -46 q-20 62 -57 86t-101 24q-44 0 -82 -12t-69 -42.5t-53 -82t-35 -130.5q-4 -27 -6 -51.5t-2 -46.5q0 -49 11.5 -82t34 -53t54.5 -28.5t74 -8.5q59 0 108 21t87 80l79 -61q-46 -71 -109.5 -100t-141.5 -33l-23 -44q32 -3 55.5 -23t23.5 -56q0 -26 -11 -45.5t-29.5 -32.5 t-43 -19.5t-51.5 -6.5z" />
<glyph unicode="&#xc8;" horiz-adv-x="663" d="M60 0zM60 0l111 700h507l-15 -96h-396l-32 -203h345l-15 -97h-345l-33 -208h405l-15 -96h-517zM397 783l-102 117l1 6h130l58 -119v-4h-87z" />
<glyph unicode="&#xc9;" horiz-adv-x="663" d="M60 0zM481 906h130l-1 -6l-134 -117h-93v4zM60 0l111 700h507l-15 -96h-396l-32 -203h345l-15 -97h-345l-33 -208h405l-15 -96h-517z" />
<glyph unicode="&#xca;" horiz-adv-x="663" d="M60 0zM444 848l-76 -65h-106v3l139 120h99l101 -120v-3h-103zM60 0l111 700h507l-15 -96h-396l-32 -203h345l-15 -97h-345l-33 -208h405l-15 -96h-517z" />
<glyph unicode="&#xcb;" horiz-adv-x="663" d="M60 0zM529 786q-59 0 -59 52q0 38 21 56.5t53 18.5q60 0 60 -53q0 -37 -20.5 -55.5t-54.5 -18.5zM343 786q-59 0 -59 52q0 39 21.5 57t53.5 18q59 0 59 -52q0 -38 -20 -56.5t-55 -18.5zM60 0l111 700h507l-15 -96h-396l-32 -203h345l-15 -97h-345l-33 -208h405l-15 -96 h-517z" />
<glyph unicode="&#xcc;" horiz-adv-x="318" d="M60 0zM60 0l111 700h114l-111 -700h-114zM205 783l-102 117l1 6h130l58 -119v-4h-87z" />
<glyph unicode="&#xcd;" horiz-adv-x="318" d="M60 0zM60 0l111 700h114l-111 -700h-114zM288 906h130l-1 -6l-134 -117h-93v4z" />
<glyph unicode="&#xce;" horiz-adv-x="318" d="M60 0zM60 0l111 700h114l-111 -700h-114zM249 848l-76 -65h-106v3l139 120h99l101 -120v-3h-103z" />
<glyph unicode="&#xcf;" horiz-adv-x="318" d="M60 0zM60 0l111 700h114l-111 -700h-114zM335 786q-59 0 -59 52q0 38 21 56.5t53 18.5q60 0 60 -53q0 -37 -20.5 -55.5t-54.5 -18.5zM149 786q-59 0 -59 52q0 39 21.5 57t53.5 18q59 0 59 -52q0 -38 -20 -56.5t-55 -18.5z" />
<glyph unicode="&#xd0;" horiz-adv-x="751" d="M342 0h-272l49 310h-77l15 90h76l48 300h268q131 0 195 -59t64 -187q0 -20 -2 -47.5t-6 -52.5q-27 -183 -118 -268.5t-240 -85.5zM199 97h148q43 0 81.5 12t69.5 41t53.5 77.5t33.5 121.5q3 20 5.5 44t2.5 43q0 90 -41 128.5t-115 38.5h-157l-33 -203h145l-15 -90h-145z " />
<glyph unicode="&#xd1;" horiz-adv-x="777" d="M60 0zM524 0l-276 527l-79 -527h-109l111 700h102l280 -535l81 535h110l-111 -700h-109zM570 900h74q-2 -31 -12.5 -52t-26.5 -33.5t-34.5 -18t-35.5 -5.5q-21 0 -38 6t-31.5 13.5t-27.5 13.5t-26 6q-18 0 -25.5 -11t-9.5 -25h-75q3 31 13.5 52t25.5 33.5t33 18t36 5.5 q21 0 38 -6t32 -13.5t28.5 -13.5t26.5 -6q17 0 25 11t10 25z" />
<glyph unicode="&#xd2;" horiz-adv-x="768" d="M72 0zM79 351q26 190 116.5 276t251.5 86q142 0 208.5 -62.5t66.5 -196.5q0 -23 -1.5 -48.5t-5.5 -54.5q-26 -190 -117.5 -277t-251.5 -87q-140 0 -207 63.5t-67 199.5q0 23 1.5 48t5.5 53zM607 446q0 96 -43.5 134t-125.5 38q-50 0 -90 -13t-70 -43.5t-51 -82 t-33 -129.5q-9 -56 -9 -97q0 -95 43.5 -133t124.5 -38q50 0 90 13t70.5 44.5t52 83t33.5 129.5q5 27 6.5 50t1.5 44zM422 783l-102 117l1 6h130l58 -119v-4h-87z" />
<glyph unicode="&#xd3;" horiz-adv-x="768" d="M72 0zM506 906h130l-1 -6l-134 -117h-93v4zM79 351q26 190 116.5 276t251.5 86q142 0 208.5 -62.5t66.5 -196.5q0 -23 -1.5 -48.5t-5.5 -54.5q-26 -190 -117.5 -277t-251.5 -87q-140 0 -207 63.5t-67 199.5q0 23 1.5 48t5.5 53zM607 446q0 96 -43.5 134t-125.5 38 q-50 0 -90 -13t-70 -43.5t-51 -82t-33 -129.5q-9 -56 -9 -97q0 -95 43.5 -133t124.5 -38q50 0 90 13t70.5 44.5t52 83t33.5 129.5q5 27 6.5 50t1.5 44z" />
<glyph unicode="&#xd4;" horiz-adv-x="768" d="M72 0zM468 848l-76 -65h-106v3l139 120h99l101 -120v-3h-103zM79 351q26 190 116.5 276t251.5 86q142 0 208.5 -62.5t66.5 -196.5q0 -23 -1.5 -48.5t-5.5 -54.5q-26 -190 -117.5 -277t-251.5 -87q-140 0 -207 63.5t-67 199.5q0 23 1.5 48t5.5 53zM607 446q0 96 -43.5 134 t-125.5 38q-50 0 -90 -13t-70 -43.5t-51 -82t-33 -129.5q-9 -56 -9 -97q0 -95 43.5 -133t124.5 -38q50 0 90 13t70.5 44.5t52 83t33.5 129.5q5 27 6.5 50t1.5 44z" />
<glyph unicode="&#xd5;" horiz-adv-x="768" d="M72 0zM79 351q26 190 116.5 276t251.5 86q142 0 208.5 -62.5t66.5 -196.5q0 -23 -1.5 -48.5t-5.5 -54.5q-26 -190 -117.5 -277t-251.5 -87q-140 0 -207 63.5t-67 199.5q0 23 1.5 48t5.5 53zM607 446q0 96 -43.5 134t-125.5 38q-50 0 -90 -13t-70 -43.5t-51 -82 t-33 -129.5q-9 -56 -9 -97q0 -95 43.5 -133t124.5 -38q50 0 90 13t70.5 44.5t52 83t33.5 129.5q5 27 6.5 50t1.5 44zM563 900h74q-2 -31 -12.5 -52t-26.5 -33.5t-34.5 -18t-35.5 -5.5q-21 0 -38 6t-31.5 13.5t-27.5 13.5t-26 6q-18 0 -25.5 -11t-9.5 -25h-75q3 31 13.5 52 t25.5 33.5t33 18t36 5.5q21 0 38 -6t32 -13.5t28.5 -13.5t26.5 -6q17 0 25 11t10 25z" />
<glyph unicode="&#xd6;" horiz-adv-x="768" d="M72 0zM555 786q-59 0 -59 52q0 38 21 56.5t53 18.5q60 0 60 -53q0 -37 -20.5 -55.5t-54.5 -18.5zM369 786q-59 0 -59 52q0 39 21.5 57t53.5 18q59 0 59 -52q0 -38 -20 -56.5t-55 -18.5zM79 351q26 190 116.5 276t251.5 86q142 0 208.5 -62.5t66.5 -196.5 q0 -23 -1.5 -48.5t-5.5 -54.5q-26 -190 -117.5 -277t-251.5 -87q-140 0 -207 63.5t-67 199.5q0 23 1.5 48t5.5 53zM607 446q0 96 -43.5 134t-125.5 38q-50 0 -90 -13t-70 -43.5t-51 -82t-33 -129.5q-9 -56 -9 -97q0 -95 43.5 -133t124.5 -38q50 0 90 13t70.5 44.5t52 83 t33.5 129.5q5 27 6.5 50t1.5 44z" />
<glyph unicode="&#xd7;" horiz-adv-x="498" d="M98 134l-46 56l144 126l-103 126l64 54l101 -126l143 125l46 -56l-142 -125l102 -123l-63 -55l-102 124z" />
<glyph unicode="&#xd8;" horiz-adv-x="770" d="M-5 0l107 105q-29 57 -29 147q0 23 2 49.5t5 49.5q25 184 114.5 273t253.5 89q140 0 208 -64l52 51h100l-110 -108q27 -57 27 -143q0 -20 -2 -46.5t-6 -51.5q-26 -187 -116 -275.5t-251 -88.5q-138 0 -206 62l-50 -49h-99zM441 618q-51 0 -91 -13t-70.5 -44t-51.5 -82.5 t-33 -127.5q-4 -23 -6 -50t-2 -48q0 -17 1.5 -31.5t3.5 -28.5l384 377q-22 26 -56 37t-79 11zM355 82q50 0 90 13t70.5 44.5t52 83t33.5 128.5q4 22 6 49t2 49q0 14 -1 27t-3 25l-382 -375q21 -24 54 -34t78 -10z" />
<glyph unicode="&#xd9;" horiz-adv-x="745" d="M82 0zM547 275l67 425h114l-66 -421q-23 -148 -107.5 -220t-217.5 -72q-124 0 -189.5 55.5t-65.5 167.5q0 31 6 69l67 421h114l-67 -424q-3 -14 -3.5 -26.5t-0.5 -26.5q0 -67 35.5 -103.5t110.5 -36.5q82 0 134 45t69 147zM414 783l-102 117l1 6h130l58 -119v-4h-87z" />
<glyph unicode="&#xda;" horiz-adv-x="745" d="M82 0zM499 906h130l-1 -6l-134 -117h-93v4zM547 275l67 425h114l-66 -421q-23 -148 -107.5 -220t-217.5 -72q-124 0 -189.5 55.5t-65.5 167.5q0 31 6 69l67 421h114l-67 -424q-3 -14 -3.5 -26.5t-0.5 -26.5q0 -67 35.5 -103.5t110.5 -36.5q82 0 134 45t69 147z" />
<glyph unicode="&#xdb;" horiz-adv-x="745" d="M82 0zM461 848l-76 -65h-106v3l139 120h99l101 -120v-3h-103zM547 275l67 425h114l-66 -421q-23 -148 -107.5 -220t-217.5 -72q-124 0 -189.5 55.5t-65.5 167.5q0 31 6 69l67 421h114l-67 -424q-3 -14 -3.5 -26.5t-0.5 -26.5q0 -67 35.5 -103.5t110.5 -36.5q82 0 134 45 t69 147z" />
<glyph unicode="&#xdc;" horiz-adv-x="745" d="M82 0zM547 786q-59 0 -59 52q0 38 21 56.5t53 18.5q60 0 60 -53q0 -37 -20.5 -55.5t-54.5 -18.5zM361 786q-59 0 -59 52q0 39 21.5 57t53.5 18q59 0 59 -52q0 -38 -20 -56.5t-55 -18.5zM547 275l67 425h114l-66 -421q-23 -148 -107.5 -220t-217.5 -72q-124 0 -189.5 55.5 t-65.5 167.5q0 31 6 69l67 421h114l-67 -424q-3 -14 -3.5 -26.5t-0.5 -26.5q0 -67 35.5 -103.5t110.5 -36.5q82 0 134 45t69 147z" />
<glyph unicode="&#xdd;" horiz-adv-x="614" d="M67 0zM244 273l-177 427h122l128 -327l232 327h124l-315 -429l-43 -271h-114zM426 906h130l-1 -6l-134 -117h-93v4z" />
<glyph unicode="&#xde;" horiz-adv-x="659" d="M197 135l-20 -135h-116l111 700h116l-20 -122h166q104 0 154.5 -47t50.5 -130q0 -65 -20.5 -115t-56.5 -83.5t-86.5 -50.5t-110.5 -17h-168zM213 233h166q63 0 104.5 38t41.5 113q0 45 -25.5 70t-81.5 25h-165z" />
<glyph unicode="&#xdf;" horiz-adv-x="611" d="M353 329h-52l14 88h48q50 0 81 28.5t31 87.5q0 48 -28.5 71t-79.5 23q-60 0 -96.5 -33.5t-47.5 -102.5l-78 -491h-110l80 502q17 103 84 158.5t178 55.5q100 0 153 -45t53 -126q0 -62 -28 -104.5t-71 -65.5q47 -20 68.5 -57.5t21.5 -89.5q0 -54 -17.5 -97.5t-48.5 -74 t-73.5 -47.5t-91.5 -17q-35 0 -62.5 6t-54.5 19l29 84q32 -19 78 -19q60 0 97 36.5t37 105.5q0 22 -6 41t-19.5 33t-35 22.5t-53.5 8.5z" />
<glyph unicode="&#xe0;" horiz-adv-x="561" d="M33 0zM213 68q60 0 104.5 40t55.5 114v3h-107q-60 0 -94.5 -24t-34.5 -70q0 -63 76 -63zM174 -12q-63 0 -102 33t-39 96q0 39 15 72.5t44.5 58t74 38t103.5 13.5h115q3 18 3 31q0 50 -27 68t-78 18q-50 0 -87 -17t-63 -45l-45 66q38 42 91 62.5t126 20.5q43 0 78.5 -8 t61 -26t40 -47.5t14.5 -72.5q0 -11 -1 -23.5t-3 -26.5l-47 -299h-94l4 82q-30 -45 -77 -69.5t-107 -24.5zM280 573l-102 117l1 6h130l58 -119v-4h-87z" />
<glyph unicode="&#xe1;" horiz-adv-x="561" d="M33 0zM213 68q60 0 104.5 40t55.5 114v3h-107q-60 0 -94.5 -24t-34.5 -70q0 -63 76 -63zM174 -12q-63 0 -102 33t-39 96q0 39 15 72.5t44.5 58t74 38t103.5 13.5h115q3 18 3 31q0 50 -27 68t-78 18q-50 0 -87 -17t-63 -45l-45 66q38 42 91 62.5t126 20.5q43 0 78.5 -8 t61 -26t40 -47.5t14.5 -72.5q0 -11 -1 -23.5t-3 -26.5l-47 -299h-94l4 82q-30 -45 -77 -69.5t-107 -24.5zM365 696h130l-1 -6l-134 -117h-93v4z" />
<glyph unicode="&#xe2;" horiz-adv-x="561" d="M33 0zM213 68q60 0 104.5 40t55.5 114v3h-107q-60 0 -94.5 -24t-34.5 -70q0 -63 76 -63zM174 -12q-63 0 -102 33t-39 96q0 39 15 72.5t44.5 58t74 38t103.5 13.5h115q3 18 3 31q0 50 -27 68t-78 18q-50 0 -87 -17t-63 -45l-45 66q38 42 91 62.5t126 20.5q43 0 78.5 -8 t61 -26t40 -47.5t14.5 -72.5q0 -11 -1 -23.5t-3 -26.5l-47 -299h-94l4 82q-30 -45 -77 -69.5t-107 -24.5zM324 638l-76 -65h-106v3l139 120h99l101 -120v-3h-103z" />
<glyph unicode="&#xe3;" horiz-adv-x="561" d="M33 0zM213 68q60 0 104.5 40t55.5 114v3h-107q-60 0 -94.5 -24t-34.5 -70q0 -63 76 -63zM174 -12q-63 0 -102 33t-39 96q0 39 15 72.5t44.5 58t74 38t103.5 13.5h115q3 18 3 31q0 50 -27 68t-78 18q-50 0 -87 -17t-63 -45l-45 66q38 42 91 62.5t126 20.5q43 0 78.5 -8 t61 -26t40 -47.5t14.5 -72.5q0 -11 -1 -23.5t-3 -26.5l-47 -299h-94l4 82q-30 -45 -77 -69.5t-107 -24.5zM422 690h74q-2 -31 -12.5 -52t-26.5 -33.5t-34.5 -18t-35.5 -5.5q-21 0 -38 6t-31.5 13.5t-27.5 13.5t-26 6q-18 0 -25.5 -11t-9.5 -25h-75q3 31 13.5 52t25.5 33.5 t33 18t36 5.5q21 0 38 -6t32 -13.5t28.5 -13.5t26.5 -6q17 0 25 11t10 25z" />
<glyph unicode="&#xe4;" horiz-adv-x="561" d="M33 0zM213 68q60 0 104.5 40t55.5 114v3h-107q-60 0 -94.5 -24t-34.5 -70q0 -63 76 -63zM174 -12q-63 0 -102 33t-39 96q0 39 15 72.5t44.5 58t74 38t103.5 13.5h115q3 18 3 31q0 50 -27 68t-78 18q-50 0 -87 -17t-63 -45l-45 66q38 42 91 62.5t126 20.5q43 0 78.5 -8 t61 -26t40 -47.5t14.5 -72.5q0 -11 -1 -23.5t-3 -26.5l-47 -299h-94l4 82q-30 -45 -77 -69.5t-107 -24.5zM409 576q-59 0 -59 52q0 38 21 56.5t53 18.5q60 0 60 -53q0 -37 -20.5 -55.5t-54.5 -18.5zM223 576q-59 0 -59 52q0 39 21.5 57t53.5 18q59 0 59 -52q0 -38 -20 -56.5 t-55 -18.5z" />
<glyph unicode="&#xe5;" horiz-adv-x="561" d="M33 0zM213 68q60 0 104.5 40t55.5 114v3h-107q-60 0 -94.5 -24t-34.5 -70q0 -63 76 -63zM174 -12q-63 0 -102 33t-39 96q0 39 15 72.5t44.5 58t74 38t103.5 13.5h115q3 18 3 31q0 50 -27 68t-78 18q-50 0 -87 -17t-63 -45l-45 66q38 42 91 62.5t126 20.5q43 0 78.5 -8 t61 -26t40 -47.5t14.5 -72.5q0 -11 -1 -23.5t-3 -26.5l-47 -299h-94l4 82q-30 -45 -77 -69.5t-107 -24.5zM316 548q-39 0 -64.5 21.5t-25.5 61.5q0 25 8.5 45.5t24 35.5t36 23t44.5 8q41 0 65.5 -22.5t24.5 -60.5q0 -51 -32.5 -81.5t-80.5 -30.5zM336 695q-23 0 -39 -16.5 t-16 -43.5q0 -18 10.5 -29t27.5 -11q21 0 38 16.5t17 44.5q0 18 -10.5 28.5t-27.5 10.5z" />
<glyph unicode="&#xe6;" horiz-adv-x="876" d="M178 -12q-63 0 -103 32t-40 96q0 37 14 69.5t42.5 56.5t72.5 38t103 14h115q2 11 3 19.5t1 16.5q0 50 -27 68t-78 18t-87.5 -17t-62.5 -45l-43 66q37 42 90 62.5t126 20.5q59 0 100 -18t60 -61q67 79 187 79q48 0 82.5 -14t57 -38.5t33 -59t10.5 -76.5q0 -23 -3 -46 t-11 -49h-340q-2 -10 -2 -19v-17q0 -62 29.5 -88t85.5 -26q45 0 78 15t59 56l69 -46q-38 -56 -90 -82t-131 -26q-71 0 -118 26t-67 81q-32 -50 -86.5 -78t-128.5 -28zM214 68q61 0 101 37t54 115h-105q-60 0 -92 -22.5t-32 -65.5q0 -64 74 -64zM639 420q-52 0 -89 -30 t-56 -96h238q1 7 1.5 13.5t0.5 12.5q0 51 -24.5 75.5t-70.5 24.5z" />
<glyph unicode="&#xe7;" horiz-adv-x="526" d="M210 -239q-40 0 -71.5 16t-45.5 49l53 44q11 -23 26 -35.5t44 -12.5q23 0 39 10.5t16 31.5q0 22 -19.5 29.5t-46.5 6.5l-17 12l33 76q-86 8 -130 55.5t-44 139.5q0 14 1.5 29t3.5 32q20 132 88 195.5t180 63.5q84 0 129 -32.5t64 -92.5l-86 -44q-12 38 -37 59t-77 21 q-63 0 -101 -41t-52 -129q-2 -16 -3.5 -30.5t-1.5 -26.5q0 -61 26.5 -86.5t86.5 -25.5q42 0 74.5 15t58.5 56l73 -50q-33 -51 -79.5 -76.5t-105.5 -30.5l-23 -45q32 -3 55.5 -23t23.5 -56q0 -26 -11 -45.5t-29.5 -32.5t-43 -19.5t-51.5 -6.5z" />
<glyph unicode="&#xe8;" horiz-adv-x="547" d="M47 0zM251 -13q-97 0 -150.5 47.5t-53.5 149.5q0 14 1.5 28.5t3.5 31.5q17 126 87 192.5t186 66.5q48 0 82.5 -14t57 -39t33 -59.5t10.5 -75.5q0 -46 -14 -102h-340q-1 -8 -1 -15v-14q0 -61 28.5 -87t84.5 -26q46 0 79.5 14.5t60.5 54.5l68 -46q-38 -55 -90.5 -81 t-132.5 -26zM312 419q-54 0 -91.5 -30t-54.5 -101h238q1 7 1 13v15q1 54 -22.5 78.5t-70.5 24.5zM294 573l-102 117l1 6h130l58 -119v-4h-87z" />
<glyph unicode="&#xe9;" horiz-adv-x="547" d="M47 0zM379 696h130l-1 -6l-134 -117h-93v4zM251 -13q-97 0 -150.5 47.5t-53.5 149.5q0 14 1.5 28.5t3.5 31.5q17 126 87 192.5t186 66.5q48 0 82.5 -14t57 -39t33 -59.5t10.5 -75.5q0 -46 -14 -102h-340q-1 -8 -1 -15v-14q0 -61 28.5 -87t84.5 -26q46 0 79.5 14.5 t60.5 54.5l68 -46q-38 -55 -90.5 -81t-132.5 -26zM312 419q-54 0 -91.5 -30t-54.5 -101h238q1 7 1 13v15q1 54 -22.5 78.5t-70.5 24.5z" />
<glyph unicode="&#xea;" horiz-adv-x="547" d="M47 0zM340 638l-76 -65h-106v3l139 120h99l101 -120v-3h-103zM251 -13q-97 0 -150.5 47.5t-53.5 149.5q0 14 1.5 28.5t3.5 31.5q17 126 87 192.5t186 66.5q48 0 82.5 -14t57 -39t33 -59.5t10.5 -75.5q0 -46 -14 -102h-340q-1 -8 -1 -15v-14q0 -61 28.5 -87t84.5 -26 q46 0 79.5 14.5t60.5 54.5l68 -46q-38 -55 -90.5 -81t-132.5 -26zM312 419q-54 0 -91.5 -30t-54.5 -101h238q1 7 1 13v15q1 54 -22.5 78.5t-70.5 24.5z" />
<glyph unicode="&#xeb;" horiz-adv-x="547" d="M47 0zM426 576q-59 0 -59 52q0 38 21 56.5t53 18.5q60 0 60 -53q0 -37 -20.5 -55.5t-54.5 -18.5zM240 576q-59 0 -59 52q0 39 21.5 57t53.5 18q59 0 59 -52q0 -38 -20 -56.5t-55 -18.5zM251 -13q-97 0 -150.5 47.5t-53.5 149.5q0 14 1.5 28.5t3.5 31.5q17 126 87 192.5 t186 66.5q48 0 82.5 -14t57 -39t33 -59.5t10.5 -75.5q0 -46 -14 -102h-340q-1 -8 -1 -15v-14q0 -61 28.5 -87t84.5 -26q46 0 79.5 14.5t60.5 54.5l68 -46q-38 -55 -90.5 -81t-132.5 -26zM312 419q-54 0 -91.5 -30t-54.5 -101h238q1 7 1 13v15q1 54 -22.5 78.5t-70.5 24.5z " />
<glyph unicode="&#xec;" horiz-adv-x="279" d="M44 0zM122 491h110l-77 -491h-111zM150 573l-102 117l1 6h130l58 -119v-4h-87z" />
<glyph unicode="&#xed;" horiz-adv-x="279" d="M44 0zM235 696h130l-1 -6l-134 -117h-93v4zM122 491h110l-77 -491h-111z" />
<glyph unicode="&#xee;" horiz-adv-x="279" d="M15 0zM197 638l-76 -65h-106v3l139 120h99l101 -120v-3h-103zM122 491h110l-77 -491h-111z" />
<glyph unicode="&#xef;" horiz-adv-x="279" d="M37 0zM282 576q-59 0 -59 52q0 38 21 56.5t53 18.5q60 0 60 -53q0 -37 -20.5 -55.5t-54.5 -18.5zM96 576q-59 0 -59 52q0 39 21.5 57t53.5 18q59 0 59 -52q0 -38 -20 -56.5t-55 -18.5zM122 491h110l-77 -491h-111z" />
<glyph unicode="&#xf0;" horiz-adv-x="588" d="M547 723l24 -48l-82 -49q32 -48 44.5 -104t12.5 -119q0 -29 -2 -58.5t-6 -59.5q-19 -159 -90 -228.5t-188 -69.5q-104 0 -158.5 47.5t-54.5 150.5q0 14 1 27.5t3 29.5q17 131 86 192.5t182 61.5q83 0 128 -51q-4 38 -14 71t-30 59l-88 -52l-25 49l73 44q-22 17 -49.5 31 t-61.5 23l42 74q98 -20 158 -76zM426 240q2 16 3 31t1 26q0 61 -27 87.5t-84 26.5q-70 0 -109.5 -39.5t-52.5 -131.5q-2 -15 -3.5 -28.5t-1.5 -25.5q0 -60 28.5 -86.5t84.5 -26.5q66 0 106.5 39t54.5 128z" />
<glyph unicode="&#xf1;" horiz-adv-x="622" d="M44 0zM44 0l77 491h93l-3 -91q35 54 86 78.5t108 24.5q79 0 117 -40t38 -109q0 -22 -5 -50l-48 -304h-110l44 278q3 22 3 42q0 86 -88 86q-60 0 -105 -42.5t-58 -118.5l-39 -245h-110zM457 690h74q-2 -31 -12.5 -52t-26.5 -33.5t-34.5 -18t-35.5 -5.5q-21 0 -38 6 t-31.5 13.5t-27.5 13.5t-26 6q-18 0 -25.5 -11t-9.5 -25h-75q3 31 13.5 52t25.5 33.5t33 18t36 5.5q21 0 38 -6t32 -13.5t28.5 -13.5t26.5 -6q17 0 25 11t10 25z" />
<glyph unicode="&#xf2;" horiz-adv-x="585" d="M47 0zM52 246q18 134 89 195.5t186 61.5q106 0 158 -45.5t52 -145.5q0 -15 -1.5 -31.5t-3.5 -34.5q-17 -132 -87 -195.5t-188 -63.5q-103 0 -156.5 47t-53.5 149q0 14 1.5 30t3.5 33zM425 245q3 17 4 31.5t1 28.5q0 60 -27.5 85.5t-84.5 25.5q-70 0 -107.5 -38.5 t-51.5 -132.5q-2 -17 -3.5 -32t-1.5 -28q0 -60 27 -85.5t83 -25.5q67 0 106.5 39t54.5 132zM300 573l-102 117l1 6h130l58 -119v-4h-87z" />
<glyph unicode="&#xf3;" horiz-adv-x="585" d="M47 0zM385 696h130l-1 -6l-134 -117h-93v4zM52 246q18 134 89 195.5t186 61.5q106 0 158 -45.5t52 -145.5q0 -15 -1.5 -31.5t-3.5 -34.5q-17 -132 -87 -195.5t-188 -63.5q-103 0 -156.5 47t-53.5 149q0 14 1.5 30t3.5 33zM425 245q3 17 4 31.5t1 28.5q0 60 -27.5 85.5 t-84.5 25.5q-70 0 -107.5 -38.5t-51.5 -132.5q-2 -17 -3.5 -32t-1.5 -28q0 -60 27 -85.5t83 -25.5q67 0 106.5 39t54.5 132z" />
<glyph unicode="&#xf4;" horiz-adv-x="585" d="M47 0zM348 638l-76 -65h-106v3l139 120h99l101 -120v-3h-103zM52 246q18 134 89 195.5t186 61.5q106 0 158 -45.5t52 -145.5q0 -15 -1.5 -31.5t-3.5 -34.5q-17 -132 -87 -195.5t-188 -63.5q-103 0 -156.5 47t-53.5 149q0 14 1.5 30t3.5 33zM425 245q3 17 4 31.5t1 28.5 q0 60 -27.5 85.5t-84.5 25.5q-70 0 -107.5 -38.5t-51.5 -132.5q-2 -17 -3.5 -32t-1.5 -28q0 -60 27 -85.5t83 -25.5q67 0 106.5 39t54.5 132z" />
<glyph unicode="&#xf5;" horiz-adv-x="585" d="M47 0zM52 246q18 134 89 195.5t186 61.5q106 0 158 -45.5t52 -145.5q0 -15 -1.5 -31.5t-3.5 -34.5q-17 -132 -87 -195.5t-188 -63.5q-103 0 -156.5 47t-53.5 149q0 14 1.5 30t3.5 33zM425 245q3 17 4 31.5t1 28.5q0 60 -27.5 85.5t-84.5 25.5q-70 0 -107.5 -38.5 t-51.5 -132.5q-2 -17 -3.5 -32t-1.5 -28q0 -60 27 -85.5t83 -25.5q67 0 106.5 39t54.5 132zM442 690h74q-2 -31 -12.5 -52t-26.5 -33.5t-34.5 -18t-35.5 -5.5q-21 0 -38 6t-31.5 13.5t-27.5 13.5t-26 6q-18 0 -25.5 -11t-9.5 -25h-75q3 31 13.5 52t25.5 33.5t33 18t36 5.5 q21 0 38 -6t32 -13.5t28.5 -13.5t26.5 -6q17 0 25 11t10 25z" />
<glyph unicode="&#xf6;" horiz-adv-x="585" d="M47 0zM433 576q-59 0 -59 52q0 38 21 56.5t53 18.5q60 0 60 -53q0 -37 -20.5 -55.5t-54.5 -18.5zM247 576q-59 0 -59 52q0 39 21.5 57t53.5 18q59 0 59 -52q0 -38 -20 -56.5t-55 -18.5zM52 246q18 134 89 195.5t186 61.5q106 0 158 -45.5t52 -145.5q0 -15 -1.5 -31.5 t-3.5 -34.5q-17 -132 -87 -195.5t-188 -63.5q-103 0 -156.5 47t-53.5 149q0 14 1.5 30t3.5 33zM425 245q3 17 4 31.5t1 28.5q0 60 -27.5 85.5t-84.5 25.5q-70 0 -107.5 -38.5t-51.5 -132.5q-2 -17 -3.5 -32t-1.5 -28q0 -60 27 -85.5t83 -25.5q67 0 106.5 39t54.5 132z" />
<glyph unicode="&#xf7;" horiz-adv-x="505" d="M269 417q-27 0 -41 14t-14 38q0 38 21 55.5t50 17.5q26 0 41.5 -13.5t15.5 -38.5q0 -35 -20.5 -54t-52.5 -19zM457 349l-12 -79h-399l12 79h399zM216 79q-27 0 -41.5 14.5t-14.5 38.5q0 36 21 54.5t51 18.5q27 0 42 -14t15 -40q0 -34 -21 -53t-52 -19z" />
<glyph unicode="&#xf8;" horiz-adv-x="586" d="M524 491h90l-96 -86q20 -42 20 -99q0 -14 -1.5 -29t-3.5 -31q-17 -128 -87.5 -193.5t-188.5 -65.5q-100 0 -152 47l-37 -34h-89l90 81q-21 42 -21 103q0 14 1 29.5t3 32.5q18 128 88 192.5t187 64.5q103 0 156 -49zM321 419q-71 0 -110.5 -42t-54.5 -133q-2 -14 -3.5 -28 t-1.5 -26q0 -19 3 -32l254 229q-27 32 -87 32zM265 72q70 0 110 41t54 131q2 15 3 28.5t1 26.5v14q0 7 -2 14l-252 -227q28 -28 86 -28z" />
<glyph unicode="&#xf9;" horiz-adv-x="620" d="M62 0zM224 -13q-84 0 -123 41.5t-39 113.5q0 21 3 45l49 304h111l-45 -278q-2 -12 -2 -23v-20q0 -91 88 -91q61 0 103 41t56 121l39 250h111l-79 -491h-93l5 84q-35 -51 -83 -74t-101 -23zM320 573l-102 117l1 6h130l58 -119v-4h-87z" />
<glyph unicode="&#xfa;" horiz-adv-x="620" d="M62 0zM405 696h130l-1 -6l-134 -117h-93v4zM224 -13q-84 0 -123 41.5t-39 113.5q0 21 3 45l49 304h111l-45 -278q-2 -12 -2 -23v-20q0 -91 88 -91q61 0 103 41t56 121l39 250h111l-79 -491h-93l5 84q-35 -51 -83 -74t-101 -23z" />
<glyph unicode="&#xfb;" horiz-adv-x="620" d="M62 0zM367 638l-76 -65h-106v3l139 120h99l101 -120v-3h-103zM224 -13q-84 0 -123 41.5t-39 113.5q0 21 3 45l49 304h111l-45 -278q-2 -12 -2 -23v-20q0 -91 88 -91q61 0 103 41t56 121l39 250h111l-79 -491h-93l5 84q-35 -51 -83 -74t-101 -23z" />
<glyph unicode="&#xfc;" horiz-adv-x="620" d="M62 0zM452 576q-59 0 -59 52q0 38 21 56.5t53 18.5q60 0 60 -53q0 -37 -20.5 -55.5t-54.5 -18.5zM266 576q-59 0 -59 52q0 39 21.5 57t53.5 18q59 0 59 -52q0 -38 -20 -56.5t-55 -18.5zM224 -13q-84 0 -123 41.5t-39 113.5q0 21 3 45l49 304h111l-45 -278q-2 -12 -2 -23 v-20q0 -91 88 -91q61 0 103 41t56 121l39 250h111l-79 -491h-93l5 84q-35 -51 -83 -74t-101 -23z" />
<glyph unicode="&#xfd;" horiz-adv-x="521" d="M0 0zM135 -56l26 50l-118 497h114l78 -386l195 386h116l-320 -584q-40 -72 -90 -98t-111 -26q-24 0 -43.5 3.5t-40.5 11.5l27 87q16 -6 30 -9.5t34 -3.5q12 0 25 2.5t26 10t26.5 21.5t25.5 38zM356 696h130l-1 -6l-134 -117h-93v4z" />
<glyph unicode="&#xfe;" horiz-adv-x="613" d="M193 243q-2 -14 -3 -26.5t-1 -23.5q0 -63 30 -91.5t78 -28.5q66 0 103.5 42.5t51.5 128.5q3 17 4 30t1 28q0 59 -26.5 86.5t-76.5 27.5q-58 0 -102.5 -41t-58.5 -132zM267 700l-46 -284q63 87 176 87q83 0 125.5 -48t42.5 -142q0 -17 -1 -31t-4 -34q-17 -121 -80.5 -191 t-171.5 -70q-50 0 -86.5 19.5t-56.5 58.5l-39 -251h-111l141 886h111z" />
<glyph unicode="&#xff;" horiz-adv-x="521" d="M0 0zM135 -56l26 50l-118 497h114l78 -386l195 386h116l-320 -584q-40 -72 -90 -98t-111 -26q-24 0 -43.5 3.5t-40.5 11.5l27 87q16 -6 30 -9.5t34 -3.5q12 0 25 2.5t26 10t26.5 21.5t25.5 38zM403 576q-59 0 -59 52q0 38 21 56.5t53 18.5q60 0 60 -53q0 -37 -20.5 -55.5 t-54.5 -18.5zM217 576q-59 0 -59 52q0 39 21.5 57t53.5 18q59 0 59 -52q0 -38 -20 -56.5t-55 -18.5z" />
<glyph unicode="&#x100;" horiz-adv-x="647" d="M0 0zM378 590l-175 -366h237zM476 0l-21 131h-297l-63 -131h-116l347 700h141l126 -700h-117zM554 876l-12 -69h-262l11 69h263z" />
<glyph unicode="&#x101;" horiz-adv-x="561" d="M33 0zM213 68q60 0 104.5 40t55.5 114v3h-107q-60 0 -94.5 -24t-34.5 -70q0 -63 76 -63zM174 -12q-63 0 -102 33t-39 96q0 39 15 72.5t44.5 58t74 38t103.5 13.5h115q3 18 3 31q0 50 -27 68t-78 18q-50 0 -87 -17t-63 -45l-45 66q38 42 91 62.5t126 20.5q43 0 78.5 -8 t61 -26t40 -47.5t14.5 -72.5q0 -11 -1 -23.5t-3 -26.5l-47 -299h-94l4 82q-30 -45 -77 -69.5t-107 -24.5zM465 666l-12 -69h-262l11 69h263z" />
<glyph unicode="&#x102;" horiz-adv-x="647" d="M0 0zM378 590l-175 -366h237zM476 0l-21 131h-297l-63 -131h-116l347 700h141l126 -700h-117zM499 906h77q-5 -37 -19 -62t-35 -40t-50 -21t-64 -6t-62.5 6t-44.5 21t-24 40t-2 62h77q-7 -38 9 -51.5t53 -13.5t58 13.5t27 51.5z" />
<glyph unicode="&#x103;" horiz-adv-x="561" d="M33 0zM213 68q60 0 104.5 40t55.5 114v3h-107q-60 0 -94.5 -24t-34.5 -70q0 -63 76 -63zM174 -12q-63 0 -102 33t-39 96q0 39 15 72.5t44.5 58t74 38t103.5 13.5h115q3 18 3 31q0 50 -27 68t-78 18q-50 0 -87 -17t-63 -45l-45 66q38 42 91 62.5t126 20.5q43 0 78.5 -8 t61 -26t40 -47.5t14.5 -72.5q0 -11 -1 -23.5t-3 -26.5l-47 -299h-94l4 82q-30 -45 -77 -69.5t-107 -24.5zM405 696h77q-5 -37 -19 -62t-35 -40t-50 -21t-64 -6t-62.5 6t-44.5 21t-24 40t-2 62h77q-7 -38 9 -51.5t53 -13.5t58 13.5t27 51.5z" />
<glyph unicode="&#x104;" horiz-adv-x="647" d="M500 -218q-21 0 -41 4.5t-35.5 15.5t-25 30t-9.5 48q0 49 24.5 84t59.5 55l-18 112h-297l-63 -131h-116l347 700h141l126 -700h-30q-23 -2 -41.5 -12t-31.5 -24.5t-19.5 -32t-6.5 -34.5q0 -25 13.5 -34.5t36.5 -9.5q37 0 67 17l11 -64q-42 -24 -92 -24zM378 590 l-175 -366h237z" />
<glyph unicode="&#x105;" horiz-adv-x="561" d="M471 -194q-41 -24 -92 -24q-21 0 -41 4.5t-35.5 15.5t-25 30t-9.5 48q0 50 25.5 85t61.5 55l3 62q-30 -45 -77 -69.5t-107 -24.5q-63 0 -102 33t-39 96q0 39 15 72.5t44.5 58t74 38t103.5 13.5h115q3 18 3 31q0 50 -27 68t-78 18q-50 0 -87 -17t-63 -45l-45 66 q38 42 91 62.5t126 20.5q43 0 78.5 -8t61 -26t40 -47.5t14.5 -72.5q0 -11 -1 -23.5t-3 -26.5l-47 -299h-6q-24 -2 -42 -12t-30.5 -24.5t-19 -32t-6.5 -34.5q0 -25 13.5 -34.5t36.5 -9.5q17 0 34 4t32 13zM213 68q60 0 104.5 40t55.5 114v3h-107q-60 0 -94.5 -24t-34.5 -70 q0 -63 76 -63z" />
<glyph unicode="&#x106;" horiz-adv-x="685" d="M72 0zM511 907h130l-1 -6l-134 -117h-93v4zM352 -13q-141 0 -210.5 61.5t-69.5 201.5q0 26 1.5 49t5.5 52q13 97 44 166t77 112.5t107 63.5t135 20q106 0 164.5 -40t83.5 -119l-99 -46q-20 62 -57 86t-101 24q-44 0 -82 -12t-69 -42.5t-53 -82t-35 -130.5 q-4 -27 -6 -51.5t-2 -46.5q0 -49 11.5 -82t34 -53t54.5 -28.5t74 -8.5q59 0 108 21t87 80l79 -61q-25 -39 -55.5 -64.5t-66 -41t-76 -22t-84.5 -6.5z" />
<glyph unicode="&#x107;" horiz-adv-x="526" d="M47 0zM387 696h130l-1 -6l-134 -117h-93v4zM401 146l73 -50q-38 -59 -93.5 -84t-126.5 -25q-102 0 -154.5 48t-52.5 148q0 14 1.5 29t3.5 32q20 132 88 195.5t180 63.5q84 0 129 -32.5t64 -92.5l-86 -44q-12 38 -37 59t-77 21q-63 0 -101 -41t-52 -129q-2 -16 -3.5 -30.5 t-1.5 -26.5q0 -61 26.5 -86.5t86.5 -25.5q42 0 74.5 15t58.5 56z" />
<glyph unicode="&#x108;" horiz-adv-x="685" d="M72 0zM473 849l-76 -65h-106v3l139 120h99l101 -120v-3h-103zM352 -13q-141 0 -210.5 61.5t-69.5 201.5q0 26 1.5 49t5.5 52q13 97 44 166t77 112.5t107 63.5t135 20q106 0 164.5 -40t83.5 -119l-99 -46q-20 62 -57 86t-101 24q-44 0 -82 -12t-69 -42.5t-53 -82 t-35 -130.5q-4 -27 -6 -51.5t-2 -46.5q0 -49 11.5 -82t34 -53t54.5 -28.5t74 -8.5q59 0 108 21t87 80l79 -61q-25 -39 -55.5 -64.5t-66 -41t-76 -22t-84.5 -6.5z" />
<glyph unicode="&#x109;" horiz-adv-x="526" d="M47 0zM348 638l-76 -65h-106v3l139 120h99l101 -120v-3h-103zM401 146l73 -50q-38 -59 -93.5 -84t-126.5 -25q-102 0 -154.5 48t-52.5 148q0 14 1.5 29t3.5 32q20 132 88 195.5t180 63.5q84 0 129 -32.5t64 -92.5l-86 -44q-12 38 -37 59t-77 21q-63 0 -101 -41t-52 -129 q-2 -16 -3.5 -30.5t-1.5 -26.5q0 -61 26.5 -86.5t86.5 -25.5q42 0 74.5 15t58.5 56z" />
<glyph unicode="&#x10a;" horiz-adv-x="685" d="M72 0zM352 -13q-141 0 -210.5 61.5t-69.5 201.5q0 26 1.5 49t5.5 52q13 97 44 166t77 112.5t107 63.5t135 20q106 0 164.5 -40t83.5 -119l-99 -46q-20 62 -57 86t-101 24q-44 0 -82 -12t-69 -42.5t-53 -82t-35 -130.5q-4 -27 -6 -51.5t-2 -46.5q0 -49 11.5 -82t34 -53 t54.5 -28.5t74 -8.5q59 0 108 21t87 80l79 -61q-25 -39 -55.5 -64.5t-66 -41t-76 -22t-84.5 -6.5zM466 787q-60 0 -60 53q0 39 22 56.5t54 17.5q61 0 61 -54q0 -36 -21.5 -54.5t-55.5 -18.5z" />
<glyph unicode="&#x10b;" horiz-adv-x="526" d="M47 0zM401 146l73 -50q-38 -59 -93.5 -84t-126.5 -25q-102 0 -154.5 48t-52.5 148q0 14 1.5 29t3.5 32q20 132 88 195.5t180 63.5q84 0 129 -32.5t64 -92.5l-86 -44q-12 38 -37 59t-77 21q-63 0 -101 -41t-52 -129q-2 -16 -3.5 -30.5t-1.5 -26.5q0 -61 26.5 -86.5 t86.5 -25.5q42 0 74.5 15t58.5 56zM342 576q-60 0 -60 53q0 39 22 56.5t54 17.5q61 0 61 -54q0 -36 -21.5 -54.5t-55.5 -18.5z" />
<glyph unicode="&#x10c;" horiz-adv-x="685" d="M72 0zM417 784l-102 121l1 2h104l52 -63l76 63h106v-2l-139 -121h-98zM352 -13q-141 0 -210.5 61.5t-69.5 201.5q0 26 1.5 49t5.5 52q13 97 44 166t77 112.5t107 63.5t135 20q106 0 164.5 -40t83.5 -119l-99 -46q-20 62 -57 86t-101 24q-44 0 -82 -12t-69 -42.5t-53 -82 t-35 -130.5q-4 -27 -6 -51.5t-2 -46.5q0 -49 11.5 -82t34 -53t54.5 -28.5t74 -8.5q59 0 108 21t87 80l79 -61q-25 -39 -55.5 -64.5t-66 -41t-76 -22t-84.5 -6.5z" />
<glyph unicode="&#x10d;" horiz-adv-x="526" d="M47 0zM292 573l-102 121l1 2h104l52 -63l76 63h106v-2l-139 -121h-98zM401 146l73 -50q-38 -59 -93.5 -84t-126.5 -25q-102 0 -154.5 48t-52.5 148q0 14 1.5 29t3.5 32q20 132 88 195.5t180 63.5q84 0 129 -32.5t64 -92.5l-86 -44q-12 38 -37 59t-77 21q-63 0 -101 -41 t-52 -129q-2 -16 -3.5 -30.5t-1.5 -26.5q0 -61 26.5 -86.5t86.5 -25.5q42 0 74.5 15t58.5 56z" />
<glyph unicode="&#x10e;" horiz-adv-x="741" d="M60 0zM411 783l-102 121l1 2h104l52 -63l76 63h106v-2l-139 -121h-98zM331 0h-271l129 700h250q132 0 196 -59t64 -187q0 -19 -2 -46.5t-6 -53.5q-27 -183 -118 -268.5t-242 -85.5zM189 97h148q43 0 81.5 12t69.5 41.5t53.5 78t34.5 121.5q3 20 5 44t2 43q0 90 -40.5 128 t-115.5 38h-157z" />
<glyph unicode="&#x10f;" horiz-adv-x="695" d="M47 0zM705 465h-75l43 235h102zM419 246q2 14 3 27t1 24q0 63 -30 91t-79 28q-63 0 -100.5 -41t-53.5 -131q-3 -20 -4 -30.5t-1 -23.5q0 -115 104 -115q58 0 102 40.5t58 130.5zM488 0h-96l6 78q-62 -91 -179 -91q-83 0 -127.5 49t-44.5 143q0 15 1.5 31.5t3.5 33.5 q17 128 82 193.5t167 65.5q51 0 87.5 -19.5t56.5 -57.5l44 274h110z" />
<glyph unicode="&#x110;" horiz-adv-x="751" d="M342 0h-272l49 310h-77l15 90h76l48 300h268q131 0 195 -59t64 -187q0 -20 -2 -47.5t-6 -52.5q-27 -183 -118 -268.5t-240 -85.5zM199 97h148q43 0 81.5 12t69.5 41t53.5 77.5t33.5 121.5q3 20 5.5 44t2.5 43q0 90 -41 128.5t-115 38.5h-157l-33 -203h145l-15 -90h-145z " />
<glyph unicode="&#x111;" horiz-adv-x="628" d="M418 246q2 14 3 26.5t1 23.5q0 63 -30 90.5t-78 27.5q-64 0 -103 -41t-53 -129q-2 -14 -3 -27t-1 -27q0 -115 104 -115q58 0 102 40.5t58 130.5zM648 553h-71l-88 -553h-97l6 79q-63 -92 -180 -92q-83 0 -127 48.5t-44 142.5q0 16 1.5 32t3.5 33q17 128 82 193t166 65 q51 0 88 -20t56 -59l21 131h-144l11 67h144l13 80h111l-13 -80h72z" />
<glyph unicode="&#x112;" horiz-adv-x="663" d="M60 0zM60 0l111 700h507l-15 -96h-396l-32 -203h345l-15 -97h-345l-33 -208h405l-15 -96h-517zM582 876l-12 -69h-262l11 69h263z" />
<glyph unicode="&#x113;" horiz-adv-x="547" d="M47 0zM251 -13q-97 0 -150.5 47.5t-53.5 149.5q0 14 1.5 28.5t3.5 31.5q17 126 87 192.5t186 66.5q48 0 82.5 -14t57 -39t33 -59.5t10.5 -75.5q0 -46 -14 -102h-340q-1 -8 -1 -15v-14q0 -61 28.5 -87t84.5 -26q46 0 79.5 14.5t60.5 54.5l68 -46q-38 -55 -90.5 -81 t-132.5 -26zM312 419q-54 0 -91.5 -30t-54.5 -101h238q1 7 1 13v15q1 54 -22.5 78.5t-70.5 24.5zM479 666l-12 -69h-262l11 69h263z" />
<glyph unicode="&#x114;" horiz-adv-x="663" d="M60 0zM60 0l111 700h507l-15 -96h-396l-32 -203h345l-15 -97h-345l-33 -208h405l-15 -96h-517zM525 906h77q-5 -37 -19 -62t-35 -40t-50 -21t-64 -6t-62.5 6t-44.5 21t-24 40t-2 62h77q-7 -38 9 -51.5t53 -13.5t58 13.5t27 51.5z" />
<glyph unicode="&#x115;" horiz-adv-x="547" d="M47 0zM251 -13q-97 0 -150.5 47.5t-53.5 149.5q0 14 1.5 28.5t3.5 31.5q17 126 87 192.5t186 66.5q48 0 82.5 -14t57 -39t33 -59.5t10.5 -75.5q0 -46 -14 -102h-340q-1 -8 -1 -15v-14q0 -61 28.5 -87t84.5 -26q46 0 79.5 14.5t60.5 54.5l68 -46q-38 -55 -90.5 -81 t-132.5 -26zM312 419q-54 0 -91.5 -30t-54.5 -101h238q1 7 1 13v15q1 54 -22.5 78.5t-70.5 24.5zM422 696h77q-5 -37 -19 -62t-35 -40t-50 -21t-64 -6t-62.5 6t-44.5 21t-24 40t-2 62h77q-7 -38 9 -51.5t53 -13.5t58 13.5t27 51.5z" />
<glyph unicode="&#x116;" horiz-adv-x="663" d="M60 0zM60 0l111 700h507l-15 -96h-396l-32 -203h345l-15 -97h-345l-33 -208h405l-15 -96h-517zM436 786q-60 0 -60 53q0 39 22 56.5t54 17.5q61 0 61 -54q0 -36 -21.5 -54.5t-55.5 -18.5z" />
<glyph unicode="&#x117;" horiz-adv-x="547" d="M47 0zM251 -13q-97 0 -150.5 47.5t-53.5 149.5q0 14 1.5 28.5t3.5 31.5q17 126 87 192.5t186 66.5q48 0 82.5 -14t57 -39t33 -59.5t10.5 -75.5q0 -46 -14 -102h-340q-1 -8 -1 -15v-14q0 -61 28.5 -87t84.5 -26q46 0 79.5 14.5t60.5 54.5l68 -46q-38 -55 -90.5 -81 t-132.5 -26zM312 419q-54 0 -91.5 -30t-54.5 -101h238q1 7 1 13v15q1 54 -22.5 78.5t-70.5 24.5zM334 576q-60 0 -60 53q0 39 22 56.5t54 17.5q61 0 61 -54q0 -36 -21.5 -54.5t-55.5 -18.5z" />
<glyph unicode="&#x118;" horiz-adv-x="663" d="M60 0l111 700h508l-15 -95h-394l-32 -204h343l-15 -97h-344l-32 -209h403l-15 -95q-24 -2 -42 -12t-31 -24.5t-19.5 -32t-6.5 -34.5q0 -25 13.5 -34.5t36.5 -9.5q17 0 34.5 4t32.5 13l10 -64q-41 -24 -91 -24q-21 0 -41 4.5t-35.5 15.5t-25 30t-9.5 48q0 39 16 69.5 t42 50.5h-402z" />
<glyph unicode="&#x119;" horiz-adv-x="547" d="M291 -218q-21 0 -41 4.5t-35.5 15.5t-25 30t-9.5 48q0 34 12 61t32 48q-85 5 -131 53t-46 142q0 14 1.5 28.5t3.5 31.5q17 126 87 192.5t186 66.5q48 0 82.5 -14t57 -39t33 -59.5t10.5 -75.5q0 -46 -14 -102h-340q-1 -8 -1 -16v-13q0 -61 28.5 -87t84.5 -26 q46 0 79.5 14.5t60.5 54.5l68 -46q-29 -42 -65.5 -66.5t-87.5 -33.5q-32 -13 -49 -41t-17 -56q0 -25 13.5 -34.5t36.5 -9.5q17 0 34 4t32 13l12 -64q-42 -24 -92 -24zM312 419q-55 0 -92 -30t-54 -101h238q0 7 0.5 14t0.5 14q1 54 -22.5 78.5t-70.5 24.5z" />
<glyph unicode="&#x11a;" horiz-adv-x="663" d="M60 0zM388 783l-102 121l1 2h104l52 -63l76 63h106v-2l-139 -121h-98zM60 0l111 700h507l-15 -96h-396l-32 -203h345l-15 -97h-345l-33 -208h405l-15 -96h-517z" />
<glyph unicode="&#x11b;" horiz-adv-x="546" d="M47 0zM286 573l-102 121l1 2h104l52 -63l76 63h106v-2l-139 -121h-98zM251 -13q-97 0 -150.5 47.5t-53.5 149.5q0 14 1.5 28.5t3.5 31.5q17 126 87 192.5t186 66.5q48 0 82.5 -14t57 -39t33 -59.5t10.5 -75.5q0 -46 -14 -102h-340q-1 -8 -1 -15v-14q0 -61 28.5 -87 t84.5 -26q46 0 79.5 14.5t60.5 54.5l68 -46q-38 -55 -90.5 -81t-132.5 -26zM312 419q-54 0 -91.5 -30t-54.5 -101h238q1 7 1 13v15q1 54 -22.5 78.5t-70.5 24.5z" />
<glyph unicode="&#x11c;" horiz-adv-x="729" d="M72 0zM464 848l-76 -65h-106v3l139 120h99l101 -120v-3h-103zM326 -13q-125 0 -189.5 65.5t-64.5 203.5q0 23 1.5 46t5.5 49q13 96 42 165t74.5 112.5t107.5 64t141 20.5q103 0 160 -36.5t82 -109.5l-99 -47q-18 54 -53.5 76t-98.5 22q-47 0 -86 -12.5t-69.5 -43t-52 -82 t-33.5 -129.5q-5 -28 -6.5 -52t-1.5 -44q0 -50 11 -83.5t32.5 -53.5t52.5 -29t70 -9q30 0 62 8t60 30t50.5 59t33.5 96h-171l13 89h276l-58 -362h-88l8 94q-35 -51 -89 -79t-123 -28z" />
<glyph unicode="&#x11d;" horiz-adv-x="608" d="M6 0zM339 638l-76 -65h-106v3l139 120h99l101 -120v-3h-103zM416 255q2 12 3 23.5t1 22.5q0 61 -30.5 88.5t-78.5 27.5q-64 0 -101.5 -39t-50.5 -124q-2 -15 -3.5 -27.5t-1.5 -25.5q0 -58 26.5 -84.5t77.5 -26.5q58 0 101 38.5t57 126.5zM562 491l-75 -475 q-9 -59 -34 -103t-62 -73t-84.5 -43.5t-102.5 -14.5q-72 0 -123.5 25t-74.5 88l77 56q17 -46 48.5 -64.5t78.5 -18.5q66 0 110 33t56 109l12 76q-59 -83 -168 -83q-83 0 -128 47.5t-45 142.5q0 14 1 28.5t3 31.5q17 124 79.5 187t161.5 63q59 0 100 -22.5t59 -68.5l21 79h90 z" />
<glyph unicode="&#x11e;" horiz-adv-x="729" d="M72 0zM326 -13q-125 0 -189.5 65.5t-64.5 203.5q0 23 1.5 46t5.5 49q13 96 42 165t74.5 112.5t107.5 64t141 20.5q103 0 160 -36.5t82 -109.5l-99 -47q-18 54 -53.5 76t-98.5 22q-47 0 -86 -12.5t-69.5 -43t-52 -82t-33.5 -129.5q-5 -28 -6.5 -52t-1.5 -44 q0 -50 11 -83.5t32.5 -53.5t52.5 -29t70 -9q30 0 62 8t60 30t50.5 59t33.5 96h-171l13 89h276l-58 -362h-88l8 94q-35 -51 -89 -79t-123 -28zM546 906h77q-5 -37 -19 -62t-35 -40t-50 -21t-64 -6t-62.5 6t-44.5 21t-24 40t-2 62h77q-7 -38 9 -51.5t53 -13.5t58 13.5t27 51.5 z" />
<glyph unicode="&#x11f;" horiz-adv-x="608" d="M6 0zM416 255q2 12 3 23.5t1 22.5q0 61 -30.5 88.5t-78.5 27.5q-64 0 -101.5 -39t-50.5 -124q-2 -15 -3.5 -27.5t-1.5 -25.5q0 -58 26.5 -84.5t77.5 -26.5q58 0 101 38.5t57 126.5zM562 491l-75 -475q-9 -59 -34 -103t-62 -73t-84.5 -43.5t-102.5 -14.5q-72 0 -123.5 25 t-74.5 88l77 56q17 -46 48.5 -64.5t78.5 -18.5q66 0 110 33t56 109l12 76q-59 -83 -168 -83q-83 0 -128 47.5t-45 142.5q0 14 1 28.5t3 31.5q17 124 79.5 187t161.5 63q59 0 100 -22.5t59 -68.5l21 79h90zM420 696h77q-5 -37 -19 -62t-35 -40t-50 -21t-64 -6t-62.5 6 t-44.5 21t-24 40t-2 62h77q-7 -38 9 -51.5t53 -13.5t58 13.5t27 51.5z" />
<glyph unicode="&#x120;" horiz-adv-x="729" d="M72 0zM326 -13q-125 0 -189.5 65.5t-64.5 203.5q0 23 1.5 46t5.5 49q13 96 42 165t74.5 112.5t107.5 64t141 20.5q103 0 160 -36.5t82 -109.5l-99 -47q-18 54 -53.5 76t-98.5 22q-47 0 -86 -12.5t-69.5 -43t-52 -82t-33.5 -129.5q-5 -28 -6.5 -52t-1.5 -44 q0 -50 11 -83.5t32.5 -53.5t52.5 -29t70 -9q30 0 62 8t60 30t50.5 59t33.5 96h-171l13 89h276l-58 -362h-88l8 94q-35 -51 -89 -79t-123 -28zM458 786q-60 0 -60 53q0 39 22 56.5t54 17.5q61 0 61 -54q0 -36 -21.5 -54.5t-55.5 -18.5z" />
<glyph unicode="&#x121;" horiz-adv-x="608" d="M6 0zM416 255q2 12 3 23.5t1 22.5q0 61 -30.5 88.5t-78.5 27.5q-64 0 -101.5 -39t-50.5 -124q-2 -15 -3.5 -27.5t-1.5 -25.5q0 -58 26.5 -84.5t77.5 -26.5q58 0 101 38.5t57 126.5zM562 491l-75 -475q-9 -59 -34 -103t-62 -73t-84.5 -43.5t-102.5 -14.5q-72 0 -123.5 25 t-74.5 88l77 56q17 -46 48.5 -64.5t78.5 -18.5q66 0 110 33t56 109l12 76q-59 -83 -168 -83q-83 0 -128 47.5t-45 142.5q0 14 1 28.5t3 31.5q17 124 79.5 187t161.5 63q59 0 100 -22.5t59 -68.5l21 79h90zM332 576q-60 0 -60 53q0 39 22 56.5t54 17.5q61 0 61 -54 q0 -36 -21.5 -54.5t-55.5 -18.5z" />
<glyph unicode="&#x122;" horiz-adv-x="729" d="M72 0zM259 -301l-13 45q26 8 45 27t27 47q-30 -1 -46 12.5t-16 39.5q0 35 20.5 52t51.5 17q28 0 44 -15t16 -49q0 -30 -9.5 -59t-26.5 -53t-40.5 -41t-52.5 -23zM326 -13q-125 0 -189.5 65.5t-64.5 203.5q0 23 1.5 46t5.5 49q13 96 42 165t74.5 112.5t107.5 64t141 20.5 q103 0 160 -36.5t82 -109.5l-99 -47q-18 54 -53.5 76t-98.5 22q-47 0 -86 -12.5t-69.5 -43t-52 -82t-33.5 -129.5q-5 -28 -6.5 -52t-1.5 -44q0 -50 11 -83.5t32.5 -53.5t52.5 -29t70 -9q30 0 62 8t60 30t50.5 59t33.5 96h-171l13 89h276l-58 -362h-88l8 94q-35 -51 -89 -79 t-123 -28z" />
<glyph unicode="&#x123;" horiz-adv-x="608" d="M401 804l13 -45q-26 -8 -45 -27t-27 -47q30 1 46 -12.5t16 -39.5q0 -35 -20.5 -52t-51.5 -17q-28 0 -44 15t-16 49q0 30 9.5 59t26.5 53t40.5 41t52.5 23zM416 255q2 12 3 23.5t1 22.5q0 61 -30.5 88.5t-78.5 27.5q-64 0 -101.5 -39t-50.5 -124q-2 -15 -3.5 -27.5 t-1.5 -25.5q0 -58 26.5 -84.5t77.5 -26.5q58 0 101 38.5t57 126.5zM562 491l-75 -475q-9 -59 -34 -103t-62 -73t-84.5 -43.5t-102.5 -14.5q-72 0 -123.5 25t-74.5 88l77 56q17 -46 48.5 -64.5t78.5 -18.5q66 0 110 33t56 109l12 76q-59 -83 -168 -83q-83 0 -128 47.5 t-45 142.5q0 14 1 28.5t3 31.5q17 124 79.5 187t161.5 63q59 0 100 -22.5t59 -68.5l21 79h90z" />
<glyph unicode="&#x124;" horiz-adv-x="786" d="M60 0zM483 848l-76 -65h-106v3l139 120h99l101 -120v-3h-103zM528 0l48 301h-354l-48 -301h-114l111 700h114l-47 -298h354l47 298h115l-111 -700h-115z" />
<glyph unicode="&#x125;" horiz-adv-x="621" d="M43 0zM226 813l-76 -65h-106v3l139 120h99l101 -120v-3h-103zM264 700l-49 -302q35 55 85 80t106 25q78 0 115.5 -40t37.5 -109q0 -22 -5 -50l-48 -304h-110l44 278q3 22 3 42q0 86 -88 86q-60 0 -105 -43.5t-59 -124.5l-38 -238h-110l111 700h110z" />
<glyph unicode="&#x126;" horiz-adv-x="806" d="M248 402h354l14 92h-354zM91 564h68l22 136h114l-22 -136h354l22 136h115l-22 -136h70l-11 -70h-70l-78 -494h-115l48 301h-354l-48 -301h-114l78 494h-68z" />
<glyph unicode="&#x127;" horiz-adv-x="636" d="M73 553l10 67h73l13 80h111l-13 -80h143l-9 -67h-145l-24 -156q35 55 84.5 79.5t104.5 24.5q75 0 114 -38.5t39 -110.5q0 -12 -1 -24.5t-3 -26.5l-48 -301h-111l44 275q3 22 3 42q0 45 -22 66t-66 21q-61 0 -105 -44t-58 -124l-38 -236h-111l87 553h-72z" />
<glyph unicode="&#x128;" horiz-adv-x="318" d="M60 0zM60 0l111 700h114l-111 -700h-114zM344 900h74q-2 -31 -12.5 -52t-26.5 -33.5t-34.5 -18t-35.5 -5.5q-21 0 -38 6t-31.5 13.5t-27.5 13.5t-26 6q-18 0 -25.5 -11t-9.5 -25h-75q3 31 13.5 52t25.5 33.5t33 18t36 5.5q21 0 38 -6t32 -13.5t28.5 -13.5t26.5 -6 q17 0 25 11t10 25z" />
<glyph unicode="&#x129;" horiz-adv-x="279" d="M24 0zM122 491h110l-77 -491h-111zM292 690h74q-2 -31 -12.5 -52t-26.5 -33.5t-34.5 -18t-35.5 -5.5q-21 0 -38 6t-31.5 13.5t-27.5 13.5t-26 6q-18 0 -25.5 -11t-9.5 -25h-75q3 31 13.5 52t25.5 33.5t33 18t36 5.5q21 0 38 -6t32 -13.5t28.5 -13.5t26.5 -6q17 0 25 11 t10 25z" />
<glyph unicode="&#x12a;" horiz-adv-x="318" d="M60 0zM60 0l111 700h114l-111 -700h-114zM387 876l-12 -69h-262l11 69h263z" />
<glyph unicode="&#x12b;" horiz-adv-x="279" d="M44 0zM122 491h110l-77 -491h-111zM335 666l-12 -69h-262l11 69h263z" />
<glyph unicode="&#x12c;" horiz-adv-x="318" d="M60 0zM60 0l111 700h114l-111 -700h-114zM331 906h77q-5 -37 -19 -62t-35 -40t-50 -21t-64 -6t-62.5 6t-44.5 21t-24 40t-2 62h77q-7 -38 9 -51.5t53 -13.5t58 13.5t27 51.5z" />
<glyph unicode="&#x12d;" horiz-adv-x="279" d="M44 0zM122 491h110l-77 -491h-111zM278 696h77q-5 -37 -19 -62t-35 -40t-50 -21t-64 -6t-62.5 6t-44.5 21t-24 40t-2 62h77q-7 -38 9 -51.5t53 -13.5t58 13.5t27 51.5z" />
<glyph unicode="&#x12e;" horiz-adv-x="318" d="M66 -218q-21 0 -41.5 4.5t-36 15.5t-25 30t-9.5 48q0 28 9.5 52t25 43t35 32t40.5 20l107 673h115l-111 -700h-47q-23 -2 -41.5 -12t-31 -24.5t-19 -32t-6.5 -34.5q0 -25 13.5 -34.5t37.5 -9.5q36 0 66 17l10 -64q-41 -24 -91 -24z" />
<glyph unicode="&#x12f;" horiz-adv-x="279" d="M192 574q-63 0 -63 55q0 38 22 57t57 19q29 0 45.5 -14t16.5 -42q0 -38 -21.5 -56.5t-56.5 -18.5zM39 -218q-21 0 -41 4.5t-35.5 15.5t-25 30t-9.5 48q0 31 10.5 56t27.5 44.5t39.5 33t45.5 20.5l71 457h111l-77 -491h-54q-23 -2 -41.5 -12t-31 -24.5t-19 -32t-6.5 -34.5 q0 -25 13.5 -34.5t37.5 -9.5q36 0 66 17l10 -64q-41 -24 -92 -24z" />
<glyph unicode="&#x130;" horiz-adv-x="318" d="M60 0zM60 0l111 700h114l-111 -700h-114zM243 786q-60 0 -60 53q0 39 22 56.5t54 17.5q61 0 61 -54q0 -36 -21.5 -54.5t-55.5 -18.5z" />
<glyph unicode="&#x131;" horiz-adv-x="279" d="M122 491h110l-77 -491h-111z" />
<glyph unicode="&#x132;" horiz-adv-x="833" d="M60 0zM60 0l111 700h114l-111 -700h-114zM295 40l61 87q23 -21 53 -32t62 -11q61 0 103.5 41t56.5 137l70 438h114l-69 -439q-13 -79 -39 -131.5t-63 -84t-84 -45t-101 -13.5q-45 0 -88 13t-76 40z" />
<glyph unicode="&#x133;" horiz-adv-x="558" d="M44 0zM192 574q-63 0 -63 55q0 39 22 58t57 19q62 0 62 -56q0 -39 -21.5 -57.5t-56.5 -18.5zM122 491h110l-77 -491h-111zM470 574q-62 0 -62 55q0 39 22 58t57 19q29 0 45.5 -14.5t16.5 -41.5q0 -39 -22 -57.5t-57 -18.5zM319 -28l83 519h109l-83 -529 q-15 -93 -66 -136.5t-125 -43.5q-23 0 -42.5 3.5t-42.5 12.5l30 85q12 -5 23.5 -8t28.5 -3q16 0 29.5 4.5t24.5 16t18.5 31t12.5 48.5z" />
<glyph unicode="&#x134;" horiz-adv-x="515" d="M0 0zM460 848l-76 -65h-106v3l139 120h99l101 -120v-3h-103zM-23 40l61 87q23 -21 53 -32t62 -11q61 0 103.5 41t56.5 137l70 438h114l-69 -439q-13 -79 -39 -131.5t-63 -84t-84 -45t-101 -13.5q-45 0 -88 13t-76 40z" />
<glyph unicode="&#x135;" horiz-adv-x="277" d="M0 0zM41 -28l83 519h109l-83 -529q-15 -93 -66 -136.5t-125 -43.5q-23 0 -42.5 3.5t-42.5 12.5l30 85q12 -5 23.5 -8t28.5 -3q16 0 29.5 4.5t24.5 16t18.5 31t12.5 48.5zM196 638l-76 -65h-106v3l139 120h99l101 -120v-3h-103z" />
<glyph unicode="&#x136;" horiz-adv-x="660" d="M60 0zM240 -301l-13 45q26 8 45 27t27 47q-30 -1 -46 12.5t-16 39.5q0 35 20.5 52t51.5 17q28 0 44 -15t16 -49q0 -30 -9.5 -59t-26.5 -53t-40.5 -41t-52.5 -23zM60 0l111 700h114l-57 -362l347 362h137l-308 -316l204 -384h-136l-157 301l-110 -111l-31 -190h-114z" />
<glyph unicode="&#x137;" horiz-adv-x="535" d="M44 0zM178 -301l-13 45q26 8 45 27t27 47q-30 -1 -46 12.5t-16 39.5q0 35 20.5 52t51.5 17q28 0 44 -15t16 -49q0 -30 -9.5 -59t-26.5 -53t-40.5 -41t-52.5 -23zM266 700l-76 -460l249 251h128l-225 -219l150 -272h-125l-107 199l-89 -84l-17 -115h-110l111 700h111z" />
<glyph unicode="&#x138;" horiz-adv-x="543" d="M233 491l-40 -249l248 249h128l-226 -219l150 -272h-125l-108 197l-86 -80l-19 -117h-110l78 491h110z" />
<glyph unicode="&#x139;" horiz-adv-x="623" d="M59 0zM276 906h130l-1 -6l-134 -117h-93v4zM189 98h383l-16 -98h-497l111 700h114z" />
<glyph unicode="&#x13a;" horiz-adv-x="284" d="M48 0zM264 906h130l-1 -6l-134 -117h-93v4zM164 0q-58 0 -87 27.5t-18 96.5l91 576h111l-89 -567q-4 -24 5 -35t35 -11h40l-13 -87h-75z" />
<glyph unicode="&#x13b;" horiz-adv-x="623" d="M59 0zM238 -301l-13 45q26 8 45 27t27 47q-30 -1 -46 12.5t-16 39.5q0 35 20.5 52t51.5 17q28 0 44 -15t16 -49q0 -30 -9.5 -59t-26.5 -53t-40.5 -41t-52.5 -23zM189 98h383l-16 -98h-497l111 700h114z" />
<glyph unicode="&#x13c;" horiz-adv-x="284" d="M48 0zM164 0q-58 0 -87 27.5t-18 96.5l91 576h111l-89 -567q-4 -24 5 -35t35 -11h40l-13 -87h-75zM65 -301l-13 45q26 8 45 27t27 47q-30 -1 -46 12.5t-16 39.5q0 35 20.5 52t51.5 17q28 0 44 -15t16 -49q0 -30 -9.5 -59t-26.5 -53t-40.5 -41t-52.5 -23z" />
<glyph unicode="&#x13d;" horiz-adv-x="623" d="M59 0zM499 466h-75l43 235h102zM189 98h383l-16 -98h-497l111 700h114z" />
<glyph unicode="&#x13e;" horiz-adv-x="362" d="M48 0zM372 465h-75l43 235h102zM164 0q-58 0 -87 27.5t-18 96.5l91 576h111l-89 -567q-4 -24 5 -35t35 -11h40l-13 -87h-75z" />
<glyph unicode="&#x13f;" horiz-adv-x="621" d="M59 0zM189 98h383l-16 -98h-497l111 700h114zM460 296q-60 0 -60 53q0 39 22 56.5t54 17.5q61 0 61 -54q0 -36 -21.5 -54.5t-55.5 -18.5z" />
<glyph unicode="&#x140;" horiz-adv-x="391" d="M48 0zM164 0q-58 0 -87 27.5t-18 96.5l91 576h111l-89 -567q-4 -24 5 -35t35 -11h40l-13 -87h-75zM325 241q-60 0 -60 53q0 39 22 56.5t54 17.5q61 0 61 -54q0 -36 -21.5 -54.5t-55.5 -18.5z" />
<glyph unicode="&#x141;" horiz-adv-x="640" d="M209 98h382l-16 -98h-497l38 239l-106 -60l15 98l106 60l58 363h115l-46 -296l184 102l-15 -99l-185 -102z" />
<glyph unicode="&#x142;" horiz-adv-x="307" d="M258 0h-75q-58 0 -87 27.5t-18 96.5l20 129l-97 -68l15 99l98 67l55 349h111l-42 -268l108 75l-17 -99l-106 -74l-32 -201q-4 -24 5 -35t35 -11h40z" />
<glyph unicode="&#x143;" horiz-adv-x="777" d="M60 0zM513 906h130l-1 -6l-134 -117h-93v4zM524 0l-276 527l-79 -527h-109l111 700h102l280 -535l81 535h110l-111 -700h-109z" />
<glyph unicode="&#x144;" horiz-adv-x="622" d="M44 0zM400 696h130l-1 -6l-134 -117h-93v4zM44 0l77 491h93l-3 -91q35 54 86 78.5t108 24.5q79 0 117 -40t38 -109q0 -22 -5 -50l-48 -304h-110l44 278q3 22 3 42q0 86 -88 86q-60 0 -105 -42.5t-58 -118.5l-39 -245h-110z" />
<glyph unicode="&#x145;" horiz-adv-x="777" d="M60 0zM273 -301l-13 45q26 8 45 27t27 47q-30 -1 -46 12.5t-16 39.5q0 35 20.5 52t51.5 17q28 0 44 -15t16 -49q0 -30 -9.5 -59t-26.5 -53t-40.5 -41t-52.5 -23zM524 0l-276 527l-79 -527h-109l111 700h102l280 -535l81 535h110l-111 -700h-109z" />
<glyph unicode="&#x146;" horiz-adv-x="622" d="M44 0zM199 -301l-13 45q26 8 45 27t27 47q-30 -1 -46 12.5t-16 39.5q0 35 20.5 52t51.5 17q28 0 44 -15t16 -49q0 -30 -9.5 -59t-26.5 -53t-40.5 -41t-52.5 -23zM44 0l77 491h93l-3 -91q35 54 86 78.5t108 24.5q79 0 117 -40t38 -109q0 -22 -5 -50l-48 -304h-110l44 278 q3 22 3 42q0 86 -88 86q-60 0 -105 -42.5t-58 -118.5l-39 -245h-110z" />
<glyph unicode="&#x147;" horiz-adv-x="777" d="M60 0zM419 783l-102 121l1 2h104l52 -63l76 63h106v-2l-139 -121h-98zM524 0l-276 527l-79 -527h-109l111 700h102l280 -535l81 535h110l-111 -700h-109z" />
<glyph unicode="&#x148;" horiz-adv-x="622" d="M44 0zM307 573l-102 121l1 2h104l52 -63l76 63h106v-2l-139 -121h-98zM44 0l77 491h93l-3 -91q35 54 86 78.5t108 24.5q79 0 117 -40t38 -109q0 -22 -5 -50l-48 -304h-110l44 278q3 22 3 42q0 86 -88 86q-60 0 -105 -42.5t-58 -118.5l-39 -245h-110z" />
<glyph unicode="&#x14a;" horiz-adv-x="777" d="M518 -28l5 31l-273 520l-79 -523h-111l111 700h102l280 -534l81 534h111l-117 -738q-14 -95 -65.5 -137.5t-125.5 -42.5q-22 0 -41.5 3.5t-42.5 12.5l30 85q12 -5 24 -8t29 -3q32 0 53 20.5t29 79.5z" />
<glyph unicode="&#x14b;" horiz-adv-x="624" d="M393 -27l47 305q2 11 3 22t1 20q0 86 -88 86q-60 0 -105 -42.5t-58 -118.5l-38 -245h-111l77 491h93l-3 -90q35 54 86 78t108 24q79 0 117 -40t38 -109q0 -12 -1 -24.5t-3 -25.5l-54 -342q-15 -95 -66 -137.5t-125 -42.5q-22 0 -42.5 3.5t-42.5 12.5l30 85q12 -5 23.5 -8 t28.5 -3q32 0 54 21.5t31 79.5z" />
<glyph unicode="&#x14c;" horiz-adv-x="768" d="M72 0zM607 876l-12 -69h-262l11 69h263zM79 351q26 190 116.5 276t251.5 86q142 0 208.5 -62.5t66.5 -196.5q0 -23 -1.5 -48.5t-5.5 -54.5q-26 -190 -117.5 -277t-251.5 -87q-140 0 -207 63.5t-67 199.5q0 23 1.5 48t5.5 53zM607 446q0 96 -43.5 134t-125.5 38 q-50 0 -90 -13t-70 -43.5t-51 -82t-33 -129.5q-9 -56 -9 -97q0 -95 43.5 -133t124.5 -38q50 0 90 13t70.5 44.5t52 83t33.5 129.5q5 27 6.5 50t1.5 44z" />
<glyph unicode="&#x14d;" horiz-adv-x="585" d="M47 0zM486 666l-12 -69h-262l11 69h263zM52 246q18 134 89 195.5t186 61.5q106 0 158 -45.5t52 -145.5q0 -15 -1.5 -31.5t-3.5 -34.5q-17 -132 -87 -195.5t-188 -63.5q-103 0 -156.5 47t-53.5 149q0 14 1.5 30t3.5 33zM425 245q3 17 4 31.5t1 28.5q0 60 -27.5 85.5 t-84.5 25.5q-70 0 -107.5 -38.5t-51.5 -132.5q-2 -17 -3.5 -32t-1.5 -28q0 -60 27 -85.5t83 -25.5q67 0 106.5 39t54.5 132z" />
<glyph unicode="&#x14e;" horiz-adv-x="768" d="M72 0zM79 351q26 190 116.5 276t251.5 86q142 0 208.5 -62.5t66.5 -196.5q0 -23 -1.5 -48.5t-5.5 -54.5q-26 -190 -117.5 -277t-251.5 -87q-140 0 -207 63.5t-67 199.5q0 23 1.5 48t5.5 53zM607 446q0 96 -43.5 134t-125.5 38q-50 0 -90 -13t-70 -43.5t-51 -82 t-33 -129.5q-9 -56 -9 -97q0 -95 43.5 -133t124.5 -38q50 0 90 13t70.5 44.5t52 83t33.5 129.5q5 27 6.5 50t1.5 44zM550 906h77q-5 -37 -19 -62t-35 -40t-50 -21t-64 -6t-62.5 6t-44.5 21t-24 40t-2 62h77q-7 -38 9 -51.5t53 -13.5t58 13.5t27 51.5z" />
<glyph unicode="&#x14f;" horiz-adv-x="585" d="M47 0zM52 246q18 134 89 195.5t186 61.5q106 0 158 -45.5t52 -145.5q0 -15 -1.5 -31.5t-3.5 -34.5q-17 -132 -87 -195.5t-188 -63.5q-103 0 -156.5 47t-53.5 149q0 14 1.5 30t3.5 33zM425 245q3 17 4 31.5t1 28.5q0 60 -27.5 85.5t-84.5 25.5q-70 0 -107.5 -38.5 t-51.5 -132.5q-2 -17 -3.5 -32t-1.5 -28q0 -60 27 -85.5t83 -25.5q67 0 106.5 39t54.5 132zM428 696h77q-5 -37 -19 -62t-35 -40t-50 -21t-64 -6t-62.5 6t-44.5 21t-24 40t-2 62h77q-7 -38 9 -51.5t53 -13.5t58 13.5t27 51.5z" />
<glyph unicode="&#x150;" horiz-adv-x="768" d="M72 0zM578 906h129l-1 -6l-140 -117h-84v4zM419 906h118l-1 -6l-116 -117h-83l1 4zM79 351q26 190 116.5 276t251.5 86q142 0 208.5 -62.5t66.5 -196.5q0 -23 -1.5 -48.5t-5.5 -54.5q-26 -190 -117.5 -277t-251.5 -87q-140 0 -207 63.5t-67 199.5q0 23 1.5 48t5.5 53z M607 446q0 96 -43.5 134t-125.5 38q-50 0 -90 -13t-70 -43.5t-51 -82t-33 -129.5q-9 -56 -9 -97q0 -95 43.5 -133t124.5 -38q50 0 90 13t70.5 44.5t52 83t33.5 129.5q5 27 6.5 50t1.5 44z" />
<glyph unicode="&#x151;" horiz-adv-x="583" d="M47 0zM457 696h129l-1 -6l-140 -117h-84v4zM298 696h118l-1 -6l-116 -117h-83l1 4zM52 246q18 134 89 195.5t186 61.5q106 0 158 -45.5t52 -145.5q0 -15 -1.5 -31.5t-3.5 -34.5q-17 -132 -87 -195.5t-188 -63.5q-103 0 -156.5 47t-53.5 149q0 14 1.5 30t3.5 33zM425 245 q3 17 4 31.5t1 28.5q0 60 -27.5 85.5t-84.5 25.5q-70 0 -107.5 -38.5t-51.5 -132.5q-2 -17 -3.5 -32t-1.5 -28q0 -60 27 -85.5t83 -25.5q67 0 106.5 39t54.5 132z" />
<glyph unicode="&#x152;" horiz-adv-x="1083" d="M428 700h670l-15 -96h-388l-32 -203h338l-15 -97h-339l-32 -208h398l-16 -96h-663q-133 0 -197.5 61t-64.5 193q0 21 1.5 44t5.5 48q23 181 108.5 267.5t240.5 86.5zM186 262q0 -87 39 -126t113 -39h163l79 506h-155q-46 0 -84 -12.5t-67 -42t-49.5 -78t-31.5 -119.5 q-3 -20 -5 -44.5t-2 -44.5z" />
<glyph unicode="&#x153;" horiz-adv-x="926" d="M629 -13q-63 0 -107.5 19.5t-69.5 61.5q-69 -81 -195 -81q-210 0 -210 197q0 14 1 29.5t3 32.5q18 128 88 192.5t188 64.5q129 0 175 -83q72 83 201 83q48 0 82.5 -14t57 -39t33 -59.5t10.5 -75.5q0 -46 -14 -102h-340q-1 -9 -1 -16v-13q0 -61 28.5 -87t84.5 -26 q46 0 79.5 14.5t60.5 54.5l68 -46q-38 -55 -90.5 -81t-132.5 -26zM426 244q2 16 3 30t1 28q0 60 -27.5 87.5t-84.5 27.5q-69 0 -107.5 -41.5t-52.5 -131.5q-2 -15 -3.5 -29t-1.5 -27q0 -59 27 -86.5t84 -27.5q69 0 108.5 41t53.5 129zM691 419q-55 0 -92.5 -30t-54.5 -101 h238q1 7 1 13v15q1 54 -22.5 78.5t-69.5 24.5z" />
<glyph unicode="&#x154;" horiz-adv-x="676" d="M60 0zM479 906h130l-1 -6l-134 -117h-93v4zM446 602h-177l-40 -253h176q30 0 57 10t47 29.5t32 49.5t12 70q0 45 -25.5 69.5t-81.5 24.5zM386 252h-172l-40 -252h-114l111 700h292q104 0 154.5 -45.5t50.5 -128.5q0 -100 -45 -164t-120 -90l95 -272h-126z" />
<glyph unicode="&#x155;" horiz-adv-x="388" d="M44 0zM318 696h130l-1 -6l-134 -117h-93v4zM44 0l77 491h94l-4 -100q35 58 86 86t110 24l-18 -108q-82 8 -132.5 -38t-67.5 -135l-35 -220h-110z" />
<glyph unicode="&#x156;" horiz-adv-x="676" d="M60 0zM233 -301l-13 45q26 8 45 27t27 47q-30 -1 -46 12.5t-16 39.5q0 35 20.5 52t51.5 17q28 0 44 -15t16 -49q0 -30 -9.5 -59t-26.5 -53t-40.5 -41t-52.5 -23zM446 602h-177l-40 -253h176q30 0 57 10t47 29.5t32 49.5t12 70q0 45 -25.5 69.5t-81.5 24.5zM386 252h-172 l-40 -252h-114l111 700h292q104 0 154.5 -45.5t50.5 -128.5q0 -100 -45 -164t-120 -90l95 -272h-126z" />
<glyph unicode="&#x157;" horiz-adv-x="389" d="M12 0zM25 -301l-13 45q26 8 45 27t27 47q-30 -1 -46 12.5t-16 39.5q0 35 20.5 52t51.5 17q28 0 44 -15t16 -49q0 -30 -9.5 -59t-26.5 -53t-40.5 -41t-52.5 -23zM47 0l77 491h94l-4 -100q35 58 86 86t110 24l-18 -108q-82 8 -132.5 -38t-67.5 -135l-35 -220h-110z" />
<glyph unicode="&#x158;" horiz-adv-x="676" d="M60 0zM385 783l-102 121l1 2h104l52 -63l76 63h106v-2l-139 -121h-98zM446 602h-177l-40 -253h176q30 0 57 10t47 29.5t32 49.5t12 70q0 45 -25.5 69.5t-81.5 24.5zM386 252h-172l-40 -252h-114l111 700h292q104 0 154.5 -45.5t50.5 -128.5q0 -100 -45 -164t-120 -90 l95 -272h-126z" />
<glyph unicode="&#x159;" horiz-adv-x="386" d="M44 0zM231 573l-102 121l1 2h104l52 -63l76 63h106v-2l-139 -121h-98zM44 0l77 491h94l-4 -100q35 58 86 86t110 24l-18 -108q-82 8 -132.5 -38t-67.5 -135l-35 -220h-110z" />
<glyph unicode="&#x15a;" horiz-adv-x="618" d="M17 0zM428 906h130l-1 -6l-134 -117h-93v4zM598 585l-93 -53q-23 46 -57 69t-93 23q-39 0 -67 -8.5t-46.5 -22.5t-27 -32.5t-8.5 -39.5q0 -18 4.5 -33.5t15.5 -29t31 -24.5t52 -20l47 -13q57 -16 95.5 -34.5t62 -41.5t33.5 -51t10 -64q0 -53 -20 -94.5t-57 -70t-90 -43.5 t-118 -15q-87 0 -153 31.5t-102 107.5l91 56q30 -59 68 -83.5t99 -24.5q85 0 127 32t42 83q0 45 -26 67.5t-85 38.5l-49 13q-101 27 -144.5 78t-43.5 115q0 45 17 83.5t50.5 67t83.5 45t116 16.5q89 0 146 -30.5t89 -97.5z" />
<glyph unicode="&#x15b;" horiz-adv-x="506" d="M21 0zM347 696h130l-1 -6l-134 -117h-93v4zM224 69q57 0 82.5 17.5t25.5 45.5q0 24 -15.5 37t-56.5 24l-39 10q-68 17 -104 53t-36 90q0 33 13 62t39 50t63.5 33t87.5 12q67 0 109.5 -21t71.5 -63l-70 -61q-11 14 -22.5 25.5t-25 19.5t-31 12t-39.5 4q-49 0 -71.5 -18 t-22.5 -44t16 -37.5t49 -20.5l49 -13q75 -20 106.5 -54t31.5 -85q0 -30 -11.5 -59t-37 -51.5t-67 -36t-101.5 -13.5q-69 0 -118.5 24t-78.5 81l76 53q39 -76 127 -76z" />
<glyph unicode="&#x15c;" horiz-adv-x="618" d="M17 0zM389 848l-76 -65h-106v3l139 120h99l101 -120v-3h-103zM598 585l-93 -53q-23 46 -57 69t-93 23q-39 0 -67 -8.5t-46.5 -22.5t-27 -32.5t-8.5 -39.5q0 -18 4.5 -33.5t15.5 -29t31 -24.5t52 -20l47 -13q57 -16 95.5 -34.5t62 -41.5t33.5 -51t10 -64q0 -53 -20 -94.5 t-57 -70t-90 -43.5t-118 -15q-87 0 -153 31.5t-102 107.5l91 56q30 -59 68 -83.5t99 -24.5q85 0 127 32t42 83q0 45 -26 67.5t-85 38.5l-49 13q-101 27 -144.5 78t-43.5 115q0 45 17 83.5t50.5 67t83.5 45t116 16.5q89 0 146 -30.5t89 -97.5z" />
<glyph unicode="&#x15d;" horiz-adv-x="506" d="M21 0zM309 638l-76 -65h-106v3l139 120h99l101 -120v-3h-103zM224 69q57 0 82.5 17.5t25.5 45.5q0 24 -15.5 37t-56.5 24l-39 10q-68 17 -104 53t-36 90q0 33 13 62t39 50t63.5 33t87.5 12q67 0 109.5 -21t71.5 -63l-70 -61q-11 14 -22.5 25.5t-25 19.5t-31 12t-39.5 4 q-49 0 -71.5 -18t-22.5 -44t16 -37.5t49 -20.5l49 -13q75 -20 106.5 -54t31.5 -85q0 -30 -11.5 -59t-37 -51.5t-67 -36t-101.5 -13.5q-69 0 -118.5 24t-78.5 81l76 53q39 -76 127 -76z" />
<glyph unicode="&#x15e;" horiz-adv-x="618" d="M223 -239q-40 0 -71.5 16t-45.5 49l53 44q11 -23 26 -35.5t44 -12.5q23 0 39 10.5t16 31.5q0 22 -19.5 29.5t-46.5 6.5l-17 12l33 77q-73 5 -129 37t-88 100l91 56q30 -59 68 -83.5t99 -24.5q85 0 127 32t42 83q0 45 -26 67.5t-85 38.5l-49 13q-101 27 -144.5 78 t-43.5 115q0 45 17 83.5t50.5 67t83.5 45t116 16.5q89 0 146 -30.5t89 -97.5l-93 -53q-23 46 -57 69t-93 23q-39 0 -67 -8.5t-46.5 -22.5t-27 -32.5t-8.5 -39.5q0 -18 4.5 -33.5t15.5 -29t31 -24.5t52 -20l47 -13q57 -16 95.5 -34.5t62 -41.5t33.5 -51t10 -64 q0 -100 -68.5 -157.5t-186.5 -64.5l-23 -44q32 -3 55.5 -23t23.5 -56q0 -26 -11 -45.5t-29.5 -32.5t-43 -19.5t-51.5 -6.5z" />
<glyph unicode="&#x15f;" horiz-adv-x="506" d="M175 -239q-40 0 -71.5 16t-45.5 49l53 44q11 -23 26 -35.5t44 -12.5q23 0 39 10.5t16 31.5q0 22 -19.5 29.5t-46.5 6.5l-17 12l33 76q-57 5 -98.5 29.5t-66.5 74.5l76 53q39 -76 127 -76q57 0 82.5 17.5t25.5 45.5q0 24 -15.5 37t-56.5 24l-39 10q-68 17 -104 53t-36 90 q0 33 13 62t39 50t63.5 33t87.5 12q67 0 109.5 -21t71.5 -63l-70 -61q-11 14 -22.5 25.5t-25 19.5t-31 12t-39.5 4q-49 0 -71.5 -18t-22.5 -44t16 -37.5t49 -20.5l49 -13q75 -20 106.5 -54t31.5 -85q0 -28 -9.5 -54.5t-31 -48t-56 -36.5t-84.5 -19l-23 -45q32 -3 55.5 -23 t23.5 -56q0 -26 -11 -45.5t-29.5 -32.5t-43 -19.5t-51.5 -6.5z" />
<glyph unicode="&#x160;" horiz-adv-x="618" d="M17 0zM335 783l-102 121l1 2h104l52 -63l76 63h106v-2l-139 -121h-98zM598 585l-93 -53q-23 46 -57 69t-93 23q-39 0 -67 -8.5t-46.5 -22.5t-27 -32.5t-8.5 -39.5q0 -18 4.5 -33.5t15.5 -29t31 -24.5t52 -20l47 -13q57 -16 95.5 -34.5t62 -41.5t33.5 -51t10 -64 q0 -53 -20 -94.5t-57 -70t-90 -43.5t-118 -15q-87 0 -153 31.5t-102 107.5l91 56q30 -59 68 -83.5t99 -24.5q85 0 127 32t42 83q0 45 -26 67.5t-85 38.5l-49 13q-101 27 -144.5 78t-43.5 115q0 45 17 83.5t50.5 67t83.5 45t116 16.5q89 0 146 -30.5t89 -97.5z" />
<glyph unicode="&#x161;" horiz-adv-x="506" d="M21 0zM253 573l-102 121l1 2h104l52 -63l76 63h106v-2l-139 -121h-98zM224 69q57 0 82.5 17.5t25.5 45.5q0 24 -15.5 37t-56.5 24l-39 10q-68 17 -104 53t-36 90q0 33 13 62t39 50t63.5 33t87.5 12q67 0 109.5 -21t71.5 -63l-70 -61q-11 14 -22.5 25.5t-25 19.5t-31 12 t-39.5 4q-49 0 -71.5 -18t-22.5 -44t16 -37.5t49 -20.5l49 -13q75 -20 106.5 -54t31.5 -85q0 -30 -11.5 -59t-37 -51.5t-67 -36t-101.5 -13.5q-69 0 -118.5 24t-78.5 81l76 53q39 -76 127 -76z" />
<glyph unicode="&#x162;" horiz-adv-x="578" d="M61 0zM169 -301l-13 45q26 8 45 27t27 47q-30 -1 -46 12.5t-16 39.5q0 35 20.5 52t51.5 17q28 0 44 -15t16 -49q0 -30 -9.5 -59t-26.5 -53t-40.5 -41t-52.5 -23zM77 700h554l-16 -99h-220l-95 -601h-114l95 601h-220z" />
<glyph unicode="&#x163;" horiz-adv-x="363" d="M31 0zM135 -301l-13 45q26 8 45 27t27 47q-30 -1 -46 12.5t-16 39.5q0 35 20.5 52t51.5 17q28 0 44 -15t16 -49q0 -30 -9.5 -59t-26.5 -53t-40.5 -41t-52.5 -23zM368 491l-13 -85h-136l-36 -228q-8 -56 6.5 -78.5t56.5 -22.5q16 0 29.5 3t28.5 8l4 -81q-28 -11 -48.5 -15 t-42.5 -4q-68 0 -107.5 30t-39.5 100q0 14 1.5 29.5t3.5 29.5l37 229h-81l13 85h82l22 142h107l-22 -142h135z" />
<glyph unicode="&#x164;" horiz-adv-x="578" d="M61 0zM318 783l-102 121l1 2h104l52 -63l76 63h106v-2l-139 -121h-98zM77 700h554l-16 -99h-220l-95 -601h-114l95 601h-220z" />
<glyph unicode="&#x165;" horiz-adv-x="373" d="M377 555h-73l37 196h98zM368 491l-13 -85h-136l-36 -228q-8 -56 6.5 -78.5t56.5 -22.5q16 0 29.5 3t28.5 8l4 -81q-28 -11 -48.5 -15t-42.5 -4q-68 0 -107.5 30t-39.5 100q0 14 1.5 29.5t3.5 29.5l37 229h-81l13 85h82l22 142h107l-22 -142h135z" />
<glyph unicode="&#x166;" horiz-adv-x="580" d="M76 386h171l34 215h-219l16 99h553l-16 -99h-219l-34 -215h171l-13 -80h-170l-49 -306h-115l49 306h-172z" />
<glyph unicode="&#x167;" horiz-adv-x="368" d="M19 324h80l13 82h-81l13 85h82l22 142h107l-22 -142h135l-13 -85h-136l-13 -82h137l-11 -68h-137l-12 -78q-8 -56 6.5 -78.5t56.5 -22.5q16 0 29.5 3t28.5 8l4 -81q-28 -11 -48.5 -15t-42.5 -4q-68 0 -107.5 30t-39.5 100q0 14 1.5 29.5t3.5 29.5l13 79h-80z" />
<glyph unicode="&#x168;" horiz-adv-x="745" d="M82 0zM547 275l67 425h114l-66 -421q-23 -148 -107.5 -220t-217.5 -72q-124 0 -189.5 55.5t-65.5 167.5q0 31 6 69l67 421h114l-67 -424q-3 -14 -3.5 -26.5t-0.5 -26.5q0 -67 35.5 -103.5t110.5 -36.5q82 0 134 45t69 147zM556 900h74q-2 -31 -12.5 -52t-26.5 -33.5 t-34.5 -18t-35.5 -5.5q-21 0 -38 6t-31.5 13.5t-27.5 13.5t-26 6q-18 0 -25.5 -11t-9.5 -25h-75q3 31 13.5 52t25.5 33.5t33 18t36 5.5q21 0 38 -6t32 -13.5t28.5 -13.5t26.5 -6q17 0 25 11t10 25z" />
<glyph unicode="&#x169;" horiz-adv-x="620" d="M62 0zM224 -13q-84 0 -123 41.5t-39 113.5q0 21 3 45l49 304h111l-45 -278q-2 -12 -2 -23v-20q0 -91 88 -91q61 0 103 41t56 121l39 250h111l-79 -491h-93l5 84q-35 -51 -83 -74t-101 -23zM462 690h74q-2 -31 -12.5 -52t-26.5 -33.5t-34.5 -18t-35.5 -5.5q-21 0 -38 6 t-31.5 13.5t-27.5 13.5t-26 6q-18 0 -25.5 -11t-9.5 -25h-75q3 31 13.5 52t25.5 33.5t33 18t36 5.5q21 0 38 -6t32 -13.5t28.5 -13.5t26.5 -6q17 0 25 11t10 25z" />
<glyph unicode="&#x16a;" horiz-adv-x="745" d="M82 0zM547 275l67 425h114l-66 -421q-23 -148 -107.5 -220t-217.5 -72q-124 0 -189.5 55.5t-65.5 167.5q0 31 6 69l67 421h114l-67 -424q-3 -14 -3.5 -26.5t-0.5 -26.5q0 -67 35.5 -103.5t110.5 -36.5q82 0 134 45t69 147zM599 876l-12 -69h-262l11 69h263z" />
<glyph unicode="&#x16b;" horiz-adv-x="620" d="M62 0zM224 -13q-84 0 -123 41.5t-39 113.5q0 21 3 45l49 304h111l-45 -278q-2 -12 -2 -23v-20q0 -91 88 -91q61 0 103 41t56 121l39 250h111l-79 -491h-93l5 84q-35 -51 -83 -74t-101 -23zM505 666l-12 -69h-262l11 69h263z" />
<glyph unicode="&#x16c;" horiz-adv-x="745" d="M82 0zM547 275l67 425h114l-66 -421q-23 -148 -107.5 -220t-217.5 -72q-124 0 -189.5 55.5t-65.5 167.5q0 31 6 69l67 421h114l-67 -424q-3 -14 -3.5 -26.5t-0.5 -26.5q0 -67 35.5 -103.5t110.5 -36.5q82 0 134 45t69 147zM542 906h77q-5 -37 -19 -62t-35 -40t-50 -21 t-64 -6t-62.5 6t-44.5 21t-24 40t-2 62h77q-7 -38 9 -51.5t53 -13.5t58 13.5t27 51.5z" />
<glyph unicode="&#x16d;" horiz-adv-x="620" d="M62 0zM224 -13q-84 0 -123 41.5t-39 113.5q0 21 3 45l49 304h111l-45 -278q-2 -12 -2 -23v-20q0 -91 88 -91q61 0 103 41t56 121l39 250h111l-79 -491h-93l5 84q-35 -51 -83 -74t-101 -23zM448 696h77q-5 -37 -19 -62t-35 -40t-50 -21t-64 -6t-62.5 6t-44.5 21t-24 40 t-2 62h77q-7 -38 9 -51.5t53 -13.5t58 13.5t27 51.5z" />
<glyph unicode="&#x16e;" horiz-adv-x="745" d="M82 0zM450 758q-39 0 -64.5 21.5t-25.5 61.5q0 25 8.5 45.5t24 35.5t36 23t44.5 8q41 0 65.5 -22.5t24.5 -60.5q0 -51 -32.5 -81.5t-80.5 -30.5zM470 905q-23 0 -39 -16.5t-16 -43.5q0 -18 10.5 -29t27.5 -11q21 0 38 16.5t17 44.5q0 18 -10.5 28.5t-27.5 10.5zM547 275 l67 425h114l-66 -421q-23 -148 -107.5 -220t-217.5 -72q-124 0 -189.5 55.5t-65.5 167.5q0 31 6 69l67 421h114l-67 -424q-3 -14 -3.5 -26.5t-0.5 -26.5q0 -67 35.5 -103.5t110.5 -36.5q82 0 134 45t69 147z" />
<glyph unicode="&#x16f;" horiz-adv-x="620" d="M62 0zM356 548q-39 0 -64.5 21.5t-25.5 61.5q0 25 8.5 45.5t24 35.5t36 23t44.5 8q41 0 65.5 -22.5t24.5 -60.5q0 -51 -32.5 -81.5t-80.5 -30.5zM376 695q-23 0 -39 -16.5t-16 -43.5q0 -18 10.5 -29t27.5 -11q21 0 38 16.5t17 44.5q0 18 -10.5 28.5t-27.5 10.5zM224 -13 q-84 0 -123 41.5t-39 113.5q0 21 3 45l49 304h111l-45 -278q-2 -12 -2 -23v-20q0 -91 88 -91q61 0 103 41t56 121l39 250h111l-79 -491h-93l5 84q-35 -51 -83 -74t-101 -23z" />
<glyph unicode="&#x170;" horiz-adv-x="745" d="M82 0zM547 275l67 425h114l-66 -421q-23 -148 -107.5 -220t-217.5 -72q-124 0 -189.5 55.5t-65.5 167.5q0 31 6 69l67 421h114l-67 -424q-3 -14 -3.5 -26.5t-0.5 -26.5q0 -67 35.5 -103.5t110.5 -36.5q82 0 134 45t69 147zM570 906h129l-1 -6l-140 -117h-84v4zM411 906 h118l-1 -6l-116 -117h-83l1 4z" />
<glyph unicode="&#x171;" horiz-adv-x="620" d="M62 0zM224 -13q-84 0 -123 41.5t-39 113.5q0 21 3 45l49 304h111l-45 -278q-2 -12 -2 -23v-20q0 -91 88 -91q61 0 103 41t56 121l39 250h111l-79 -491h-93l5 84q-35 -51 -83 -74t-101 -23zM477 696h129l-1 -6l-140 -117h-84v4zM318 696h118l-1 -6l-116 -117h-83l1 4z" />
<glyph unicode="&#x172;" horiz-adv-x="744" d="M546 276l67 424h115l-66 -420q-19 -115 -76.5 -187t-152.5 -95q-36 -12 -53.5 -40.5t-17.5 -54.5q0 -29 14 -39.5t37 -10.5q17 0 34 4t32 13l9 -64q-39 -24 -90 -24q-21 0 -41.5 4.5t-36 16t-25 31t-9.5 49.5q0 32 10.5 58.5t29.5 45.5q-118 2 -181 58.5t-63 164.5 q0 31 6 70l66 420h117l-68 -423q-2 -14 -3.5 -26.5t-1.5 -26.5q0 -67 35.5 -103.5t110.5 -36.5q82 0 134 45t68 147z" />
<glyph unicode="&#x173;" horiz-adv-x="620" d="M429 -218q-21 0 -41 4.5t-35.5 15.5t-25 30t-9.5 48q0 50 25.5 84.5t60.5 54.5l4 65q-34 -52 -82.5 -74.5t-101.5 -22.5q-84 0 -123 41.5t-39 113.5q0 25 3 46l49 303h112l-45 -277q-3 -24 -3 -43q0 -91 88 -91q61 0 102.5 40t55.5 121l39 250h112l-79 -491h-6 q-23 -2 -41 -12.5t-30.5 -25t-19 -32t-6.5 -33.5q0 -25 13.5 -34.5t37.5 -9.5q36 0 66 17l11 -64q-42 -24 -92 -24z" />
<glyph unicode="&#x174;" horiz-adv-x="914" d="M72 0zM543 848l-76 -65h-106v3l139 120h99l101 -120v-3h-103zM471 698h104l57 -528l225 530h115l-309 -700h-110l-57 530l-226 -530h-114l-84 700h117l54 -535z" />
<glyph unicode="&#x175;" horiz-adv-x="743" d="M43 0zM426 638l-76 -65h-106v3l139 120h99l101 -120v-3h-103zM355 488h101l49 -361l158 364h105l-229 -491h-108l-45 363l-158 -363h-108l-77 491h106l45 -365z" />
<glyph unicode="&#x176;" horiz-adv-x="614" d="M67 0zM244 273l-177 427h122l128 -327l232 327h124l-315 -429l-43 -271h-114zM388 848l-76 -65h-106v3l139 120h99l101 -120v-3h-103z" />
<glyph unicode="&#x177;" horiz-adv-x="521" d="M0 0zM135 -56l26 50l-118 497h114l78 -386l195 386h116l-320 -584q-40 -72 -90 -98t-111 -26q-24 0 -43.5 3.5t-40.5 11.5l27 87q16 -6 30 -9.5t34 -3.5q12 0 25 2.5t26 10t26.5 21.5t25.5 38zM318 638l-76 -65h-106v3l139 120h99l101 -120v-3h-103z" />
<glyph unicode="&#x178;" horiz-adv-x="614" d="M67 0zM244 273l-177 427h122l128 -327l232 327h124l-315 -429l-43 -271h-114zM473 786q-59 0 -59 52q0 38 21 56.5t53 18.5q60 0 60 -53q0 -37 -20.5 -55.5t-54.5 -18.5zM287 786q-59 0 -59 52q0 39 21.5 57t53.5 18q59 0 59 -52q0 -38 -20 -56.5t-55 -18.5z" />
<glyph unicode="&#x179;" horiz-adv-x="575" d="M0 0zM418 906h130l-1 -6l-134 -117h-93v4zM-21 0l13 80l474 525l-370 -2l15 97h510l-12 -80l-477 -525l399 2l-16 -97h-536z" />
<glyph unicode="&#x17a;" horiz-adv-x="487" d="M0 0zM339 696h130l-1 -6l-134 -117h-93v4zM-1 0l11 74l332 330h-275l14 87h399l-12 -77l-330 -328h287l-14 -86h-412z" />
<glyph unicode="&#x17b;" horiz-adv-x="575" d="M0 0zM-21 0l13 80l474 525l-370 -2l15 97h510l-12 -80l-477 -525l399 2l-16 -97h-536zM373 786q-60 0 -60 53q0 39 22 56.5t54 17.5q61 0 61 -54q0 -36 -21.5 -54.5t-55.5 -18.5z" />
<glyph unicode="&#x17c;" horiz-adv-x="487" d="M0 0zM-1 0l11 74l332 330h-275l14 87h399l-12 -77l-330 -328h287l-14 -86h-412zM294 576q-60 0 -60 53q0 39 22 56.5t54 17.5q61 0 61 -54q0 -36 -21.5 -54.5t-55.5 -18.5z" />
<glyph unicode="&#x17d;" horiz-adv-x="575" d="M0 0zM324 783l-102 121l1 2h104l52 -63l76 63h106v-2l-139 -121h-98zM-21 0l13 80l474 525l-370 -2l15 97h510l-12 -80l-477 -525l399 2l-16 -97h-536z" />
<glyph unicode="&#x17e;" horiz-adv-x="487" d="M0 0zM246 573l-102 121l1 2h104l52 -63l76 63h106v-2l-139 -121h-98zM-1 0l11 74l332 330h-275l14 87h399l-12 -77l-330 -328h287l-14 -86h-412z" />
<glyph unicode="&#x192;" horiz-adv-x="389" d="M42 -32l73 322h-82l18 83h83l17 68q22 96 73 138.5t127 42.5q23 0 48.5 -4.5t41.5 -14.5l-37 -84q-21 12 -53 12q-35 0 -58 -20t-35 -74l-15 -64h133l-19 -83h-133l-75 -329q-21 -94 -72.5 -136.5t-125.5 -42.5q-21 0 -44 4t-40 12l35 85q11 -5 22.5 -8t28.5 -3 q32 0 54 20.5t35 75.5z" />
<glyph unicode="&#x218;" horiz-adv-x="618" d="M17 0zM189 -301l-13 45q26 8 45 27t27 47q-30 -1 -46 12.5t-16 39.5q0 35 20.5 52t51.5 17q28 0 44 -15t16 -49q0 -30 -9.5 -59t-26.5 -53t-40.5 -41t-52.5 -23zM598 585l-93 -53q-23 46 -57 69t-93 23q-39 0 -67 -8.5t-46.5 -22.5t-27 -32.5t-8.5 -39.5q0 -18 4.5 -33.5 t15.5 -29t31 -24.5t52 -20l47 -13q57 -16 95.5 -34.5t62 -41.5t33.5 -51t10 -64q0 -53 -20 -94.5t-57 -70t-90 -43.5t-118 -15q-87 0 -153 31.5t-102 107.5l91 56q30 -59 68 -83.5t99 -24.5q85 0 127 32t42 83q0 45 -26 67.5t-85 38.5l-49 13q-101 27 -144.5 78t-43.5 115 q0 45 17 83.5t50.5 67t83.5 45t116 16.5q89 0 146 -30.5t89 -97.5z" />
<glyph unicode="&#x219;" horiz-adv-x="506" d="M21 0zM143 -301l-13 45q26 8 45 27t27 47q-30 -1 -46 12.5t-16 39.5q0 35 20.5 52t51.5 17q28 0 44 -15t16 -49q0 -30 -9.5 -59t-26.5 -53t-40.5 -41t-52.5 -23zM224 69q57 0 82.5 17.5t25.5 45.5q0 24 -15.5 37t-56.5 24l-39 10q-68 17 -104 53t-36 90q0 33 13 62t39 50 t63.5 33t87.5 12q67 0 109.5 -21t71.5 -63l-70 -61q-11 14 -22.5 25.5t-25 19.5t-31 12t-39.5 4q-49 0 -71.5 -18t-22.5 -44t16 -37.5t49 -20.5l49 -13q75 -20 106.5 -54t31.5 -85q0 -30 -11.5 -59t-37 -51.5t-67 -36t-101.5 -13.5q-69 0 -118.5 24t-78.5 81l76 53 q39 -76 127 -76z" />
<glyph unicode="&#x237;" horiz-adv-x="279" d="M41 -28l83 519h109l-83 -529q-15 -93 -66 -136.5t-125 -43.5q-23 0 -42.5 3.5t-42.5 12.5l30 85q12 -5 23.5 -8t28.5 -3q16 0 29.5 4.5t24.5 16t18.5 31t12.5 48.5z" />
<glyph unicode="&#x2c6;" horiz-adv-x="600" d="M304 638l-76 -65h-106v3l139 120h99l101 -120v-3h-103z" />
<glyph unicode="&#x2c7;" horiz-adv-x="600" d="M236 573l-102 121l1 2h104l52 -63l76 63h106v-2l-139 -121h-98z" />
<glyph unicode="&#x2d8;" horiz-adv-x="600" d="M385 696h77q-5 -37 -19 -62t-35 -40t-50 -21t-64 -6t-62.5 6t-44.5 21t-24 40t-2 62h77q-7 -38 9 -51.5t53 -13.5t58 13.5t27 51.5z" />
<glyph unicode="&#x2d9;" horiz-adv-x="600" d="M294 576q-60 0 -60 53q0 39 22 56.5t54 17.5q61 0 61 -54q0 -36 -21.5 -54.5t-55.5 -18.5z" />
<glyph unicode="&#x2da;" horiz-adv-x="600" d="M292 548q-39 0 -64.5 21.5t-25.5 61.5q0 25 8.5 45.5t24 35.5t36 23t44.5 8q41 0 65.5 -22.5t24.5 -60.5q0 -51 -32.5 -81.5t-80.5 -30.5zM312 695q-23 0 -39 -16.5t-16 -43.5q0 -18 10.5 -29t27.5 -11q21 0 38 16.5t17 44.5q0 18 -10.5 28.5t-27.5 10.5z" />
<glyph unicode="&#x2db;" horiz-adv-x="600" d="M299 -218q-21 0 -41 4.5t-35.5 15.5t-25 30t-9.5 48q0 39 16 69t41.5 51t56 31.5t60.5 10.5v-42q-24 -2 -42 -12t-30.5 -24.5t-19 -32t-6.5 -34.5q0 -25 13.5 -34.5t36.5 -9.5q17 0 34 4t32 13l11 -64q-41 -24 -92 -24z" />
<glyph unicode="&#x2dc;" horiz-adv-x="600" d="M404 690h74q-2 -31 -12.5 -52t-26.5 -33.5t-34.5 -18t-35.5 -5.5q-21 0 -38 6t-31.5 13.5t-27.5 13.5t-26 6q-18 0 -25.5 -11t-9.5 -25h-75q3 31 13.5 52t25.5 33.5t33 18t36 5.5q21 0 38 -6t32 -13.5t28.5 -13.5t26.5 -6q17 0 25 11t10 25z" />
<glyph unicode="&#x2dd;" horiz-adv-x="600" d="M408 696h129l-1 -6l-140 -117h-84v4zM249 696h118l-1 -6l-116 -117h-83l1 4z" />
<glyph unicode="&#x1e80;" horiz-adv-x="914" d="M72 0zM471 698h104l57 -528l225 530h115l-309 -700h-110l-57 530l-226 -530h-114l-84 700h117l54 -535zM496 782l-102 117l1 6h130l58 -119v-4h-87z" />
<glyph unicode="&#x1e81;" horiz-adv-x="743" d="M43 0zM355 488h101l49 -361l158 364h105l-229 -491h-108l-45 363l-158 -363h-108l-77 491h106l45 -365zM378 573l-102 117l1 6h130l58 -119v-4h-87z" />
<glyph unicode="&#x1e82;" horiz-adv-x="914" d="M72 0zM581 905h130l-1 -6l-134 -117h-93v4zM471 698h104l57 -528l225 530h115l-309 -700h-110l-57 530l-226 -530h-114l-84 700h117l54 -535z" />
<glyph unicode="&#x1e83;" horiz-adv-x="743" d="M43 0zM464 696h130l-1 -6l-134 -117h-93v4zM355 488h101l49 -361l158 364h105l-229 -491h-108l-45 363l-158 -363h-108l-77 491h106l45 -365z" />
<glyph unicode="&#x1e84;" horiz-adv-x="914" d="M72 0zM628 785q-59 0 -59 52q0 38 21 56.5t53 18.5q60 0 60 -53q0 -37 -20.5 -55.5t-54.5 -18.5zM442 785q-59 0 -59 52q0 39 21.5 57t53.5 18q59 0 59 -52q0 -38 -20 -56.5t-55 -18.5zM471 698h104l57 -528l225 530h115l-309 -700h-110l-57 530l-226 -530h-114l-84 700 h117l54 -535z" />
<glyph unicode="&#x1e85;" horiz-adv-x="743" d="M43 0zM511 576q-59 0 -59 52q0 38 21 56.5t53 18.5q60 0 60 -53q0 -37 -20.5 -55.5t-54.5 -18.5zM325 576q-59 0 -59 52q0 39 21.5 57t53.5 18q59 0 59 -52q0 -38 -20 -56.5t-55 -18.5zM355 488h101l49 -361l158 364h105l-229 -491h-108l-45 363l-158 -363h-108l-77 491 h106l45 -365z" />
<glyph unicode="&#x2000;" horiz-adv-x="476" />
<glyph unicode="&#x2001;" horiz-adv-x="953" />
<glyph unicode="&#x2002;" horiz-adv-x="500" />
<glyph unicode="&#x2003;" horiz-adv-x="1000" />
<glyph unicode="&#x2004;" horiz-adv-x="333" />
<glyph unicode="&#x2005;" horiz-adv-x="250" />
<glyph unicode="&#x2006;" horiz-adv-x="167" />
<glyph unicode="&#x2007;" />
<glyph unicode="&#x2008;" horiz-adv-x="235" />
<glyph unicode="&#x2009;" horiz-adv-x="200" />
<glyph unicode="&#x200a;" horiz-adv-x="100" />
<glyph unicode="&#x200b;" horiz-adv-x="0" />
<glyph unicode="&#x2010;" horiz-adv-x="440" d="M400 305l-14 -91h-344l14 91h344z" />
<glyph unicode="&#x2011;" horiz-adv-x="440" d="M400 305l-14 -91h-344l14 91h344z" />
<glyph unicode="&#x2012;" horiz-adv-x="579" d="M537 305l-14 -91h-481l14 91h481z" />
<glyph unicode="&#x2013;" horiz-adv-x="579" d="M537 305l-14 -91h-481l14 91h481z" />
<glyph unicode="&#x2014;" horiz-adv-x="776" d="M732 305l-14 -91h-677l15 91h676z" />
<glyph unicode="&#x2015;" horiz-adv-x="1068" d="M1024 305l-15 -91h-968l15 91h968z" />
<glyph unicode="&#x2018;" horiz-adv-x="233" d="M225 743l14 -48q-29 -9 -50.5 -31.5t-30.5 -52.5q30 0 45 -14.5t15 -39.5q0 -38 -21 -56.5t-53 -18.5q-28 0 -44.5 15.5t-16.5 50.5q0 27 8 57t25.5 57t44 48.5t64.5 32.5z" />
<glyph unicode="&#x2019;" horiz-adv-x="233" d="M102 468l-14 48q29 9 50.5 31.5t30.5 52.5q-30 0 -45 14.5t-15 39.5q0 38 21 56.5t53 18.5q28 0 44.5 -15.5t16.5 -50.5q0 -27 -8 -57t-25.5 -57t-44.5 -49t-64 -32z" />
<glyph unicode="&#x201a;" horiz-adv-x="233" d="M16 -135l-13 48q29 8 50 30t29 52q-29 0 -44 14.5t-15 38.5q0 38 20.5 56t52.5 18q28 0 44 -15t16 -50q0 -27 -8 -56t-25 -56t-43.5 -48.5t-63.5 -31.5z" />
<glyph unicode="&#x201c;" horiz-adv-x="406" d="M225 744l14 -48q-29 -9 -50.5 -31.5t-30.5 -52.5q30 0 45 -14.5t15 -39.5q0 -38 -21 -56.5t-53 -18.5q-28 0 -44.5 15.5t-16.5 50.5q0 27 8 57t25.5 57t44 48.5t64.5 32.5zM400 744l14 -48q-29 -9 -50.5 -31.5t-30.5 -52.5q30 0 45 -14.5t15 -39.5q0 -38 -21 -56.5 t-53 -18.5q-28 0 -44.5 15.5t-16.5 50.5q0 27 8 57t25.5 57t44 48.5t64.5 32.5z" />
<glyph unicode="&#x201d;" horiz-adv-x="407" d="M102 465l-14 48q29 9 50.5 31.5t30.5 52.5q-30 0 -45 14.5t-15 39.5q0 38 21 56.5t53 18.5q28 0 44.5 -15.5t16.5 -50.5q0 -27 -8 -57t-25.5 -57t-44.5 -49t-64 -32zM277 465l-14 48q29 9 50.5 31.5t30.5 52.5q-30 0 -45 14.5t-15 39.5q0 38 21 56.5t53 18.5 q28 0 44.5 -15.5t16.5 -50.5q0 -27 -8 -57t-25.5 -57t-44.5 -49t-64 -32z" />
<glyph unicode="&#x201e;" horiz-adv-x="406" d="M16 -136l-13 48q29 8 50 30t29 52q-29 0 -44 14.5t-15 38.5q0 38 20.5 56t52.5 18q28 0 44 -15t16 -50q0 -27 -8 -56t-25 -56t-43.5 -48.5t-63.5 -31.5zM189 -136l-13 48q29 8 50 30t29 52q-29 0 -44 14.5t-15 38.5q0 38 20.5 56t52.5 18q28 0 44 -15t16 -50 q0 -27 -8 -56t-25 -56t-43.5 -48.5t-63.5 -31.5z" />
<glyph unicode="&#x2020;" horiz-adv-x="311" d="M266 513h-66l-37 -228h-89l37 228h-67l13 81h65l16 119h98l-23 -119h65z" />
<glyph unicode="&#x2021;" horiz-adv-x="311" d="M38 475h66l9 54h-66l13 81h64l14 103h98l-20 -103h64l-12 -81h-66l-9 -54h67l-13 -81h-65l-15 -109h-97l21 109h-65z" />
<glyph unicode="&#x2022;" horiz-adv-x="422" d="M207 170q-68 0 -105 36.5t-37 98.5q0 40 13 73t36 56.5t54.5 36.5t69.5 13q69 0 106 -36.5t37 -98.5q0 -40 -13 -73t-36 -56.5t-55 -36.5t-70 -13z" />
<glyph unicode="&#x2026;" horiz-adv-x="706" d="M555 -6q-30 0 -46 15t-16 41q0 37 20.5 57t56.5 20q62 0 62 -57q0 -38 -22 -57t-55 -19zM319 -6q-30 0 -45.5 15t-15.5 41q0 37 20.5 57t56.5 20q61 0 61 -57q0 -38 -21.5 -57t-55.5 -19zM84 -6q-30 0 -46 15t-16 41q0 37 21 57t56 20q62 0 62 -57q0 -38 -21.5 -57 t-55.5 -19z" />
<glyph unicode="&#x202f;" horiz-adv-x="190" />
<glyph unicode="&#x2030;" horiz-adv-x="1466" d="M69 0zM838 419q77 0 113.5 -37t36.5 -115q0 -17 -1 -30.5t-4 -32.5q-16 -107 -63.5 -161t-140.5 -54q-77 0 -113.5 36.5t-36.5 114.5q0 14 1.5 30.5t3.5 33.5q16 112 65.5 163.5t138.5 51.5zM831 347q-21 0 -38 -7t-31 -24t-24 -44.5t-17 -68.5l-4 -32q-2 -16 -2 -27 q0 -48 18.5 -65.5t51.5 -17.5q21 0 39 7t32 23.5t24 44t17 68.5q2 17 4 32t2 27q0 47 -19 65.5t-53 18.5zM278 712q77 0 113.5 -37t36.5 -115q0 -17 -1 -30.5t-4 -32.5q-16 -107 -63.5 -161t-140.5 -54q-77 0 -113.5 36.5t-36.5 114.5q0 14 1.5 30.5t3.5 33.5 q16 112 65.5 163.5t138.5 51.5zM271 640q-21 0 -38 -7t-31 -24t-24 -44.5t-17 -68.5l-4 -32q-2 -16 -2 -27q0 -48 18.5 -65.5t51.5 -17.5q21 0 39 7t32 23.5t24 44t17 68.5q2 17 4 32t2 27q0 47 -19 65.5t-53 18.5zM1258 419q77 0 113.5 -37t36.5 -115q0 -17 -1 -30.5 t-4 -32.5q-16 -107 -63.5 -161t-140.5 -54q-77 0 -113.5 36.5t-36.5 114.5q0 14 1.5 30.5t3.5 33.5q16 112 65.5 163.5t138.5 51.5zM1251 347q-21 0 -38 -7t-31 -24t-24 -44.5t-17 -68.5l-4 -32q-2 -16 -2 -27q0 -48 18.5 -65.5t51.5 -17.5q21 0 39 7t32 23.5t24 44t17 68.5 q2 17 4 32t2 27q0 47 -19 65.5t-53 18.5zM796 700l-444 -700h-103l445 700h102z" />
<glyph unicode="&#x2039;" horiz-adv-x="419" d="M202 0l-150 243l1 3l227 245h121l-233 -250l153 -241h-119z" />
<glyph unicode="&#x203a;" horiz-adv-x="419" d="M218 491l150 -243l-1 -3l-227 -245h-121l233 250l-153 241h119z" />
<glyph unicode="&#x2044;" horiz-adv-x="515" d="M523 700l-444 -700h-103l445 700h102z" />
<glyph unicode="&#x205f;" horiz-adv-x="238" />
<glyph unicode="&#x2070;" horiz-adv-x="437" d="M70 283zM279 713q77 0 113.5 -37t36.5 -115q0 -17 -1 -30.5t-4 -32.5q-16 -107 -63.5 -161t-140.5 -54q-77 0 -113.5 36.5t-36.5 114.5q0 14 1.5 30.5t3.5 33.5q16 112 65.5 163.5t138.5 51.5zM272 641q-21 0 -38 -7t-31 -24t-24 -44.5t-17 -68.5l-4 -32q-2 -16 -2 -27 q0 -48 18.5 -65.5t51.5 -17.5q21 0 39 7t32 23.5t24 44t17 68.5q2 17 4 32t2 27q0 47 -19 65.5t-53 18.5z" />
<glyph unicode="&#x2074;" horiz-adv-x="406" d="M44 294zM44 385l9 60l165 257h85l-158 -242h128l26 154h81l-24 -154h55l-12 -75h-56l-14 -91h-82l15 91h-218z" />
<glyph unicode="&#x2075;" horiz-adv-x="366" d="M31 283zM180 631l-23 -91q19 8 37.5 11.5t41.5 3.5q56 0 89.5 -25t33.5 -84q0 -36 -12.5 -65.5t-36 -51.5t-57 -34t-76.5 -12q-54 0 -91 20t-55 59l65 44q13 -26 32.5 -39.5t51.5 -13.5q42 0 68 23t26 61q0 29 -18 42t-50 13q-47 0 -85 -27l-49 26l52 211h259l-11 -71 h-192z" />
<glyph unicode="&#x2076;" horiz-adv-x="411" d="M68 283zM218 283q-71 0 -110.5 38t-39.5 121q0 33 6 69q15 101 67.5 151.5t136.5 50.5q53 0 88 -19.5t48 -54.5l-61 -43q-18 47 -75 47q-29 0 -49.5 -10.5t-35 -30t-23.5 -46.5t-14 -60l-1 -9q17 30 47.5 46.5t68.5 16.5q56 0 87 -27t31 -78q0 -32 -10.5 -61.5t-31.5 -52 t-53.5 -35.5t-75.5 -13zM241 486q-35 0 -60 -20t-25 -58q0 -25 16 -40.5t48 -15.5q38 0 60.5 22.5t22.5 58.5q0 25 -15 39t-47 14z" />
<glyph unicode="&#x2077;" horiz-adv-x="324" d="M76 294zM93 294q7 49 24 96t40.5 90t53 80t63.5 66l-198 -1l12 76h293l-11 -65q-73 -54 -120.5 -145.5t-64.5 -196.5h-92z" />
<glyph unicode="&#x2078;" horiz-adv-x="402" d="M56 283zM198 283q-142 0 -142 104q0 50 27 79.5t63 40.5q-43 21 -43 76q0 65 43.5 97.5t117.5 32.5q129 0 129 -96q0 -42 -20.5 -70.5t-54.5 -42.5q27 -10 42.5 -30t15.5 -53q0 -66 -48 -102t-130 -36zM237 538q34 0 55.5 17t21.5 48q0 21 -15.5 32t-42.5 11 q-35 0 -55.5 -16t-20.5 -47q0 -45 57 -45zM207 347q37 0 61 18t24 53q0 25 -17.5 37.5t-47.5 12.5q-38 0 -61.5 -18t-23.5 -53q0 -24 17 -37t48 -13z" />
<glyph unicode="&#x2079;" horiz-adv-x="410" d="M49 283zM227 506q33 0 58.5 22t25.5 60q0 26 -16.5 40.5t-47.5 14.5q-35 0 -59.5 -21t-24.5 -63q0 -25 15.5 -39t48.5 -14zM249 713q71 0 110.5 -38t39.5 -120q0 -34 -6 -70q-17 -100 -68.5 -151t-135.5 -51q-53 0 -89 18t-51 51q1 1 10.5 8t20 15t20 14.5t10.5 7.5 q19 -44 79 -44q52 0 81 37.5t41 110.5l1 6q-19 -32 -47 -49t-69 -17q-56 0 -87 28t-31 80q0 36 11.5 66t33 51.5t53.5 34t73 12.5z" />
<glyph unicode="&#x207a;" horiz-adv-x="311" d="M58 361zM199 361h-66l14 90h-89l9 59h88l15 91h65l-14 -91h89l-9 -59h-88z" />
<glyph unicode="&#x207b;" horiz-adv-x="311" d="M58 451zM310 510l-9 -59h-243l9 59h243z" />
<glyph unicode="&#x207c;" horiz-adv-x="311" d="M52 404zM317 555l-9 -60h-242l9 60h242zM303 465l-8 -61h-243l8 61h243z" />
<glyph unicode="&#x207d;" horiz-adv-x="220" d="M54 225zM184 225q-67 6 -98.5 50t-31.5 126q0 33 6 74q16 116 65 178t136 70l-2 -69q-25 -3 -45.5 -14t-36.5 -32t-28 -53.5t-19 -79.5q-4 -20 -5 -39.5t-1 -35.5q0 -54 19.5 -78t57.5 -30z" />
<glyph unicode="&#x207e;" horiz-adv-x="220" d="M23 225zM83 656l17 67q67 -6 98.5 -50t31.5 -126q0 -34 -6 -74q-16 -116 -65 -178t-136 -70l2 69q25 3 45.5 14t36.5 32t27.5 53.5t19.5 79.5q4 20 5 39.5t1 35.5q0 54 -19.5 78t-57.5 30z" />
<glyph unicode="&#x2080;" horiz-adv-x="433" d="M235 419q77 0 113.5 -37t36.5 -115q0 -17 -1 -30.5t-4 -32.5q-16 -107 -63.5 -161t-140.5 -54q-77 0 -113.5 36.5t-36.5 114.5q0 14 1.5 30.5t3.5 33.5q16 112 65.5 163.5t138.5 51.5zM228 347q-21 0 -38 -7t-31 -24t-24 -44.5t-17 -68.5l-4 -32q-2 -16 -2 -27 q0 -48 18.5 -65.5t51.5 -17.5q21 0 39 7t32 23.5t24 44t17 68.5q2 17 4 32t2 27q0 47 -19 65.5t-53 18.5z" />
<glyph unicode="&#x2081;" horiz-adv-x="238" d="M138 0h-86l48 306l-53 -31l-21 70l121 66h55z" />
<glyph unicode="&#x2082;" horiz-adv-x="372" d="M-7 0l11 68l150 120q42 33 65.5 58t23.5 55q0 45 -62 45q-31 0 -52 -13.5t-41 -42.5l-51 45q31 45 70 64.5t89 19.5q63 0 100 -23.5t37 -76.5q0 -24 -7.5 -46t-23 -43t-39 -42.5t-54.5 -46.5l-83 -65l186 1l-11 -77h-308z" />
<glyph unicode="&#x2083;" horiz-adv-x="372" d="M140 -11q-57 0 -92.5 21.5t-52.5 63.5l67 39q12 -26 31 -39.5t52 -13.5q37 0 61 17.5t24 51.5q0 23 -14.5 34t-46.5 11h-49l11 67h48q29 0 48.5 17.5t19.5 44.5q0 24 -14.5 34t-46.5 10q-28 0 -47.5 -9.5t-39.5 -37.5l-54 44q27 38 64.5 56.5t91.5 18.5q134 0 134 -97 q0 -38 -18.5 -67.5t-52.5 -46.5q23 -8 36.5 -26t13.5 -50q0 -30 -12 -56t-34.5 -45.5t-54.5 -30.5t-73 -11z" />
<glyph unicode="&#x2084;" horiz-adv-x="403" d="M3 91l9 60l165 257h85l-158 -242h128l26 154h81l-24 -154h55l-12 -75h-56l-14 -91h-82l15 91h-218z" />
<glyph unicode="&#x2085;" horiz-adv-x="363" d="M139 337l-23 -91q19 8 37.5 11.5t41.5 3.5q56 0 89.5 -25t33.5 -84q0 -36 -12.5 -65.5t-36 -51.5t-57 -34t-76.5 -12q-54 0 -91 20t-55 59l65 44q13 -26 32.5 -39.5t51.5 -13.5q42 0 68 23t26 61q0 29 -18 42t-50 13q-47 0 -85 -27l-49 26l52 211h259l-11 -71h-192z" />
<glyph unicode="&#x2086;" horiz-adv-x="407" d="M177 -11q-71 0 -110.5 38t-39.5 121q0 33 6 69q15 101 67.5 151.5t136.5 50.5q53 0 88 -19.5t48 -54.5l-61 -43q-18 47 -75 47q-29 0 -49.5 -10.5t-35 -30t-23.5 -46.5t-14 -60l-1 -9q17 30 47.5 46.5t68.5 16.5q56 0 87 -27t31 -78q0 -32 -10.5 -61.5t-31.5 -52 t-53.5 -35.5t-75.5 -13zM200 192q-35 0 -60 -20t-25 -58q0 -25 16 -40.5t48 -15.5q38 0 60.5 22.5t22.5 58.5q0 25 -15 39t-47 14z" />
<glyph unicode="&#x2087;" horiz-adv-x="320" d="M52 0q7 49 24 96t40.5 90t53 80t63.5 66l-198 -1l12 76h293l-11 -65q-73 -54 -120.5 -145.5t-64.5 -196.5h-92z" />
<glyph unicode="&#x2088;" horiz-adv-x="398" d="M157 -11q-142 0 -142 104q0 50 27 79.5t63 40.5q-43 21 -43 76q0 65 43.5 97.5t117.5 32.5q129 0 129 -96q0 -42 -20.5 -70.5t-54.5 -42.5q27 -10 42.5 -30t15.5 -53q0 -66 -48 -102t-130 -36zM196 244q34 0 55.5 17t21.5 48q0 21 -15.5 32t-42.5 11q-35 0 -55.5 -16 t-20.5 -47q0 -45 57 -45zM166 53q37 0 61 18t24 53q0 25 -17.5 37.5t-47.5 12.5q-38 0 -61.5 -18t-23.5 -53q0 -24 17 -37t48 -13z" />
<glyph unicode="&#x2089;" horiz-adv-x="405" d="M186 212q33 0 58.5 22t25.5 60q0 26 -16.5 40.5t-47.5 14.5q-35 0 -59.5 -21t-24.5 -63q0 -25 15.5 -39t48.5 -14zM208 419q71 0 110.5 -38t39.5 -120q0 -34 -6 -70q-17 -100 -68.5 -151t-135.5 -51q-53 0 -89 18t-51 51q1 1 10.5 8t20 15t20 14.5t10.5 7.5 q19 -44 79 -44q52 0 81 37.5t41 110.5l1 6q-19 -32 -47 -49t-69 -17q-56 0 -87 28t-31 80q0 36 11.5 66t33 51.5t53.5 34t73 12.5z" />
<glyph unicode="&#x208a;" horiz-adv-x="311" d="M158 61h-66l14 90h-89l9 59h88l15 91h65l-14 -91h89l-9 -59h-88z" />
<glyph unicode="&#x208b;" horiz-adv-x="311" d="M269 210l-9 -59h-243l9 59h243z" />
<glyph unicode="&#x208c;" horiz-adv-x="311" d="M276 255l-9 -60h-242l9 60h242zM262 165l-8 -61h-243l8 61h243z" />
<glyph unicode="&#x208d;" horiz-adv-x="218" d="M143 -75q-67 6 -98.5 50t-31.5 126q0 33 6 74q16 116 65 178t136 70l-2 -69q-25 -3 -45.5 -14t-36.5 -32t-28 -53.5t-19 -79.5q-4 -20 -5 -39.5t-1 -35.5q0 -54 19.5 -78t57.5 -30z" />
<glyph unicode="&#x208e;" horiz-adv-x="218" d="M42 356l17 67q67 -6 98.5 -50t31.5 -126q0 -34 -6 -74q-16 -116 -65 -178t-136 -70l2 69q25 3 45.5 14t36.5 32t27.5 53.5t19.5 79.5q4 20 5 39.5t1 35.5q0 54 -19.5 78t-57.5 30z" />
<glyph unicode="&#x20ac;" horiz-adv-x="677" d="M454 311l-29 -73h-230q1 -45 13 -75t33 -48.5t51 -26t68 -7.5q56 0 100.5 20t80.5 76l80 -59q-24 -38 -53.5 -63t-63 -40t-72 -21.5t-81.5 -6.5q-132 0 -199 58t-70 193h-86l12 73h75q1 11 3 25.5t4 26.5h-74l12 73h77q36 145 122 211t216 66q100 0 156 -39.5t79 -117.5 l-100 -46q-17 62 -51.5 86t-92.5 24q-37 0 -69.5 -9t-59.5 -30t-48.5 -56.5t-36.5 -88.5h286l-30 -73h-272q-4 -12 -5 -25.5t-2 -26.5h257z" />
<glyph unicode="&#x2122;" horiz-adv-x="685" d="M87 700h252l-9 -58h-92l-37 -236h-65l37 236h-96zM664 406h-63l29 182l-104 -182h-56l-51 179l-27 -179h-64l47 294h71l61 -225l130 225h74z" />
<glyph unicode="&#x2153;" horiz-adv-x="844" d="M64 0zM601 -11q-57 0 -92.5 21.5t-52.5 63.5l67 39q12 -26 31 -39.5t52 -13.5q37 0 61 17.5t24 51.5q0 23 -14.5 34t-46.5 11h-49l11 67h48q29 0 48.5 17.5t19.5 44.5q0 24 -14.5 34t-46.5 10q-28 0 -47.5 -9.5t-39.5 -37.5l-54 44q27 38 64.5 56.5t91.5 18.5 q134 0 134 -97q0 -38 -18.5 -67.5t-52.5 -46.5q23 -8 36.5 -26t13.5 -50q0 -30 -12 -56t-34.5 -45.5t-54.5 -30.5t-73 -11zM176 293h-86l48 306l-53 -31l-21 70l121 66h55zM639 700l-444 -700h-103l445 700h102z" />
<glyph unicode="&#x2154;" horiz-adv-x="967" d="M31 0zM723 -11q-57 0 -92.5 21.5t-52.5 63.5l67 39q12 -26 31 -39.5t52 -13.5q37 0 61 17.5t24 51.5q0 23 -14.5 34t-46.5 11h-49l11 67h48q29 0 48.5 17.5t19.5 44.5q0 24 -14.5 34t-46.5 10q-28 0 -47.5 -9.5t-39.5 -37.5l-54 44q27 38 64.5 56.5t91.5 18.5 q134 0 134 -97q0 -38 -18.5 -67.5t-52.5 -46.5q23 -8 36.5 -26t13.5 -50q0 -30 -12 -56t-34.5 -45.5t-54.5 -30.5t-73 -11zM31 293l11 68l150 120q42 33 65.5 58t23.5 55q0 45 -62 45q-31 0 -52 -13.5t-41 -42.5l-51 45q31 45 70 64.5t89 19.5q63 0 100 -23.5t37 -76.5 q0 -24 -7.5 -46t-23 -43t-39 -42.5t-54.5 -46.5l-83 -65l186 1l-11 -77h-308zM762 700l-444 -700h-103l445 700h102z" />
<glyph unicode="&#x2155;" horiz-adv-x="838" d="M64 0zM176 293h-86l48 306l-53 -31l-21 70l121 66h55zM603 337l-23 -91q19 8 37.5 11.5t41.5 3.5q56 0 89.5 -25t33.5 -84q0 -36 -12.5 -65.5t-36 -51.5t-57 -34t-76.5 -12q-54 0 -91 20t-55 59l65 44q13 -26 32.5 -39.5t51.5 -13.5q42 0 68 23t26 61q0 29 -18 42t-50 13 q-47 0 -85 -27l-49 26l52 211h259l-11 -71h-192zM639 700l-444 -700h-103l445 700h102z" />
<glyph unicode="&#x2156;" horiz-adv-x="962" d="M31 0zM31 293l11 68l150 120q42 33 65.5 58t23.5 55q0 45 -62 45q-31 0 -52 -13.5t-41 -42.5l-51 45q31 45 70 64.5t89 19.5q63 0 100 -23.5t37 -76.5q0 -24 -7.5 -46t-23 -43t-39 -42.5t-54.5 -46.5l-83 -65l186 1l-11 -77h-308zM727 337l-23 -91q19 8 37.5 11.5 t41.5 3.5q56 0 89.5 -25t33.5 -84q0 -36 -12.5 -65.5t-36 -51.5t-57 -34t-76.5 -12q-54 0 -91 20t-55 59l65 44q13 -26 32.5 -39.5t51.5 -13.5q42 0 68 23t26 61q0 29 -18 42t-50 13q-47 0 -85 -27l-49 26l52 211h259l-11 -71h-192zM762 700l-444 -700h-103l445 700h102z " />
<glyph unicode="&#x2157;" horiz-adv-x="958" d="M35 0zM180 282q-57 0 -92.5 21.5t-52.5 63.5l67 39q12 -26 31 -39.5t52 -13.5q37 0 61 17.5t24 51.5q0 23 -14.5 34t-46.5 11h-49l11 67h48q29 0 48.5 17.5t19.5 44.5q0 24 -14.5 34t-46.5 10q-28 0 -47.5 -9.5t-39.5 -37.5l-54 44q27 38 64.5 56.5t91.5 18.5 q134 0 134 -97q0 -38 -18.5 -67.5t-52.5 -46.5q23 -8 36.5 -26t13.5 -50q0 -30 -12 -56t-34.5 -45.5t-54.5 -30.5t-73 -11zM723 337l-23 -91q19 8 37.5 11.5t41.5 3.5q56 0 89.5 -25t33.5 -84q0 -36 -12.5 -65.5t-36 -51.5t-57 -34t-76.5 -12q-54 0 -91 20t-55 59l65 44 q13 -26 32.5 -39.5t51.5 -13.5q42 0 68 23t26 61q0 29 -18 42t-50 13q-47 0 -85 -27l-49 26l52 211h259l-11 -71h-192zM757 700l-444 -700h-103l445 700h102z" />
<glyph unicode="&#x2158;" horiz-adv-x="986" d="M43 0zM751 337l-23 -91q19 8 37.5 11.5t41.5 3.5q56 0 89.5 -25t33.5 -84q0 -36 -12.5 -65.5t-36 -51.5t-57 -34t-76.5 -12q-54 0 -91 20t-55 59l65 44q13 -26 32.5 -39.5t51.5 -13.5q42 0 68 23t26 61q0 29 -18 42t-50 13q-47 0 -85 -27l-49 26l52 211h259l-11 -71h-192 zM787 700l-444 -700h-103l445 700h102zM43 384l9 60l165 257h85l-158 -242h128l26 154h81l-24 -154h55l-12 -75h-56l-14 -91h-82l15 91h-218z" />
<glyph unicode="&#x2159;" horiz-adv-x="876" d="M64 0zM176 293h-86l48 306l-53 -31l-21 70l121 66h55zM635 -11q-71 0 -110.5 38t-39.5 121q0 33 6 69q15 101 67.5 151.5t136.5 50.5q53 0 88 -19.5t48 -54.5l-61 -43q-18 47 -75 47q-29 0 -49.5 -10.5t-35 -30t-23.5 -46.5t-14 -60l-1 -9q17 30 47.5 46.5t68.5 16.5 q56 0 87 -27t31 -78q0 -32 -10.5 -61.5t-31.5 -52t-53.5 -35.5t-75.5 -13zM658 192q-35 0 -60 -20t-25 -58q0 -25 16 -40.5t48 -15.5q38 0 60.5 22.5t22.5 58.5q0 25 -15 39t-47 14zM639 700l-444 -700h-103l445 700h102z" />
<glyph unicode="&#x215a;" horiz-adv-x="991" d="M29 0zM178 630l-23 -91q19 8 37.5 11.5t41.5 3.5q56 0 89.5 -25t33.5 -84q0 -36 -12.5 -65.5t-36 -51.5t-57 -34t-76.5 -12q-54 0 -91 20t-55 59l65 44q13 -26 32.5 -39.5t51.5 -13.5q42 0 68 23t26 61q0 29 -18 42t-50 13q-47 0 -85 -27l-49 26l52 211h259l-11 -71h-192 zM750 -11q-71 0 -110.5 38t-39.5 121q0 33 6 69q15 101 67.5 151.5t136.5 50.5q53 0 88 -19.5t48 -54.5l-61 -43q-18 47 -75 47q-29 0 -49.5 -10.5t-35 -30t-23.5 -46.5t-14 -60l-1 -9q17 30 47.5 46.5t68.5 16.5q56 0 87 -27t31 -78q0 -32 -10.5 -61.5t-31.5 -52 t-53.5 -35.5t-75.5 -13zM773 192q-35 0 -60 -20t-25 -58q0 -25 16 -40.5t48 -15.5q38 0 60.5 22.5t22.5 58.5q0 25 -15 39t-47 14zM755 700l-444 -700h-103l445 700h102z" />
<glyph unicode="&#x215b;" horiz-adv-x="867" d="M64 0zM176 293h-86l48 306l-53 -31l-21 70l121 66h55zM616 -11q-142 0 -142 104q0 50 27 79.5t63 40.5q-43 21 -43 76q0 65 43.5 97.5t117.5 32.5q129 0 129 -96q0 -42 -20.5 -70.5t-54.5 -42.5q27 -10 42.5 -30t15.5 -53q0 -66 -48 -102t-130 -36zM655 244q34 0 55.5 17 t21.5 48q0 21 -15.5 32t-42.5 11q-35 0 -55.5 -16t-20.5 -47q0 -45 57 -45zM625 53q37 0 61 18t24 53q0 25 -17.5 37.5t-47.5 12.5q-38 0 -61.5 -18t-23.5 -53q0 -24 17 -37t48 -13zM639 700l-444 -700h-103l445 700h102z" />
<glyph unicode="&#x215c;" horiz-adv-x="986" d="M35 0zM180 282q-57 0 -92.5 21.5t-52.5 63.5l67 39q12 -26 31 -39.5t52 -13.5q37 0 61 17.5t24 51.5q0 23 -14.5 34t-46.5 11h-49l11 67h48q29 0 48.5 17.5t19.5 44.5q0 24 -14.5 34t-46.5 10q-28 0 -47.5 -9.5t-39.5 -37.5l-54 44q27 38 64.5 56.5t91.5 18.5 q134 0 134 -97q0 -38 -18.5 -67.5t-52.5 -46.5q23 -8 36.5 -26t13.5 -50q0 -30 -12 -56t-34.5 -45.5t-54.5 -30.5t-73 -11zM734 -11q-142 0 -142 104q0 50 27 79.5t63 40.5q-43 21 -43 76q0 65 43.5 97.5t117.5 32.5q129 0 129 -96q0 -42 -20.5 -70.5t-54.5 -42.5 q27 -10 42.5 -30t15.5 -53q0 -66 -48 -102t-130 -36zM773 244q34 0 55.5 17t21.5 48q0 21 -15.5 32t-42.5 11q-35 0 -55.5 -16t-20.5 -47q0 -45 57 -45zM743 53q37 0 61 18t24 53q0 25 -17.5 37.5t-47.5 12.5q-38 0 -61.5 -18t-23.5 -53q0 -24 17 -37t48 -13zM757 700 l-444 -700h-103l445 700h102z" />
<glyph unicode="&#x215d;" horiz-adv-x="983" d="M29 0zM730 -11q-142 0 -142 104q0 50 27 79.5t63 40.5q-43 21 -43 76q0 65 43.5 97.5t117.5 32.5q129 0 129 -96q0 -42 -20.5 -70.5t-54.5 -42.5q27 -10 42.5 -30t15.5 -53q0 -66 -48 -102t-130 -36zM769 244q34 0 55.5 17t21.5 48q0 21 -15.5 32t-42.5 11 q-35 0 -55.5 -16t-20.5 -47q0 -45 57 -45zM739 53q37 0 61 18t24 53q0 25 -17.5 37.5t-47.5 12.5q-38 0 -61.5 -18t-23.5 -53q0 -24 17 -37t48 -13zM178 630l-23 -91q19 8 37.5 11.5t41.5 3.5q56 0 89.5 -25t33.5 -84q0 -36 -12.5 -65.5t-36 -51.5t-57 -34t-76.5 -12 q-54 0 -91 20t-55 59l65 44q13 -26 32.5 -39.5t51.5 -13.5q42 0 68 23t26 61q0 29 -18 42t-50 13q-47 0 -85 -27l-49 26l52 211h259l-11 -71h-192zM755 700l-444 -700h-103l445 700h102z" />
<glyph unicode="&#x215e;" horiz-adv-x="911" d="M74 0zM659 -11q-142 0 -142 104q0 50 27 79.5t63 40.5q-43 21 -43 76q0 65 43.5 97.5t117.5 32.5q129 0 129 -96q0 -42 -20.5 -70.5t-54.5 -42.5q27 -10 42.5 -30t15.5 -53q0 -66 -48 -102t-130 -36zM698 244q34 0 55.5 17t21.5 48q0 21 -15.5 32t-42.5 11 q-35 0 -55.5 -16t-20.5 -47q0 -45 57 -45zM668 53q37 0 61 18t24 53q0 25 -17.5 37.5t-47.5 12.5q-38 0 -61.5 -18t-23.5 -53q0 -24 17 -37t48 -13zM91 293q7 49 24 96t40.5 90t53 80t63.5 66l-198 -1l12 76h293l-11 -65q-73 -54 -120.5 -145.5t-64.5 -196.5h-92zM683 700 l-444 -700h-103l445 700h102z" />
<glyph unicode="&#x215f;" horiz-adv-x="852" d="M64 0zM176 293h-86l48 306l-53 -31l-21 70l121 66h55zM647 700l-444 -700h-103l445 700h102z" />
<glyph unicode="&#x2212;" horiz-adv-x="505" d="M458 349l-13 -79h-399l13 79h399z" />
<glyph unicode="&#x2248;" horiz-adv-x="503" d="M359 402q20 0 52 6t59 23l-12 -80q-24 -13 -57.5 -19.5t-61.5 -6.5q-26 0 -46.5 5.5t-39.5 11.5t-39 11.5t-44 5.5q-20 0 -52.5 -5.5t-62.5 -22.5l13 80q24 13 56.5 19t60.5 6q27 0 48 -5.5t40.5 -11.5t40 -11.5t45.5 -5.5zM335 251q20 0 52 6t60 23l-12 -79 q-24 -13 -57.5 -19.5t-62.5 -6.5q-26 0 -46.5 5.5t-39.5 11.5t-38.5 11.5t-43.5 5.5q-21 0 -53.5 -5.5t-61.5 -22.5l13 79q24 13 56 19t60 6q27 0 48.5 -5.5t41 -11.5t39.5 -11.5t45 -5.5z" />
<glyph unicode="&#x2260;" horiz-adv-x="503" d="M468 422l-12 -79h-135l-58 -67h183l-13 -79h-238l-68 -79h-81l68 79h-80l13 79h135l58 67h-183l12 79h239l70 80h81l-70 -80h79z" />
<glyph unicode="&#x2264;" horiz-adv-x="506" d="M108 315l7 44l295 170l31 -64l-217 -129l175 -129l-49 -63zM46 0l12 79h330l-13 -79h-329z" />
<glyph unicode="&#x2265;" horiz-adv-x="503" d="M418 315l-295 -171l-32 65l218 128l-175 128l49 64l242 -170zM388 79l-13 -79h-329l12 79h330z" />
<glyph unicode="&#x25fc;" horiz-adv-x="490" d="M0 490h490v-490h-490v490z" />
<glyph unicode="&#xf6c3;" horiz-adv-x="600" d="M239 -301l-13 45q26 8 45 27t27 47q-30 -1 -46 12.5t-16 39.5q0 35 20.5 52t51.5 17q28 0 44 -15t16 -49q0 -30 -9.5 -59t-26.5 -53t-40.5 -41t-52.5 -23z" />
<glyph horiz-adv-x="472" d="M215 -65l131 831h102l-131 -831h-102zM48 -65l131 831h101l-131 -831h-101z" />
<glyph horiz-adv-x="217" d="M213 513l-26 -47q-51 19 -75.5 61t-24.5 98t19 80t50 24q32 0 50 -16.5t18 -45.5q0 -37 -21 -53t-52 -13q2 -29 18 -53t44 -35z" />
<glyph horiz-adv-x="389" d="M213 513l-26 -47q-51 19 -75.5 61t-24.5 98t19 80t50 24q32 0 50 -16.5t18 -45.5q0 -15 -5 -28t-14 -22.5t-22.5 -13.5t-31.5 0q2 -31 18 -55t44 -35zM386 513l-25 -47q-51 19 -76 61t-25 98t19 80t51 24q31 0 49.5 -16.5t18.5 -45.5t-18.5 -50t-54.5 -14q1 -31 17 -55 t44 -35z" />
<glyph horiz-adv-x="610" d="M421 -218q-22 0 -42.5 4.5t-36 16.5t-24.5 31.5t-8 49.5q1 46 25 79.5t56 50.5l5 64q-62 -91 -177 -91q-83 0 -127.5 49t-44.5 143q0 14 1.5 31t3.5 34q17 130 82 194.5t167 64.5q54 0 93.5 -22t56.5 -67l21 77h92l-77 -491h-2q-24 -2 -42.5 -12t-31 -24.5t-19 -32 t-6.5 -34.5q-1 -25 13 -34.5t37 -9.5q17 0 34 4t32 13l10 -64q-41 -24 -91 -24zM416 246q2 14 3 27t1 24q0 63 -29 91t-77 28q-61 0 -100.5 -40.5t-53.5 -131.5q-2 -13 -3.5 -28t-1.5 -26q0 -115 104 -115q28 0 53.5 10t46.5 30.5t35.5 53t21.5 77.5z" />
<glyph horiz-adv-x="610" d="M416 246q2 14 3 27t1 24q0 63 -29 91t-77 28q-61 0 -100.5 -40.5t-53.5 -131.5q-2 -13 -3.5 -28t-1.5 -26q0 -115 104 -115q28 0 53.5 10t46.5 30.5t35.5 53t21.5 77.5zM219 -13q-83 0 -127.5 49t-44.5 143q0 14 1.5 31t3.5 34q17 130 82 194.5t167 64.5q54 0 93.5 -22 t56.5 -67l21 77h92l-77 -491h-97l6 78q-62 -91 -177 -91z" />
<glyph horiz-adv-x="610" d="M47 0zM416 246q2 14 3 27t1 24q0 63 -29 91t-77 28q-61 0 -100.5 -40.5t-53.5 -131.5q-2 -13 -3.5 -28t-1.5 -26q0 -115 104 -115q28 0 53.5 10t46.5 30.5t35.5 53t21.5 77.5zM219 -13q-83 0 -127.5 49t-44.5 143q0 14 1.5 31t3.5 34q17 130 82 194.5t167 64.5 q54 0 93.5 -22t56.5 -67l21 77h92l-77 -491h-97l6 78q-62 -91 -177 -91zM296 573l-102 117l1 6h130l58 -119v-4h-87z" />
<glyph horiz-adv-x="610" d="M47 0zM416 246q2 14 3 27t1 24q0 63 -29 91t-77 28q-61 0 -100.5 -40.5t-53.5 -131.5q-2 -13 -3.5 -28t-1.5 -26q0 -115 104 -115q28 0 53.5 10t46.5 30.5t35.5 53t21.5 77.5zM219 -13q-83 0 -127.5 49t-44.5 143q0 14 1.5 31t3.5 34q17 130 82 194.5t167 64.5 q54 0 93.5 -22t56.5 -67l21 77h92l-77 -491h-97l6 78q-62 -91 -177 -91zM381 696h130l-1 -6l-134 -117h-93v4z" />
<glyph horiz-adv-x="610" d="M47 0zM343 638l-76 -65h-106v3l139 120h99l101 -120v-3h-103zM416 246q2 14 3 27t1 24q0 63 -29 91t-77 28q-61 0 -100.5 -40.5t-53.5 -131.5q-2 -13 -3.5 -28t-1.5 -26q0 -115 104 -115q28 0 53.5 10t46.5 30.5t35.5 53t21.5 77.5zM219 -13q-83 0 -127.5 49t-44.5 143 q0 14 1.5 31t3.5 34q17 130 82 194.5t167 64.5q54 0 93.5 -22t56.5 -67l21 77h92l-77 -491h-97l6 78q-62 -91 -177 -91z" />
<glyph horiz-adv-x="610" d="M47 0zM428 576q-59 0 -59 52q0 38 21 56.5t53 18.5q60 0 60 -53q0 -37 -20.5 -55.5t-54.5 -18.5zM242 576q-59 0 -59 52q0 39 21.5 57t53.5 18q59 0 59 -52q0 -38 -20 -56.5t-55 -18.5zM416 246q2 14 3 27t1 24q0 63 -29 91t-77 28q-61 0 -100.5 -40.5t-53.5 -131.5 q-2 -13 -3.5 -28t-1.5 -26q0 -115 104 -115q28 0 53.5 10t46.5 30.5t35.5 53t21.5 77.5zM219 -13q-83 0 -127.5 49t-44.5 143q0 14 1.5 31t3.5 34q17 130 82 194.5t167 64.5q54 0 93.5 -22t56.5 -67l21 77h92l-77 -491h-97l6 78q-62 -91 -177 -91z" />
<glyph horiz-adv-x="610" d="M47 0zM416 246q2 14 3 27t1 24q0 63 -29 91t-77 28q-61 0 -100.5 -40.5t-53.5 -131.5q-2 -13 -3.5 -28t-1.5 -26q0 -115 104 -115q28 0 53.5 10t46.5 30.5t35.5 53t21.5 77.5zM219 -13q-83 0 -127.5 49t-44.5 143q0 14 1.5 31t3.5 34q17 130 82 194.5t167 64.5 q54 0 93.5 -22t56.5 -67l21 77h92l-77 -491h-97l6 78q-62 -91 -177 -91zM438 690h74q-2 -31 -12.5 -52t-26.5 -33.5t-34.5 -18t-35.5 -5.5q-21 0 -38 6t-31.5 13.5t-27.5 13.5t-26 6q-18 0 -25.5 -11t-9.5 -25h-75q3 31 13.5 52t25.5 33.5t33 18t36 5.5q21 0 38 -6t32 -13.5 t28.5 -13.5t26.5 -6q17 0 25 11t10 25z" />
<glyph horiz-adv-x="610" d="M47 0zM416 246q2 14 3 27t1 24q0 63 -29 91t-77 28q-61 0 -100.5 -40.5t-53.5 -131.5q-2 -13 -3.5 -28t-1.5 -26q0 -115 104 -115q28 0 53.5 10t46.5 30.5t35.5 53t21.5 77.5zM219 -13q-83 0 -127.5 49t-44.5 143q0 14 1.5 31t3.5 34q17 130 82 194.5t167 64.5 q54 0 93.5 -22t56.5 -67l21 77h92l-77 -491h-97l6 78q-62 -91 -177 -91zM332 548q-39 0 -64.5 21.5t-25.5 61.5q0 25 8.5 45.5t24 35.5t36 23t44.5 8q41 0 65.5 -22.5t24.5 -60.5q0 -51 -32.5 -81.5t-80.5 -30.5zM352 695q-23 0 -39 -16.5t-16 -43.5q0 -18 10.5 -29 t27.5 -11q21 0 38 16.5t17 44.5q0 18 -10.5 28.5t-27.5 10.5z" />
<glyph horiz-adv-x="610" d="M47 0zM416 246q2 14 3 27t1 24q0 63 -29 91t-77 28q-61 0 -100.5 -40.5t-53.5 -131.5q-2 -13 -3.5 -28t-1.5 -26q0 -115 104 -115q28 0 53.5 10t46.5 30.5t35.5 53t21.5 77.5zM219 -13q-83 0 -127.5 49t-44.5 143q0 14 1.5 31t3.5 34q17 130 82 194.5t167 64.5 q54 0 93.5 -22t56.5 -67l21 77h92l-77 -491h-97l6 78q-62 -91 -177 -91zM481 666l-12 -69h-262l11 69h263z" />
<glyph horiz-adv-x="610" d="M47 0zM416 246q2 14 3 27t1 24q0 63 -29 91t-77 28q-61 0 -100.5 -40.5t-53.5 -131.5q-2 -13 -3.5 -28t-1.5 -26q0 -115 104 -115q28 0 53.5 10t46.5 30.5t35.5 53t21.5 77.5zM219 -13q-83 0 -127.5 49t-44.5 143q0 14 1.5 31t3.5 34q17 130 82 194.5t167 64.5 q54 0 93.5 -22t56.5 -67l21 77h92l-77 -491h-97l6 78q-62 -91 -177 -91zM424 696h77q-5 -37 -19 -62t-35 -40t-50 -21t-64 -6t-62.5 6t-44.5 21t-24 40t-2 62h77q-7 -38 9 -51.5t53 -13.5t58 13.5t27 51.5z" />
<glyph horiz-adv-x="617" d="M384 10l10 63q-34 -44 -77.5 -62t-91.5 -18q-84 0 -123 41t-39 113q0 23 3 46l48 298h111l-44 -274q-3 -21 -3 -41q0 -92 89 -92q60 0 100.5 42t54.5 121l39 244h111l-75 -475q-9 -59 -34 -103t-62 -73t-84.5 -43.5t-102.5 -14.5q-72 0 -124 24.5t-75 88.5l76 56 q17 -46 48 -64.5t80 -18.5q65 0 109 33t56 109z" />
<glyph horiz-adv-x="617" d="M15 0zM384 10l10 63q-34 -44 -77.5 -62t-91.5 -18q-84 0 -123 41t-39 113q0 23 3 46l48 298h111l-44 -274q-3 -21 -3 -41q0 -92 89 -92q60 0 100.5 42t54.5 121l39 244h111l-75 -475q-9 -59 -34 -103t-62 -73t-84.5 -43.5t-102.5 -14.5q-72 0 -124 24.5t-75 88.5l76 56 q17 -46 48 -64.5t80 -18.5q65 0 109 33t56 109zM397 696h130l-1 -6l-134 -117h-93v4z" />
<glyph horiz-adv-x="617" d="M15 0zM359 638l-76 -65h-106v3l139 120h99l101 -120v-3h-103zM384 10l10 63q-34 -44 -77.5 -62t-91.5 -18q-84 0 -123 41t-39 113q0 23 3 46l48 298h111l-44 -274q-3 -21 -3 -41q0 -92 89 -92q60 0 100.5 42t54.5 121l39 244h111l-75 -475q-9 -59 -34 -103t-62 -73 t-84.5 -43.5t-102.5 -14.5q-72 0 -124 24.5t-75 88.5l76 56q17 -46 48 -64.5t80 -18.5q65 0 109 33t56 109z" />
<glyph horiz-adv-x="617" d="M15 0zM445 576q-59 0 -59 52q0 38 21 56.5t53 18.5q60 0 60 -53q0 -37 -20.5 -55.5t-54.5 -18.5zM259 576q-59 0 -59 52q0 39 21.5 57t53.5 18q59 0 59 -52q0 -38 -20 -56.5t-55 -18.5zM384 10l10 63q-34 -44 -77.5 -62t-91.5 -18q-84 0 -123 41t-39 113q0 23 3 46 l48 298h111l-44 -274q-3 -21 -3 -41q0 -92 89 -92q60 0 100.5 42t54.5 121l39 244h111l-75 -475q-9 -59 -34 -103t-62 -73t-84.5 -43.5t-102.5 -14.5q-72 0 -124 24.5t-75 88.5l76 56q17 -46 48 -64.5t80 -18.5q65 0 109 33t56 109z" />
<glyph horiz-adv-x="386" d="M313 461l55 -38q-26 -43 -66 -61t-91 -18q-72 0 -110.5 34t-38.5 106q0 10 1 20.5t3 22.5q14 96 64.5 141t127.5 45q60 0 92 -24t46 -66l-66 -35q-8 26 -25 41t-53 15q-86 0 -104 -117q-2 -13 -2.5 -21t-0.5 -19q0 -41 18 -58.5t59 -17.5q29 0 51 10.5t40 39.5z" />
<glyph horiz-adv-x="438" d="M320 529q3 18 3 35q0 43 -19.5 62.5t-51.5 19.5q-42 0 -68.5 -27.5t-36.5 -90.5q-2 -11 -3 -20t-1 -18q0 -79 70 -79q40 0 69 28t38 90zM241 713q38 0 65.5 -16.5t39.5 -49.5l15 54h70l-55 -346h-73l3 53q-21 -31 -52 -47.5t-70 -16.5q-60 0 -91.5 34.5t-31.5 102.5 q0 20 3 46q12 93 58.5 139.5t118.5 46.5z" />
<glyph horiz-adv-x="600" d="M316 465h-75l43 235h102z" />
<glyph horiz-adv-x="234" d="M30 0l94 496h85l-62 -496h-117zM198 706q29 0 44.5 -15t15.5 -41q0 -38 -21.5 -57.5t-55.5 -19.5q-61 0 -61 56q0 38 21.5 57.5t56.5 19.5z" />
<glyph horiz-adv-x="498" d="M22 163q0 113 62.5 174.5t168.5 72.5l17 93h98l-23 -162h-49q-74 0 -120 -39.5t-46 -122.5q0 -47 31.5 -71.5t93.5 -24.5q53 0 94 22t80 82l66 -51q-45 -76 -109.5 -110t-152.5 -34q-101 0 -156 43.5t-55 127.5zM351 713q61 0 61 -56q0 -38 -21.5 -57t-55.5 -19 q-61 0 -61 56q0 38 21.5 57t55.5 19z" />
<glyph horiz-adv-x="374" d="M333 305l-15 -91h-277l15 91h277z" />
<glyph horiz-adv-x="682" d="M640 305l-14 -91h-584l14 91h584z" />
<glyph horiz-adv-x="727" d="M334 -13q-129 0 -195.5 66t-66.5 203q0 23 1.5 46t5.5 49q13 96 42 165t75 112.5t108 64t141 20.5q102 0 158.5 -36.5t81.5 -109.5l-99 -47q-19 54 -54 76.5t-97 22.5q-47 0 -86 -12.5t-69.5 -43.5t-52 -83t-33.5 -130q-9 -54 -9 -95q0 -50 11 -83.5t32.5 -53.5t52.5 -29 t71 -9q37 0 70.5 10t60.5 32.5t45.5 59t26.5 90.5h-168l14 90h278l-11 -74q-22 -146 -102.5 -223.5t-231.5 -77.5z" />
<glyph horiz-adv-x="658" d="M60 0l111 700h116l-111 -700h-116zM471 0l-232 339l1 3l334 358h137l-342 -353l246 -347h-144z" />
<glyph horiz-adv-x="540" d="M367 0l-177 234l-37 -234h-111l111 700h112l-73 -457l242 248h123l-248 -246l181 -245h-123z" />
<glyph horiz-adv-x="793" d="M69 4zM637 104q-51 -48 -117.5 -74t-152.5 -26q-72 0 -127.5 19.5t-93.5 56t-57.5 89t-19.5 117.5q0 89 29 163.5t81.5 128.5t125.5 84t161 30q68 0 120.5 -18t88 -52t54 -82t18.5 -108q0 -55 -13.5 -100t-38 -77.5t-60 -50.5t-78.5 -18q-38 0 -60 15t-27 47 q-20 -32 -52.5 -50.5t-77.5 -18.5q-46 0 -74 21.5t-28 64.5q0 54 41 89t125 35h77q1 5 1.5 10.5t0.5 10.5q0 33 -19 45.5t-53 12.5t-59 -11.5t-42 -29.5l-29 44q51 59 147 59q28 0 52.5 -5.5t41.5 -18.5t27 -34t10 -51q0 -15 -3 -34l-14 -89q-1 -5 -2 -12.5t-1 -12.5 q0 -41 42 -41q24 0 45.5 13t38 38.5t26.5 63t10 85.5q0 55 -17 96t-48 68t-74.5 40t-96.5 13q-71 0 -134.5 -23.5t-111.5 -69.5t-76.5 -114t-28.5 -157q0 -60 18 -105t51.5 -74t80.5 -43.5t105 -14.5q72 0 134 21.5t110 66.5zM364 234q43 0 71 27.5t38 76.5l-73 1 q-90 0 -90 -64q0 -41 54 -41z" />
<glyph horiz-adv-x="701" d="M84 350q13 95 38.5 163.5t66 113t96.5 65.5t129 21q124 0 182.5 -60.5t58.5 -191.5q0 -26 -2 -53t-6 -58q-27 -188 -107.5 -275.5t-226.5 -87.5q-122 0 -180.5 59t-58.5 189q0 26 2.5 54.5t7.5 60.5zM544 458q0 90 -35 126.5t-101 36.5q-41 0 -75 -13.5t-60 -45 t-45.5 -83.5t-32.5 -130q-5 -32 -7.5 -59.5t-2.5 -51.5q0 -90 35 -125t100 -35q42 0 76 13t60.5 44.5t46 84t31.5 131.5q5 31 7.5 57.5t2.5 49.5z" />
<glyph horiz-adv-x="356" d="M203 0h-113l89 562l-99 -60l-31 91l191 109h74z" />
<glyph horiz-adv-x="598" d="M11 0l14 96l261 212q43 35 75 64t53 56t31 53t10 55q0 43 -28.5 63.5t-80.5 20.5q-64 0 -106.5 -25.5t-80.5 -79.5l-70 57q51 75 115.5 108t155.5 33q102 0 156.5 -39.5t54.5 -118.5q0 -40 -12 -75.5t-38 -72.5t-67 -77t-99 -88l-183 -147l360 1l-15 -96h-506z" />
<glyph horiz-adv-x="605" d="M247 -13q-91 0 -147.5 34.5t-84.5 100.5l89 52q20 -50 56.5 -73t94.5 -23q38 0 69.5 9t54.5 28t35.5 47.5t12.5 66.5q0 42 -27 64.5t-84 22.5h-92l15 92h89q27 0 51 9t41.5 25.5t27.5 40.5t10 54q0 44 -30.5 64t-87.5 20q-53 0 -92.5 -20t-75.5 -68l-70 61 q46 62 108 90.5t153 28.5q101 0 155 -39t54 -118q0 -60 -31.5 -110.5t-89.5 -80.5q43 -18 64.5 -49t21.5 -79q0 -53 -19.5 -99t-56.5 -79.5t-91 -52.5t-123 -19z" />
<glyph horiz-adv-x="651" d="M18 171l13 79l292 450h114l-285 -431h260l48 300h109l-48 -300h98l-15 -98h-99l-27 -171h-109l27 171h-378z" />
<glyph horiz-adv-x="591" d="M242 605l-48 -190q32 17 70.5 26t78.5 9q44 0 81.5 -10.5t65.5 -32.5t43.5 -56t15.5 -80q0 -63 -21 -115t-61 -89.5t-97 -58.5t-129 -21q-83 0 -142.5 36t-87.5 101l87 55q42 -103 153 -103q40 0 74.5 13t59 36t38.5 56t14 74q0 55 -35 81.5t-96 26.5q-49 0 -89.5 -15.5 t-75.5 -41.5l-62 34l90 360h418l-15 -95h-330z" />
<glyph horiz-adv-x="658" d="M321 -13q-56 0 -101 15t-76.5 47t-49 81.5t-17.5 119.5q0 22 1.5 45.5t5.5 48.5q26 186 113 277.5t226 91.5q87 0 143 -31t77 -90l-86 -57q-16 42 -50 65t-88 23t-92 -22t-64.5 -60t-42.5 -88.5t-25 -107.5l-4 -21q29 51 83 83t123 32q95 0 148.5 -46.5t53.5 -132.5 q0 -56 -18 -105.5t-53 -87t-87 -59t-120 -21.5zM365 352q-35 0 -66 -11t-54.5 -32t-37 -51t-13.5 -67q0 -52 33.5 -84t93.5 -32q75 0 120 46t45 124q0 50 -29 78.5t-92 28.5z" />
<glyph horiz-adv-x="511" d="M113 0q13 84 42 168.5t70 163t93.5 148t113.5 122.5l-347 -2l16 100h479l-15 -94q-62 -38 -116.5 -103t-98 -146.5t-74 -173.5t-44.5 -183h-119z" />
<glyph horiz-adv-x="645" d="M282 -13q-113 0 -172 45.5t-59 128.5q0 42 12.5 76.5t34.5 60.5t51.5 43t62.5 25q-40 17 -61.5 48t-21.5 79q0 54 18.5 95.5t52.5 69t82.5 41.5t107.5 14q103 0 156.5 -38.5t53.5 -116.5q0 -74 -36 -123.5t-98 -72.5q48 -14 76.5 -47.5t28.5 -90.5q0 -55 -20 -99 t-57.5 -74.5t-91.5 -47t-120 -16.5zM346 408q29 0 56 8.5t47.5 25.5t32.5 42t12 57q0 43 -29.5 65t-84.5 22q-66 0 -107 -33t-41 -98q0 -42 28.5 -65.5t85.5 -23.5zM292 73q33 0 63.5 9t54 27.5t38 45.5t14.5 63q0 48 -35 73t-95 25q-37 0 -68 -9.5t-53.5 -28t-35 -45.5 t-12.5 -61q0 -50 33 -74.5t96 -24.5z" />
<glyph horiz-adv-x="656" d="M326 342q35 0 66 11.5t54.5 33t37 52.5t13.5 69q0 52 -33 83.5t-94 31.5q-37 0 -67.5 -12t-52 -34t-33.5 -53.5t-12 -70.5q0 -51 29 -81t92 -30zM372 713q55 0 100 -15t76.5 -47t48.5 -82t17 -120q0 -51 -9 -106q-28 -180 -115 -268t-221 -88q-88 0 -144 30.5t-79 87.5 l85 57q17 -43 53.5 -64t88.5 -21q54 0 92 22t64.5 60t42.5 88.5t25 107.5l3 21q-29 -56 -83.5 -88.5t-123.5 -32.5q-95 0 -147.5 48t-52.5 136q0 55 17.5 104.5t52 87t87 60t122.5 22.5z" />
<glyph d="M44 300q22 165 101.5 239t209.5 74q112 0 172 -55t60 -175q0 -20 -1.5 -40.5t-5.5 -43.5q-23 -162 -102.5 -237t-209.5 -75q-112 0 -171.5 54.5t-59.5 174.5q0 20 1.5 40.5t5.5 43.5zM481 381q0 79 -34.5 110t-98.5 31q-39 0 -71 -10.5t-57 -36t-42 -68.5t-27 -107 q-4 -24 -6 -44.5t-2 -38.5q0 -79 35 -109t98 -30q39 0 71 10.5t56.5 36t42 68.5t27.5 107q4 23 6 43.5t2 37.5z" />
<glyph d="M71 99h158l57 363l-91 -60l-31 91l184 109h71l-79 -503h162l-15 -99h-432z" />
<glyph d="M42 0l14 93l224 168q37 28 66 51t49 43.5t31.5 40t14.5 41.5q7 45 -19.5 64.5t-78.5 19.5q-53 0 -91.5 -24t-70.5 -76l-69 53q48 72 108 105.5t141 33.5q101 1 151.5 -40t42.5 -121q-3 -32 -16.5 -60.5t-38.5 -57.5t-63 -61.5t-90 -71.5l-149 -112l325 2l-15 -91h-466z " />
<glyph d="M250 -113q-90 0 -146.5 34t-83.5 100l87 54q20 -51 56 -74.5t94 -23.5q76 0 124 37.5t48 115.5q0 42 -26.5 64t-83.5 22h-92l15 92h89q55 0 92 34t37 95q0 44 -30 64.5t-87 20.5q-54 0 -93 -20.5t-75 -68.5l-69 58q48 65 110 93.5t150 28.5q98 0 152.5 -39t54.5 -117 q0 -58 -30.5 -110.5t-88.5 -81.5q83 -34 83 -126q0 -54 -19 -100t-55.5 -80t-90 -53t-122.5 -19z" />
<glyph d="M-2 71l14 84l301 445h107l-292 -431h253l43 272h108l-44 -272h95l-16 -98h-94l-27 -171h-108l27 171h-367z" />
<glyph d="M244 505l-48 -190q32 17 70.5 26t78.5 9q43 0 80 -10.5t64.5 -32.5t43 -55.5t15.5 -79.5q0 -64 -21 -116.5t-60.5 -90t-96 -58t-127.5 -20.5q-83 0 -142 36t-87 101l86 55q42 -104 153 -104q40 0 74 13t58.5 37t38 57.5t13.5 75.5q0 54 -34 79t-95 25q-50 0 -90 -15 t-75 -41l-61 34l89 360h415l-15 -95h-327z" />
<glyph d="M284 -13q-55 0 -99 15t-75 47t-48 82t-17 119q0 26 1.5 52.5t6.5 53.5q27 180 114.5 268.5t218.5 88.5q87 0 142.5 -31.5t76.5 -90.5l-85 -56q-17 45 -51.5 66.5t-85.5 21.5q-54 0 -92 -22t-64 -60t-42 -88.5t-25 -107.5l-4 -23q29 54 83 85.5t122 31.5q94 0 146.5 -46.5 t52.5 -132.5q0 -55 -17 -104.5t-51.5 -87t-86.5 -59.5t-121 -22zM329 352q-35 0 -66 -11t-54 -32t-36.5 -51t-13.5 -67q0 -52 33 -84t93 -32q75 0 119.5 46t44.5 124q0 50 -29 78.5t-91 28.5z" />
<glyph d="M139 -100q13 84 42 168.5t70 163t93.5 148t112.5 122.5l-345 -2l15 100h477l-15 -94q-62 -38 -116 -103t-97.5 -146.5t-74 -173.5t-44.5 -183h-118z" />
<glyph d="M262 -13q-112 0 -171 45.5t-59 128.5q0 43 12.5 77t34.5 60t51.5 43t62.5 25q-39 17 -60.5 48t-21.5 79q0 54 18.5 95.5t52 69t81.5 41.5t107 14q102 0 155.5 -38.5t53.5 -116.5q0 -74 -36.5 -123.5t-96.5 -72.5q47 -14 75 -47.5t28 -88.5q0 -56 -20 -100t-57.5 -75 t-90.5 -47.5t-119 -16.5zM326 408q29 0 56 8.5t47.5 25.5t32.5 42t12 57q0 43 -29.5 65t-84.5 22q-66 0 -106.5 -33t-40.5 -98q0 -42 28.5 -65.5t84.5 -23.5zM272 73q32 0 62.5 9t54 27.5t38 45.5t14.5 63q0 48 -35 73t-95 25q-37 0 -68 -9.5t-53 -28t-34.5 -45.5t-12.5 -61 q0 -50 33 -74.5t96 -24.5z" />
<glyph d="M297 242q35 0 66 11.5t54 33t36.5 52.5t13.5 69q0 52 -33 83.5t-93 31.5q-37 0 -67 -12t-51.5 -34t-33.5 -53.5t-12 -70.5q0 -51 29 -81t91 -30zM342 613q55 0 99 -15t75.5 -47t48.5 -82t17 -120q0 -51 -9 -106q-27 -180 -113.5 -268t-219.5 -88q-88 0 -143.5 30.5 t-78.5 87.5l85 57q17 -43 53 -64t88 -21q54 0 91.5 22t63.5 60t42 88.5t25 107.5l4 21q-29 -55 -82.5 -88t-122.5 -33q-94 0 -146.5 48t-52.5 136q0 55 17 104.5t51.5 87t86.5 60t121 22.5z" />
<glyph horiz-adv-x="619" d="M59 300q22 165 97 239t200 74q107 0 163 -54t56 -172q0 -39 -6 -88q-23 -162 -99 -237t-200 -75q-107 0 -162.5 54t-55.5 171q0 20 1.5 41.5t5.5 46.5zM468 387q0 76 -31 105.5t-88 29.5q-35 0 -64 -10.5t-52 -36t-39 -68.5t-26 -107q-5 -26 -6.5 -47.5t-1.5 -40.5 q0 -76 30.5 -105t87.5 -29q36 0 65 10.5t52 36t39 68.5t27 107q4 25 5.5 46.5t1.5 40.5z" />
<glyph horiz-adv-x="326" d="M196 0h-110l73 462l-93 -60l-30 91l184 109h72z" />
<glyph horiz-adv-x="516" d="M3 0l13 83l218 181q37 31 64.5 56.5t45 48t26 44.5t8.5 46q0 33 -23.5 48.5t-64.5 15.5q-47 0 -82.5 -24.5t-66.5 -73.5l-69 53q43 69 100 102t138 33q85 0 132.5 -33.5t47.5 -99.5q0 -34 -11 -65.5t-34.5 -64t-59.5 -68t-85 -77.5l-141 -119l288 2l-14 -88h-430z" />
<glyph horiz-adv-x="578" d="M216 -114q-82 0 -136.5 35.5t-79.5 102.5l84 55q17 -50 50.5 -77t87.5 -27q37 0 68 9.5t53.5 28.5t35.5 47.5t13 67.5q0 42 -26 64.5t-82 22.5h-87l14 92h85q26 0 49 9t40 25.5t27 41t10 54.5q0 44 -29.5 65t-83.5 21q-50 0 -86.5 -19t-71.5 -71l-71 58q47 68 108 95 t144 27q96 0 149.5 -39t53.5 -116q0 -59 -30 -111.5t-89 -82.5q84 -35 84 -127q0 -54 -19 -100t-55 -79.5t-89 -52.5t-121 -19z" />
<glyph horiz-adv-x="610" d="M6 71l11 76l281 453h108l-273 -437h245l49 306h104l-48 -306h92l-15 -92h-91l-27 -171h-105l27 171h-358z" />
<glyph horiz-adv-x="559" d="M222 507l-48 -192q31 17 67 26t73 9q42 0 78 -10.5t62.5 -32.5t41.5 -56t15 -81q0 -62 -21 -114t-60 -89.5t-93.5 -58.5t-121.5 -21q-82 0 -138.5 33.5t-82.5 96.5l83 56q19 -46 54.5 -72t92.5 -26q38 0 70 13.5t55.5 37.5t36.5 57.5t13 74.5q0 54 -32 79t-94 25 q-45 0 -82.5 -15t-71.5 -41l-61 34l91 360h399l-15 -93h-311z" />
<glyph horiz-adv-x="631" d="M305 -13q-54 0 -97 15t-73.5 47t-47 82t-16.5 119q0 52 9 106q28 184 110 270.5t213 86.5q84 0 137 -31.5t73 -90.5l-81 -56q-16 45 -49.5 66.5t-82.5 21.5q-52 0 -88.5 -22t-61 -59.5t-40 -88t-24.5 -107.5l-3 -23q28 54 80 85t118 31q92 0 142.5 -46.5t50.5 -132.5 q0 -55 -16.5 -104.5t-50 -87t-84 -59.5t-118.5 -22zM347 353q-33 0 -62.5 -11t-51 -32t-34.5 -51t-13 -67q0 -51 31 -84t89 -33q35 0 64 12.5t50 35t32.5 53.5t11.5 69q0 50 -28.5 79t-88.5 29z" />
<glyph horiz-adv-x="480" d="M91 -100q13 84 40.5 168.5t66.5 163t89 148t107 122.5l-329 -2l15 100h455l-14 -94q-59 -38 -111 -103t-93.5 -146.5t-70.5 -173.5t-42 -183h-113z" />
<glyph horiz-adv-x="618" d="M263 -13q-107 0 -163 45t-56 127q0 43 12 78t33 60.5t49 42.5t59 26q-38 16 -58.5 47t-20.5 79q0 55 18.5 96t51.5 69t79.5 42t103.5 14q98 0 149.5 -38t51.5 -116q0 -75 -35.5 -124.5t-93.5 -71.5q45 -14 71.5 -47.5t26.5 -87.5q0 -56 -19.5 -101t-55.5 -76t-87.5 -47.5 t-115.5 -16.5zM327 408q29 0 54.5 9.5t44.5 27t30 42.5t11 56q0 85 -106 85q-63 0 -101.5 -33.5t-38.5 -99.5q0 -41 26 -64t80 -23zM273 74q32 0 61 9.5t51 28t35 46t13 62.5q0 47 -32 71.5t-89 24.5q-71 0 -115.5 -37.5t-44.5 -108.5q0 -48 31 -72t90 -24z" />
<glyph horiz-adv-x="632" d="M293 242q32 0 61.5 12.5t51.5 34.5t35 53t13 68q0 51 -31 82t-89 31q-32 0 -61 -10.5t-50.5 -31.5t-34 -53t-12.5 -75q0 -51 28.5 -81t88.5 -30zM337 613q54 0 97.5 -15t73.5 -46.5t46 -80.5t16 -118q0 -51 -9 -108q-27 -183 -110 -270.5t-215 -87.5q-81 0 -135.5 31 t-77.5 89l82 56q34 -86 136 -86q37 0 71.5 13t62.5 45t48.5 86t30.5 137l2 16q-27 -55 -77.5 -87t-119.5 -32q-91 0 -142 47.5t-51 135.5q0 61 18.5 111.5t53.5 87t85.5 56.5t113.5 20z" />
<glyph horiz-adv-x="433" d="M4 0zM213 219q77 0 113.5 -37t36.5 -115q0 -17 -1 -30.5t-4 -32.5q-16 -107 -63.5 -161t-140.5 -54q-77 0 -113.5 36.5t-36.5 114.5q0 14 1.5 30.5t3.5 33.5q16 112 65.5 163.5t138.5 51.5zM206 147q-21 0 -38 -7t-31 -24t-24 -44.5t-17 -68.5l-4 -32q-2 -16 -2 -27 q0 -48 18.5 -65.5t51.5 -17.5q21 0 39 7t32 23.5t24 44t17 68.5q2 17 4 32t2 27q0 47 -19 65.5t-53 18.5z" />
<glyph horiz-adv-x="238" d="M4 0zM116 -200h-86l48 306l-53 -31l-21 70l121 66h55z" />
<glyph horiz-adv-x="372" d="M0 0zM-29 -200l11 68l150 120q42 33 65.5 58t23.5 55q0 45 -62 45q-31 0 -52 -13.5t-41 -42.5l-51 45q31 45 70 64.5t89 19.5q63 0 100 -23.5t37 -76.5q0 -24 -7.5 -46t-23 -43t-39 -42.5t-54.5 -46.5l-83 -65l186 1l-11 -77h-308z" />
<glyph horiz-adv-x="372" d="M0 0zM118 -211q-57 0 -92.5 21.5t-52.5 63.5l67 39q12 -26 31 -39.5t52 -13.5q37 0 61 17.5t24 51.5q0 23 -14.5 34t-46.5 11h-49l11 67h48q29 0 48.5 17.5t19.5 44.5q0 24 -14.5 34t-46.5 10q-28 0 -47.5 -9.5t-39.5 -37.5l-54 44q27 38 64.5 56.5t91.5 18.5 q134 0 134 -97q0 -38 -18.5 -67.5t-52.5 -46.5q23 -8 36.5 -26t13.5 -50q0 -30 -12 -56t-34.5 -45.5t-54.5 -30.5t-73 -11z" />
<glyph horiz-adv-x="403" d="M0 0zM-19 -109l9 60l165 257h85l-158 -242h128l26 154h81l-24 -154h55l-12 -75h-56l-14 -91h-82l15 91h-218z" />
<glyph horiz-adv-x="363" d="M0 0zM117 137l-23 -91q19 8 37.5 11.5t41.5 3.5q56 0 89.5 -25t33.5 -84q0 -36 -12.5 -65.5t-36 -51.5t-57 -34t-76.5 -12q-54 0 -91 20t-55 59l65 44q13 -26 32.5 -39.5t51.5 -13.5q42 0 68 23t26 61q0 29 -18 42t-50 13q-47 0 -85 -27l-49 26l52 211h259l-11 -71h-192z " />
<glyph horiz-adv-x="407" d="M5 0zM155 -211q-71 0 -110.5 38t-39.5 121q0 33 6 69q15 101 67.5 151.5t136.5 50.5q53 0 88 -19.5t48 -54.5l-61 -43q-18 47 -75 47q-29 0 -49.5 -10.5t-35 -30t-23.5 -46.5t-14 -60l-1 -9q17 30 47.5 46.5t68.5 16.5q56 0 87 -27t31 -78q0 -32 -10.5 -61.5t-31.5 -52 t-53.5 -35.5t-75.5 -13zM178 -8q-35 0 -60 -20t-25 -58q0 -25 16 -40.5t48 -15.5q38 0 60.5 22.5t22.5 58.5q0 25 -15 39t-47 14z" />
<glyph horiz-adv-x="320" d="M13 0zM30 -200q7 49 24 96t40.5 90t53 80t63.5 66l-198 -1l12 76h293l-11 -65q-73 -54 -120.5 -145.5t-64.5 -196.5h-92z" />
<glyph horiz-adv-x="398" d="M0 0zM135 -211q-142 0 -142 104q0 50 27 79.5t63 40.5q-43 21 -43 76q0 65 43.5 97.5t117.5 32.5q129 0 129 -96q0 -42 -20.5 -70.5t-54.5 -42.5q27 -10 42.5 -30t15.5 -53q0 -66 -48 -102t-130 -36zM174 44q34 0 55.5 17t21.5 48q0 21 -15.5 32t-42.5 11 q-35 0 -55.5 -16t-20.5 -47q0 -45 57 -45zM144 -147q37 0 61 18t24 53q0 25 -17.5 37.5t-47.5 12.5q-38 0 -61.5 -18t-23.5 -53q0 -24 17 -37t48 -13z" />
<glyph horiz-adv-x="405" d="M0 0zM166 12q33 0 58.5 22t25.5 60q0 26 -16.5 40.5t-47.5 14.5q-35 0 -59.5 -21t-24.5 -63q0 -25 15.5 -39t48.5 -14zM188 219q71 0 110.5 -38t39.5 -120q0 -34 -6 -70q-17 -100 -68.5 -151t-135.5 -51q-53 0 -89 18t-51 51q1 1 10.5 8t20 15t20 14.5t10.5 7.5 q19 -44 79 -44q52 0 81 37.5t41 110.5l1 6q-19 -32 -47 -49t-69 -17q-56 0 -87 28t-31 80q0 36 11.5 66t33 51.5t53.5 34t73 12.5z" />
<glyph horiz-adv-x="311" d="M0 0zM136 -139h-66l14 90h-89l9 59h88l15 91h65l-14 -91h89l-9 -59h-88z" />
<glyph horiz-adv-x="311" d="M0 0zM247 10l-9 -59h-243l9 59h243z" />
<glyph horiz-adv-x="311" d="M0 0zM254 55l-9 -60h-242l9 60h242zM240 -35l-8 -61h-243l8 61h243z" />
<glyph horiz-adv-x="218" d="M0 0zM121 -275q-67 6 -98.5 50t-31.5 126q0 33 6 74q16 116 65 178t136 70l-2 -69q-25 -3 -45.5 -14t-36.5 -32t-28 -53.5t-19 -79.5q-4 -20 -5 -39.5t-1 -35.5q0 -54 19.5 -78t57.5 -30z" />
<glyph horiz-adv-x="218" d="M0 0zM25 156l17 67q67 -6 98.5 -50t31.5 -126q0 -34 -6 -74q-16 -116 -65 -178t-136 -70l2 69q25 3 45.5 14t36.5 32t27.5 53.5t19.5 79.5q4 20 5 39.5t1 35.5q0 54 -19.5 78t-57.5 30z" />
<glyph horiz-adv-x="279" d="M192 574q-30 0 -46.5 14t-16.5 41q0 39 22.5 58t56.5 19q30 0 46 -15t16 -42q0 -38 -21.5 -56.5t-56.5 -18.5zM122 491h111l-77 -491h-111z" />
<glyph horiz-adv-x="540" d="M42 0zM178 -302l-13 45q26 8 45 27t27 47q-30 -1 -46 12.5t-16 39.5q0 35 20.5 52t51.5 17q28 0 44 -15t16 -49q0 -30 -9.5 -59t-26.5 -53t-40.5 -41t-52.5 -23zM367 0l-177 234l-37 -234h-111l111 700h112l-73 -457l242 248h123l-248 -246l181 -245h-123z" />
<glyph horiz-adv-x="727" d="M72 0zM334 -13q-129 0 -195.5 66t-66.5 203q0 23 1.5 46t5.5 49q13 96 42 165t75 112.5t108 64t141 20.5q102 0 158.5 -36.5t81.5 -109.5l-99 -47q-19 54 -54 76.5t-97 22.5q-47 0 -86 -12.5t-69.5 -43.5t-52 -83t-33.5 -130q-9 -54 -9 -95q0 -50 11 -83.5t32.5 -53.5 t52.5 -29t71 -9q37 0 70.5 10t60.5 32.5t45.5 59t26.5 90.5h-168l14 90h278l-11 -74q-22 -146 -102.5 -223.5t-231.5 -77.5zM547 906h77q-5 -37 -19 -62t-35 -40t-50 -21t-64 -6t-62.5 6t-44.5 21t-24 40t-2 62h77q-7 -38 9 -51.5t53 -13.5t58 13.5t27 51.5z" />
<glyph horiz-adv-x="727" d="M72 0zM465 848l-76 -65h-106v3l139 120h99l101 -120v-3h-103zM334 -13q-129 0 -195.5 66t-66.5 203q0 23 1.5 46t5.5 49q13 96 42 165t75 112.5t108 64t141 20.5q102 0 158.5 -36.5t81.5 -109.5l-99 -47q-19 54 -54 76.5t-97 22.5q-47 0 -86 -12.5t-69.5 -43.5t-52 -83 t-33.5 -130q-9 -54 -9 -95q0 -50 11 -83.5t32.5 -53.5t52.5 -29t71 -9q37 0 70.5 10t60.5 32.5t45.5 59t26.5 90.5h-168l14 90h278l-11 -74q-22 -146 -102.5 -223.5t-231.5 -77.5z" />
<glyph horiz-adv-x="727" d="M72 0zM260 -301l-13 45q26 8 45 27t27 47q-30 -1 -46 12.5t-16 39.5q0 35 20.5 52t51.5 17q28 0 44 -15t16 -49q0 -30 -9.5 -59t-26.5 -53t-40.5 -41t-52.5 -23zM334 -13q-129 0 -195.5 66t-66.5 203q0 23 1.5 46t5.5 49q13 96 42 165t75 112.5t108 64t141 20.5 q102 0 158.5 -36.5t81.5 -109.5l-99 -47q-19 54 -54 76.5t-97 22.5q-47 0 -86 -12.5t-69.5 -43.5t-52 -83t-33.5 -130q-9 -54 -9 -95q0 -50 11 -83.5t32.5 -53.5t52.5 -29t71 -9q37 0 70.5 10t60.5 32.5t45.5 59t26.5 90.5h-168l14 90h278l-11 -74q-22 -146 -102.5 -223.5 t-231.5 -77.5z" />
<glyph horiz-adv-x="727" d="M72 0zM334 -13q-129 0 -195.5 66t-66.5 203q0 23 1.5 46t5.5 49q13 96 42 165t75 112.5t108 64t141 20.5q102 0 158.5 -36.5t81.5 -109.5l-99 -47q-19 54 -54 76.5t-97 22.5q-47 0 -86 -12.5t-69.5 -43.5t-52 -83t-33.5 -130q-9 -54 -9 -95q0 -50 11 -83.5t32.5 -53.5 t52.5 -29t71 -9q37 0 70.5 10t60.5 32.5t45.5 59t26.5 90.5h-168l14 90h278l-11 -74q-22 -146 -102.5 -223.5t-231.5 -77.5zM459 786q-60 0 -60 53q0 39 22 56.5t54 17.5q61 0 61 -54q0 -36 -21.5 -54.5t-55.5 -18.5z" />
<glyph horiz-adv-x="658" d="M60 0zM240 -301l-13 45q26 8 45 27t27 47q-30 -1 -46 12.5t-16 39.5q0 35 20.5 52t51.5 17q28 0 44 -15t16 -49q0 -30 -9.5 -59t-26.5 -53t-40.5 -41t-52.5 -23zM60 0l111 700h116l-111 -700h-116zM471 0l-232 339l1 3l334 358h137l-342 -353l246 -347h-144z" />
<glyph horiz-adv-x="440" d="M415 399l-14 -91h-344l14 91h344z" />
<glyph horiz-adv-x="579" d="M551 399l-14 -91h-481l14 91h481z" />
<glyph horiz-adv-x="776" d="M747 399l-14 -91h-677l15 91h676z" />
<glyph horiz-adv-x="579" d="M551 399l-14 -91h-481l14 91h481z" />
<glyph horiz-adv-x="277" d="M265 700l-111 -700h-110l111 700h110z" />
<glyph horiz-adv-x="644" d="M65 0l64 406h-85l14 85h85l9 51q14 95 63.5 137.5t125.5 42.5q23 0 49 -4t43 -14l-31 -84q-12 6 -24.5 9.5t-29.5 3.5q-35 0 -58 -20.5t-32 -74.5l-7 -47h134l-13 -85h-135l-63 -406h-109zM625 700l-111 -700h-110l111 700h110z" />
<glyph horiz-adv-x="644" d="M0 0z" />
</font>
</defs>
</svg>
