<?xml version="1.0" standalone="no"?>
<!DOCTYPE svg PUBLIC "-//W3C//DTD SVG 1.1//EN" "http://www.w3.org/Graphics/SVG/1.1/DTD/svg11.dtd" >
<svg xmlns="http://www.w3.org/2000/svg">
<metadata></metadata>
<defs>
<font id="honeywell_cond_webmedium" horiz-adv-x="535" >
<font-face units-per-em="1000" ascent="780" descent="-220" />
<missing-glyph horiz-adv-x="176" />
<glyph unicode="fi" horiz-adv-x="487" d="M381 580q-24 0 -38 15t-14 42t14 41t38 14t38 -14t14 -41t-14 -42t-38 -15zM266 422h-102v-422h-79v422h-66v65h66v70q0 42 10 73t28 50.5t42 29t51 9.5q38 0 68 -19l-20 -69q-23 12 -45 12q-23 0 -39 -18.5t-16 -68.5v-69h102v-65zM342 487h79v-487h-79v487z" />
<glyph unicode="fl" horiz-adv-x="499" d="M266 422h-102v-422h-79v422h-66v65h66v70q0 42 10 73t28 50.5t42 29t51 9.5q38 0 68 -19l-20 -69q-23 12 -45 12q-23 0 -39 -18.5t-16 -68.5v-69h102v-65zM421 109q0 -41 36 -41h28v-68h-48q-41 0 -68 22t-27 75v603h79v-591z" />
<glyph horiz-adv-x="132" />
<glyph horiz-adv-x="132" />
<glyph unicode="&#xd;" horiz-adv-x="132" />
<glyph unicode=" "  horiz-adv-x="176" />
<glyph unicode="&#x09;" horiz-adv-x="176" />
<glyph unicode="&#xa0;" horiz-adv-x="176" />
<glyph unicode="!" horiz-adv-x="180" d="M133 700l-13 -508h-61l-11 508h85zM90 -5q-24 0 -37.5 14.5t-13.5 40.5q0 27 13.5 41t37.5 14q51 0 51 -55q0 -26 -13 -40.5t-38 -14.5z" />
<glyph unicode="&#x22;" horiz-adv-x="270" d="M164 505l-6 207h70l-8 -207h-56zM108 505h-58l-8 207h71z" />
<glyph unicode="#" horiz-adv-x="556" d="M327 277l39 165h-128l-39 -165h128zM263 0l50 214h-129l-50 -214h-79l50 214h-79l16 63h77l39 165h-86l17 63h83l45 195h79l-44 -195h129l45 195h79l-45 -195h82l-16 -63h-81l-39 -165h90l-16 -63h-88l-50 -214h-79z" />
<glyph unicode="$" horiz-adv-x="442" d="M196 406v209q-42 -5 -60 -33t-18 -65q0 -77 78 -111zM249 79q41 7 61.5 34t20.5 68q0 45 -18 71t-64 47v-220zM249 -62h-53v76q-60 6 -106 41t-71 115l65 29q15 -54 43.5 -83t68.5 -37v241q-150 59 -150 191q0 70 39 115.5t111 52.5v87h53v-87q122 -12 153 -150l-63 -28 q-14 51 -37 77t-53 34v-227q78 -31 116 -76t38 -122q0 -76 -41 -119t-113 -51v-79z" />
<glyph unicode="%" horiz-adv-x="792" d="M31 0zM492 205q0 112 32 162.5t101 50.5q68 0 99 -50.5t31 -162.5t-31 -162.5t-99 -50.5q-69 0 -101 51.5t-32 161.5zM693 205q0 45 -4.5 75.5t-13.5 48.5t-21.5 26t-28.5 8q-34 0 -51.5 -34.5t-17.5 -122.5q0 -46 4.5 -76.5t13 -49t21.5 -26.5t30 -8q16 0 28.5 8 t21.5 26.5t13.5 49t4.5 75.5zM31 498q0 112 32 162.5t101 50.5q68 0 99 -50.5t31 -162.5t-31 -162.5t-99 -50.5q-69 0 -101 51.5t-32 161.5zM232 498q0 45 -4.5 75.5t-13.5 48.5t-21.5 26t-28.5 8q-34 0 -51.5 -34.5t-17.5 -122.5q0 -46 4.5 -76.5t13 -49t21.5 -26.5t30 -8 q16 0 28.5 8t21.5 26.5t13.5 49t4.5 75.5zM557 700l-255 -700h-72l254 700h73z" />
<glyph unicode="&#x26;" horiz-adv-x="539" d="M496 -16q-26 16 -55 36.5t-58 46.5q-34 -38 -77 -58.5t-96 -20.5q-39 0 -72.5 12t-57.5 35t-38 58t-14 81q0 61 25 108t80 92q-24 47 -38 93t-14 89q0 33 9 61.5t27 49.5t44.5 33t61.5 12q65 0 97 -35.5t32 -99.5q0 -30 -7 -57.5t-23 -53.5t-40.5 -52t-60.5 -54 q30 -48 68.5 -95.5t82.5 -89.5q27 57 41 134.5t13 165.5h71q-3 -221 -73 -349q28 -24 56 -44.5t54 -37.5zM151 556q0 -32 10 -67.5t29 -72.5q45 35 69 71t24 84q0 39 -19 57.5t-45 18.5q-32 0 -50 -23t-18 -68zM216 53q35 0 64 15.5t53 44.5q-47 45 -90 96.5t-77 106.5 q-28 -26 -46.5 -58t-18.5 -79q0 -60 31 -93t84 -33z" />
<glyph unicode="'" horiz-adv-x="155" d="M49 505l-7 207h71l-7 -207h-57z" />
<glyph unicode="(" horiz-adv-x="267" d="M241 -20l-26 -63q-91 20 -136 118t-45 287q0 190 45 288t136 118l26 -63q-34 -11 -59.5 -33.5t-42.5 -62.5t-25.5 -100t-8.5 -147q0 -86 8.5 -146.5t25.5 -100.5t42.5 -62.5t59.5 -32.5z" />
<glyph unicode=")" horiz-adv-x="267" d="M22 -20q34 10 59.5 32.5t42.5 62.5t25.5 100.5t8.5 146.5q0 87 -8.5 147t-25.5 100t-42.5 62.5t-59.5 33.5l26 63q91 -20 136 -118t45 -288q0 -189 -45 -287t-136 -118z" />
<glyph unicode="*" horiz-adv-x="320" d="M94 366l-49 36l69 111l-96 38l22 61l90 -42l-6 142h70l-6 -142l92 42l22 -60l-97 -39l70 -111l-50 -36l-67 107z" />
<glyph unicode="+" horiz-adv-x="383" d="M225 110h-66v168h-119v65h119v166h66v-166h119v-65h-119v-168z" />
<glyph unicode="," horiz-adv-x="184" d="M55 -129l-23 36q29 16 44.5 40t17.5 51q-23 -2 -38.5 11t-15.5 42q0 27 14 40.5t37 13.5q26 0 40 -17t14 -55q0 -54 -22.5 -97.5t-67.5 -64.5z" />
<glyph unicode="-" horiz-adv-x="337" d="M298 289v-69h-259v69h259z" />
<glyph unicode="." horiz-adv-x="182" d="M91 -5q-24 0 -37.5 14.5t-13.5 40.5q0 27 13.5 41t37.5 14q51 0 51 -55q0 -26 -13 -40.5t-38 -14.5z" />
<glyph unicode="/" horiz-adv-x="393" d="M388 700l-302 -700h-81l301 700h82z" />
<glyph unicode="0" d="M54 0zM54 350q0 96 12.5 165t39 112.5t66.5 64t96 20.5q55 0 95.5 -20.5t66.5 -64t39 -112.5t13 -165t-13 -164.5t-39 -112.5t-66.5 -64.5t-95.5 -20.5q-111 0 -162.5 86.5t-51.5 275.5zM401 349q0 84 -8.5 140.5t-25.5 91t-42 49t-57 14.5t-57 -15t-42 -49.5 t-25.5 -90.5t-8.5 -138q0 -85 8.5 -141.5t25.5 -91t42 -49t57 -14.5t57 14.5t42 48.5t25.5 90.5t8.5 140.5z" />
<glyph unicode="1" d="M461 0h-388v72h155v517l-68 -59l-35 64l130 106h54v-628h152v-72z" />
<glyph unicode="2" d="M69 0zM87 0v66l197 285q39 57 58 102t19 83q0 55 -25 81.5t-69 26.5q-48 0 -81 -26.5t-55 -89.5l-62 29q30 86 81.5 120.5t121.5 34.5q81 0 125.5 -43.5t44.5 -122.5q0 -48 -21 -100t-69 -124l-174 -254l288 3v-71h-379z" />
<glyph unicode="3" d="M73 0zM264 54q54 0 85.5 37t31.5 108q0 65 -29 97.5t-83 32.5h-52v73h50q43 0 72 34t29 92q0 54 -27.5 85t-78.5 31q-93 0 -119 -107l-66 30q20 75 70.5 110t123.5 35q88 0 132 -46t44 -127q0 -57 -22.5 -100.5t-61.5 -70.5q45 -17 72 -60t27 -111q0 -44 -11.5 -82.5 t-36 -67t-61.5 -44.5t-88 -16q-71 0 -121.5 33.5t-70.5 108.5l67 31q14 -57 48.5 -81.5t75.5 -24.5z" />
<glyph unicode="4" d="M45 0zM45 184v58l171 458h78l-167 -443h207v318h80v-318h76v-73h-76v-184h-80v184h-289z" />
<glyph unicode="5" d="M69 0zM266 -13q-34 0 -65 7.5t-57 25t-45.5 44.5t-29.5 66l66 30q14 -57 49.5 -81.5t79.5 -24.5q62 0 93 46t31 123q0 78 -31.5 115t-91.5 37q-35 0 -64.5 -15t-53.5 -42l-53 23l25 359h316v-71h-249l-14 -226q24 22 53.5 32t61.5 10q38 0 71 -12t57 -38.5t38 -68 t14 -100.5q0 -52 -12.5 -96t-37 -75.5t-62.5 -49.5t-89 -18z" />
<glyph unicode="6" d="M66 0zM281 -13q-50 0 -90 20.5t-68 64t-42.5 112t-14.5 164.5t14.5 165t42.5 113.5t68.5 65t93.5 20.5q66 0 110.5 -27.5t68.5 -93.5l-62 -37q-20 48 -47.5 69.5t-65.5 21.5q-32 0 -58.5 -14t-45.5 -49t-29.5 -94t-10.5 -148v-25q15 58 55.5 91t96.5 33q77 0 125 -55.5 t48 -162.5q0 -53 -12 -96t-35.5 -73.5t-59 -47.5t-82.5 -17zM278 55q51 0 82 38t31 120q0 78 -28 118t-81 40q-55 0 -87.5 -45t-32.5 -117q0 -69 30 -111.5t86 -42.5z" />
<glyph unicode="7" d="M87 0zM180 0q0 95 13 187t36 174.5t56 151.5t74 117l-272 -1v71h362v-74q-88 -79 -136.5 -239.5t-49.5 -386.5h-83z" />
<glyph unicode="8" d="M72 0zM267 -12q-45 0 -81.5 14.5t-61.5 41t-38.5 64t-13.5 82.5q0 68 28.5 114.5t71.5 63.5q-37 23 -59.5 63.5t-22.5 94.5q0 87 48 136.5t129 49.5q82 0 130 -49.5t48 -136.5q0 -54 -23 -94.5t-59 -63.5q43 -17 71.5 -63.5t28.5 -114.5q0 -45 -13.5 -82.5t-39 -64 t-61.5 -41t-82 -14.5zM369 523q0 25 -6.5 47t-19.5 38.5t-32 26t-43 9.5t-43 -9.5t-32 -26t-20 -38.5t-7 -47t6.5 -47t19.5 -38.5t32 -26t43 -9.5t43 9.5t32 26t20 38.5t7 47zM267 55q57 0 87 39t30 101q0 58 -31 97t-86 39q-54 0 -85 -38.5t-31 -97.5q0 -62 30 -101t86 -39 z" />
<glyph unicode="9" d="M66 0zM256 645q-49 0 -80.5 -38.5t-31.5 -121.5q0 -77 29 -119t82 -42t85 45.5t32 119.5q0 69 -31.5 112.5t-84.5 43.5zM256 712q51 0 91 -20.5t67 -64t41 -112t14 -163.5q0 -96 -14.5 -165t-42 -113t-68 -65t-92.5 -21q-66 0 -111 27t-69 93l62 38q20 -48 47.5 -69.5 t66.5 -21.5q32 0 58 14.5t45 49.5t29 93.5t10 147.5v24q-16 -60 -55.5 -94t-93.5 -34q-82 0 -128.5 57.5t-46.5 163.5q0 52 12 95.5t36 74.5t59.5 48t82.5 17z" />
<glyph unicode=":" horiz-adv-x="182" d="M40 0zM91 -5q-24 0 -37.5 14.5t-13.5 40.5q0 27 13.5 41t37.5 14q51 0 51 -55q0 -26 -13 -40.5t-38 -14.5zM91 374q-24 0 -37.5 14.5t-13.5 40.5q0 27 13.5 41t37.5 14q51 0 51 -55q0 -26 -13 -40.5t-38 -14.5z" />
<glyph unicode=";" horiz-adv-x="184" d="M32 0zM55 -129l-23 36q29 16 44.5 40t17.5 51q-23 -2 -38.5 11t-15.5 42q0 27 14 40.5t37 13.5q26 0 40 -17t14 -55q0 -54 -22.5 -97.5t-67.5 -64.5zM92 374q-24 0 -37.5 14.5t-13.5 40.5q0 27 13.5 41t37.5 14q51 0 51 -55q0 -26 -13 -40.5t-38 -14.5z" />
<glyph unicode="&#x3c;" horiz-adv-x="371" d="M272 523l35 -54l-168 -159l169 -157l-37 -59l-208 196v38z" />
<glyph unicode="=" horiz-adv-x="383" d="M344 415v-69h-304v69h304zM344 273v-69h-304v69h304z" />
<glyph unicode="&#x3e;" horiz-adv-x="371" d="M98 94l-34 54l169 159l-170 158l36 58l208 -195v-38z" />
<glyph unicode="?" horiz-adv-x="386" d="M148 192l-3 154h31q55 0 86.5 38.5t31.5 114.5q0 72 -29.5 107.5t-85.5 35.5q-48 0 -79.5 -25.5t-45.5 -83.5l-64 26q10 42 28.5 71.5t43.5 47.5t55.5 26t65.5 8q92 0 140 -56t48 -154q0 -93 -39.5 -146t-111.5 -64l-4 -100h-68zM181 -5q-24 0 -37 14.5t-13 40.5 q0 55 50 55q51 0 51 -55q0 -26 -13 -40.5t-38 -14.5z" />
<glyph unicode="@" horiz-adv-x="617" d="M315 -100q-62 0 -112 24t-85 68t-54 107.5t-19 142.5q0 80 19 143.5t54 107.5t85 67t112 23q61 0 108.5 -21.5t80.5 -62t50 -98t17 -129.5q0 -88 -34 -139t-93 -51q-26 0 -45 13.5t-27 43.5q-16 -32 -39.5 -48.5t-56.5 -16.5q-37 0 -61.5 24.5t-24.5 68.5q0 49 34.5 82 t100.5 33h38q0 52 -19 72t-43 20q-45 0 -63 -53l-45 24q10 30 36 52.5t76 22.5q111 0 111 -134v-99q0 -33 9.5 -49.5t32.5 -16.5q31 0 52 37.5t21 111.5q0 69 -16 121t-44.5 86.5t-68.5 52t-87 17.5q-50 0 -92.5 -19.5t-73 -58t-47.5 -95.5t-17 -132q0 -76 18 -133t49 -95.5 t73 -58t91 -19.5q56 0 99 19.5t75 64.5l29 -23q-70 -97 -204 -97zM285 120q35 0 56.5 29.5t21.5 82.5v7h-33q-45 0 -67 -19.5t-22 -49.5q0 -23 12 -36.5t32 -13.5z" />
<glyph unicode="A" horiz-adv-x="485" d="M241 608l-97 -391h194zM391 0l-36 145h-226l-37 -145h-83l183 700h101l182 -700h-84z" />
<glyph unicode="B" horiz-adv-x="525" d="M81 0v700h202q49 0 84 -13t57 -37t32 -57t10 -73q0 -59 -22.5 -98t-62.5 -59q25 -7 44 -23t31 -38t18 -48.5t6 -53.5q0 -99 -50.5 -149.5t-153.5 -50.5h-195zM280 629h-120v-234h118q28 0 48.5 9.5t34 25.5t20 37t6.5 45q0 57 -29.5 87t-77.5 30zM281 320h-121v-249h118 q62 0 92 31.5t30 98.5q0 55 -29 87t-90 32z" />
<glyph unicode="C" horiz-adv-x="530" d="M296 -12q-60 0 -105 20t-75 63.5t-45 112.5t-15 167t15 166.5t45 112t75.5 63t105.5 19.5q37 0 70 -8t59.5 -27.5t46 -52t31.5 -81.5l-73 -31q-17 73 -51.5 100.5t-83.5 27.5q-38 0 -67 -13t-49.5 -46t-31 -88.5t-10.5 -140.5q0 -86 10.5 -142.5t31 -90t50.5 -47.5 t68 -14q50 0 86 28.5t58 102.5l69 -32q-25 -90 -82.5 -129.5t-132.5 -39.5z" />
<glyph unicode="D" horiz-adv-x="573" d="M264 0h-183v700h185q126 0 188.5 -82.5t62.5 -263.5t-63.5 -267.5t-189.5 -86.5zM260 72q40 0 72 14t55 46t35.5 85.5t12.5 133.5q0 78 -11.5 131t-33 85.5t-52.5 47t-71 14.5h-104v-557h97z" />
<glyph unicode="E" horiz-adv-x="507" d="M81 0v700h392v-72h-312v-242h267v-75h-267v-240h305v-71h-385z" />
<glyph unicode="F" horiz-adv-x="467" d="M81 0v700h372v-73h-290v-240h259v-75h-259v-312h-82z" />
<glyph unicode="G" horiz-adv-x="562" d="M283 -12q-110 0 -168.5 87.5t-58.5 275.5q0 98 15 166.5t45.5 112t76 63t105.5 19.5q37 0 70 -8.5t59 -28t45.5 -51.5t31.5 -80l-71 -31q-11 37 -24 62t-30 39t-37 20t-44 6q-39 0 -68.5 -13t-50 -45.5t-31 -88.5t-10.5 -142q0 -84 10.5 -141t30.5 -91t49.5 -48.5 t67.5 -14.5q24 0 47.5 9.5t42 32.5t31 62t13.5 98v25h-132v67h209v-350h-58l-10 94q-21 -51 -63 -78.5t-93 -27.5z" />
<glyph unicode="H" horiz-adv-x="604" d="M441 0v315h-278v-315h-82v700h82v-311h278v311h82v-700h-82z" />
<glyph unicode="I" horiz-adv-x="245" d="M81 0v700h82v-700h-82z" />
<glyph unicode="J" horiz-adv-x="393" d="M326 245q0 -73 -14 -122.5t-39.5 -79.5t-60.5 -42.5t-76 -12.5q-35 0 -70.5 11.5t-64.5 37.5l45 63q19 -20 43.5 -29.5t49.5 -9.5q47 0 76 39.5t29 133.5v466h82v-455z" />
<glyph unicode="K" horiz-adv-x="504" d="M163 201v-201h-82v700h82l-2 -377l238 377h89l-199 -306l212 -394h-92l-169 315z" />
<glyph unicode="L" horiz-adv-x="481" d="M163 73h296v-73h-378v700h82v-627z" />
<glyph unicode="M" horiz-adv-x="722" d="M326 0l-173 540l4 -540h-76v700h94l187 -583l185 583h95v-700h-77l4 540l-174 -540h-69z" />
<glyph unicode="N" horiz-adv-x="596" d="M437 0l-282 543l2 -543h-76v700h79l283 -544l-4 544h76v-700h-78z" />
<glyph unicode="O" horiz-adv-x="593" d="M297 -12q-62 0 -107.5 20.5t-75 65t-44 113t-14.5 164.5t15 164.5t45 112t75 64t106 20.5q63 0 108.5 -20.5t74.5 -64t43 -112t14 -164.5q0 -192 -59.5 -277.5t-180.5 -85.5zM297 642q-39 0 -68.5 -13.5t-50 -47t-30.5 -90t-10 -141.5q0 -84 10 -140t30.5 -90.5t50 -49 t68.5 -14.5q38 0 67.5 14t49.5 48t30 91t10 143q0 83 -10 138.5t-30 89.5t-49.5 48t-67.5 14z" />
<glyph unicode="P" horiz-adv-x="514" d="M81 0v700h199q101 0 151.5 -57t50.5 -163q0 -115 -53.5 -174t-156.5 -59h-109v-247h-82zM275 629h-112v-309h112q59 0 92 39t33 119q0 74 -30.5 112.5t-94.5 38.5z" />
<glyph unicode="Q" horiz-adv-x="593" d="M297 -12q-62 0 -107.5 20.5t-75 65t-44 113t-14.5 164.5t15 164.5t45 112t75 64t106 20.5q63 0 108.5 -20.5t74.5 -64t43 -112t14 -164.5q0 -127 -25.5 -206t-77.5 -118l65 -119h-84l-49 88q-32 -8 -69 -8zM297 643q-39 0 -68.5 -13.5t-50 -47t-30.5 -90t-10 -142.5 q0 -84 10 -140t30.5 -90.5t50 -49t68.5 -15.5q8 0 16.5 1.5t15.5 3.5l-70 130h87l52 -95q28 29 42 89.5t14 166.5q0 84 -10 140t-30 89.5t-49.5 48t-67.5 14.5z" />
<glyph unicode="R" horiz-adv-x="518" d="M81 0v700h199q101 0 151.5 -54.5t50.5 -154.5q0 -79 -29 -131t-85 -75l119 -285h-87l-108 269q-5 -1 -10 -1h-119v-268h-82zM275 629h-112v-289h112q60 0 92.5 37t32.5 111q0 141 -125 141z" />
<glyph unicode="S" horiz-adv-x="465" d="M419 550l-68 -29q-18 68 -53 95.5t-78 27.5q-45 0 -75 -25.5t-30 -81.5q0 -45 25.5 -75.5t76.5 -53.5l42 -19q42 -19 72.5 -39.5t51 -45t30.5 -55t10 -69.5q0 -94 -52 -143t-143 -49q-82 0 -136 39.5t-81 127.5l68 34q38 -134 149 -134q57 0 86.5 31t29.5 88 q0 49 -25.5 80.5t-87.5 58.5l-41 18q-72 32 -112.5 82t-40.5 120q0 37 12 69.5t35.5 57t58.5 38.5t82 14q75 0 125.5 -40t68.5 -122z" />
<glyph unicode="T" horiz-adv-x="443" d="M12 700h419v-72h-168v-628h-82v628h-169v72z" />
<glyph unicode="U" horiz-adv-x="571" d="M422 228v472h82v-469q0 -121 -57.5 -182t-160.5 -61q-105 0 -162 61t-57 182v469h82v-472q0 -89 37 -128.5t100 -39.5t99.5 39.5t36.5 128.5z" />
<glyph unicode="V" horiz-adv-x="481" d="M241 94l150 606h83l-184 -700h-100l-183 700h84z" />
<glyph unicode="W" horiz-adv-x="699" d="M306 698h90l105 -563l114 565h77l-148 -700h-89l-106 566l-104 -566h-89l-149 700h82l112 -569z" />
<glyph unicode="X" horiz-adv-x="493" d="M390 0l-145 289l-146 -289h-88l189 358l-176 342h91l135 -272l132 272h88l-177 -341l189 -359h-92z" />
<glyph unicode="Y" horiz-adv-x="477" d="M197 280l-189 420h93l139 -340l141 340h88l-190 -419v-281h-82v280z" />
<glyph unicode="Z" horiz-adv-x="442" d="M17 0v64l315 565l-298 -2v73h387v-64l-315 -565l318 2v-73h-407z" />
<glyph unicode="[" horiz-adv-x="262" d="M55 -74v789h175v-62h-104v-664h107v-63h-178z" />
<glyph unicode="\" horiz-adv-x="401" d="M304 0l-299 700h82l299 -700h-82z" />
<glyph unicode="]" horiz-adv-x="263" d="M26 -74v63h107v664h-104v62h175v-789h-178z" />
<glyph unicode="^" horiz-adv-x="340" d="M133 700h76l110 -314v-2h-74l-75 233l-77 -233h-72v2z" />
<glyph unicode="_" horiz-adv-x="361" d="M364 0v-63h-367v63h367z" />
<glyph unicode="`" horiz-adv-x="454" d="M205 574l-90 109v6h96l58 -111v-4h-64z" />
<glyph unicode="a" horiz-adv-x="433" d="M185 54q47 0 78 43.5t32 122.5v14h-49q-64 0 -96.5 -29t-32.5 -76q0 -35 18 -55t50 -20zM306 0l-6 90q-20 -49 -53.5 -75.5t-80.5 -26.5q-57 0 -90 36.5t-33 100.5q0 37 13 68t38 54t61.5 36t83.5 13h56v10q0 36 -8 60t-20.5 38.5t-29 21t-34.5 6.5q-32 0 -55.5 -18 t-34.5 -56l-66 33q8 23 21.5 43t33 34.5t46 22.5t60.5 8q81 0 122.5 -45.5t41.5 -150.5v-303h-66z" />
<glyph unicode="b" horiz-adv-x="468" d="M262 -12q-40 0 -72 21t-52 64l-5 -73h-67v700h79v-286q20 42 54 63.5t76 21.5q72 0 112 -63.5t40 -191.5q0 -125 -42 -190.5t-123 -65.5zM146 242q0 -100 28.5 -144t73.5 -44q51 0 76 45t25 144q0 98 -25 143.5t-74 45.5q-46 0 -75 -45t-29 -145z" />
<glyph unicode="c" horiz-adv-x="405" d="M220 -12q-85 0 -132 60.5t-47 195.5q0 132 48.5 193.5t137.5 61.5q61 0 97.5 -31t56.5 -97l-67 -32q-14 47 -35 69.5t-54 22.5q-54 0 -79.5 -41.5t-25.5 -146.5q0 -53 6 -89t18.5 -58t32 -32t45.5 -10q71 0 99 92l66 -29q-9 -26 -22.5 -49t-33 -41t-47 -28.5t-64.5 -10.5 z" />
<glyph unicode="d" horiz-adv-x="467" d="M322 242q0 101 -29 145.5t-74 44.5q-51 0 -75 -46t-24 -143q0 -98 24.5 -143.5t74.5 -45.5q45 0 74 44.5t29 143.5zM335 0l-7 82q-20 -47 -52 -70.5t-80 -23.5q-74 0 -114.5 65.5t-40.5 190.5t42.5 190t120.5 65q40 0 69 -21.5t49 -62.5v285h79v-700h-66z" />
<glyph unicode="e" horiz-adv-x="420" d="M220 -12q-84 0 -131.5 61.5t-47.5 193.5q0 126 45.5 191t133.5 65q42 0 72.5 -17.5t50 -49t29 -74.5t9.5 -93q0 -12 -0.5 -23.5t-1.5 -22.5h-261q1 -46 9 -77.5t21 -51t32 -28.5t43 -9q70 0 98 92l64 -30q-9 -25 -22.5 -48t-33 -40.5t-46 -28t-63.5 -10.5zM218 433 q-44 0 -69.5 -34.5t-29.5 -116.5h186q-2 81 -24 116t-63 35z" />
<glyph unicode="f" horiz-adv-x="277" d="M266 422h-102v-422h-79v422h-66v65h66v70q0 42 10 73t28 50.5t42 29t51 9.5q38 0 68 -19l-20 -69q-23 12 -45 12q-23 0 -39 -18.5t-16 -68.5v-69h102v-65z" />
<glyph unicode="g" horiz-adv-x="467" d="M322 251q0 96 -28.5 138.5t-73.5 42.5q-50 0 -75 -43.5t-25 -138.5t25 -140t72 -45t76 44.5t29 141.5zM213 -215q-72 0 -113.5 32.5t-64.5 92.5l67 32q14 -45 40.5 -68t64.5 -23q115 0 115 154v81q-18 -43 -50 -64.5t-74 -21.5q-72 0 -114.5 62t-42.5 187q0 122 42.5 186 t123.5 64q79 0 122 -87l5 75h67v-482q0 -56 -13.5 -97.5t-38.5 -68.5t-59.5 -40.5t-76.5 -13.5z" />
<glyph unicode="h" horiz-adv-x="479" d="M339 298q0 71 -22 101.5t-62 30.5q-50 0 -79 -48.5t-31 -138.5v-243h-79v700h79v-309q20 58 57 83t81 25q135 0 135 -181v-318h-79v298z" />
<glyph unicode="i" horiz-adv-x="214" d="M54 637q0 27 14 41t38 14q25 0 39 -14t14 -41t-14 -42t-39 -15q-24 0 -38 15t-14 42zM67 487h79v-487h-79v487z" />
<glyph unicode="j" horiz-adv-x="214" d="M106 580q-24 0 -38 15t-14 42t14 41t38 14q25 0 39 -14t14 -41t-14 -42t-39 -15zM67 -44v531h79v-542q0 -84 -33 -122t-89 -38q-18 0 -35 2.5t-37 11.5l20 71q10 -5 19 -7.5t22 -2.5q26 0 40 20t14 76z" />
<glyph unicode="k" horiz-adv-x="410" d="M146 126v-126h-80v700h80l-2 -474l165 261h91l-152 -213l154 -274h-90l-109 206z" />
<glyph unicode="l" horiz-adv-x="221" d="M143 109q0 -41 36 -41h28v-68h-48q-41 0 -68 22t-27 75v603h79v-591z" />
<glyph unicode="m" horiz-adv-x="705" d="M315 0v297q0 71 -19 101.5t-55 30.5q-43 0 -68.5 -45t-27.5 -133v-251h-79v487h68l8 -92q20 58 54 81t72 23q47 0 73.5 -32t37.5 -80q20 62 56.5 87t79.5 25q66 0 97.5 -44.5t31.5 -132.5v-322h-79v302q0 69 -18.5 98t-53.5 29q-45 0 -71 -41t-28 -121v-267h-79z" />
<glyph unicode="n" horiz-adv-x="479" d="M66 487h69l7 -97q21 60 57.5 84.5t81.5 24.5q137 0 137 -181v-318h-79v300q0 70 -21.5 100t-62.5 30q-49 0 -79 -48.5t-31 -138.5v-243h-79v487z" />
<glyph unicode="o" horiz-adv-x="448" d="M41 242q0 135 47 196t136 61t135.5 -62.5t46.5 -194.5q0 -133 -45.5 -193.5t-136.5 -60.5q-87 0 -135 61t-48 193zM327 243q0 104 -25 147t-79 43q-53 0 -78.5 -43t-25.5 -147q0 -52 6 -87.5t18.5 -57.5t32.5 -32t47 -10t46.5 10t32.5 32t19 57.5t6 87.5z" />
<glyph unicode="p" horiz-adv-x="468" d="M146 243q0 -100 28 -144.5t73 -44.5q51 0 76.5 46.5t25.5 143.5t-24.5 142t-74.5 45q-46 0 -75 -44.5t-29 -143.5zM134 487l7 -84q20 48 54 72t79 24q74 0 113.5 -64.5t39.5 -189.5t-42.5 -191t-123.5 -66q-37 0 -66.5 19t-49.5 57v-251h-79v674h68z" />
<glyph unicode="q" horiz-adv-x="467" d="M205 499q39 0 71.5 -21.5t52.5 -64.5l6 74h66v-673h-79v259q-42 -85 -128 -85q-73 0 -113 63.5t-40 191.5q0 126 42.5 191t121.5 65zM322 244q0 100 -29 144t-73 44q-50 0 -75 -45t-25 -144q0 -98 25 -143.5t73 -45.5q46 0 75 45.5t29 144.5z" />
<glyph unicode="r" horiz-adv-x="295" d="M66 0v487h68l7 -105q20 63 57 92t85 24v-81q-67 8 -102 -38.5t-36 -142.5v-236h-79z" />
<glyph unicode="s" horiz-adv-x="358" d="M179 50q41 0 60.5 19.5t19.5 53.5q0 29 -17.5 48.5t-53.5 33.5l-34 13q-63 24 -92.5 58.5t-29.5 88.5q0 57 36.5 96.5t108.5 39.5q56 0 93 -25.5t59 -84.5l-65 -33q-11 35 -33 57t-55 22q-31 0 -52 -15.5t-21 -50.5q0 -26 15.5 -45t57.5 -35l37 -14q54 -20 87 -55t33 -94 q0 -27 -9 -52t-27.5 -44.5t-48 -31.5t-70.5 -12q-37 0 -64.5 9.5t-47 26t-32 38.5t-21.5 47l65 32q27 -91 101 -91z" />
<glyph unicode="t" horiz-adv-x="286" d="M268 6q-12 -9 -30.5 -13.5t-36.5 -4.5q-54 0 -88.5 34.5t-34.5 115.5v284h-60v65h60v143h79v-143h104v-65h-104v-278q0 -46 14.5 -64t35.5 -18q11 0 23 3t21 9z" />
<glyph unicode="u" horiz-adv-x="476" d="M410 0h-68l-5 87q-21 -53 -56.5 -76t-77.5 -23q-73 0 -107.5 49.5t-34.5 139.5v310h79v-300q0 -132 86 -132q47 0 75 46t30 135v251h79v-487z" />
<glyph unicode="v" horiz-adv-x="394" d="M7 487h84l107 -400l109 400h79l-147 -487h-85z" />
<glyph unicode="w" horiz-adv-x="566" d="M241 483h88l76 -384l77 388h76l-112 -487h-88l-75 378l-75 -378h-87l-114 487h81l77 -387z" />
<glyph unicode="x" horiz-adv-x="395" d="M298 0l-104 184l-103 -184h-83l144 249l-136 238h88l94 -176l95 176h83l-136 -238l147 -249h-89z" />
<glyph unicode="y" horiz-adv-x="396" d="M144 -65l14 53l-151 499h84l108 -392l109 392h80l-175 -579q-23 -72 -58 -98t-80 -26q-21 0 -37.5 3t-37.5 12l22 68q30 -11 50 -11q28 0 44.5 17t27.5 62z" />
<glyph unicode="z" horiz-adv-x="368" d="M27 0v63l220 357h-216v67h303v-63l-221 -358h227v-66h-313z" />
<glyph unicode="{" horiz-adv-x="272" d="M215 -81q-54 5 -82 39.5t-28 103.5q0 32 3.5 61.5t3.5 58.5q0 57 -19 83t-61 26h-22v62h22q42 0 61 26t19 83q0 29 -3.5 58.5t-3.5 63.5q0 68 28 101.5t82 40.5l25 -62q-32 -7 -49 -25.5t-17 -60.5q0 -31 3.5 -60.5t3.5 -62.5q0 -51 -16.5 -83.5t-48.5 -49.5 q65 -33 65 -132q0 -32 -3.5 -62t-3.5 -60q0 -42 17 -61.5t49 -24.5z" />
<glyph unicode="|" horiz-adv-x="231" d="M79 -65v831h72v-831h-72z" />
<glyph unicode="}" horiz-adv-x="272" d="M26 -18q32 5 49 24.5t17 61.5q0 30 -3.5 60t-3.5 62q0 99 65 132q-32 17 -48.5 49.5t-16.5 83.5q0 33 3.5 62.5t3.5 60.5q0 42 -17 60.5t-49 25.5l25 62q54 -7 82 -40.5t28 -101.5q0 -34 -3.5 -63.5t-3.5 -58.5q0 -57 19 -83t61 -26h22v-62h-22q-42 0 -61 -26t-19 -83 q0 -29 3.5 -58.5t3.5 -61.5q0 -69 -28 -103.5t-82 -39.5z" />
<glyph unicode="~" horiz-adv-x="409" d="M326 414l62 -9q-3 -68 -31 -100.5t-72 -32.5q-25 0 -47.5 12t-42.5 26q-17 11 -33 21t-33 10t-30 -16.5t-15 -49.5l-62 9q3 68 31.5 100t72.5 32q26 0 48 -11.5t42 -25.5q17 -11 33.5 -20t30.5 -9q19 0 31.5 15t14.5 49z" />
<glyph unicode="&#xa1;" horiz-adv-x="180" d="M43 -202l13 508h61l11 -508h-85zM86 503q24 0 37.5 -14.5t13.5 -40.5q0 -27 -13.5 -41t-37.5 -14q-51 0 -51 55q0 26 13 40.5t38 14.5z" />
<glyph unicode="&#xa2;" horiz-adv-x="400" d="M369 136q-8 -22 -19.5 -42.5t-28 -36.5t-39 -27t-51.5 -14v-78h-55v78q-70 9 -108 66.5t-38 174.5q0 112 38 170t108 69v82h55v-80q100 -9 133 -121l-63 -30q-21 74 -70 84v-352q55 12 76 85zM102 256q0 -84 18 -125t56 -51v350q-38 -10 -56 -50t-18 -124z" />
<glyph unicode="&#xa3;" horiz-adv-x="428" d="M429 81q-24 -46 -60 -63.5t-86 -17.5h-256v64h27q25 0 32 30.5t5 84.5l-3 125h-61v65h60l-3 128q-2 114 44.5 164.5t124.5 50.5q66 0 104.5 -31.5t62.5 -97.5l-64 -34q-17 48 -41.5 72t-61.5 24q-48 0 -70 -36t-20 -113l3 -127h136v-65h-134l3 -128q1 -38 -2.5 -66.5 t-13.5 -45.5h127q32 0 55 14t41 48z" />
<glyph unicode="&#xa5;" horiz-adv-x="477" d="M424 221h-145v-221h-82v221h-144v66h141l-26 56h-115v67h86l-131 290h91l142 -345l141 345h87l-132 -290h87v-67h-117l-25 -56h142v-66z" />
<glyph unicode="&#xa6;" horiz-adv-x="231" d="M79 389v377h72v-377h-72zM79 -65v379h72v-379h-72z" />
<glyph unicode="&#xa7;" horiz-adv-x="389" d="M116 355q-2 -63 61 -84l16 -5q35 -11 60 8.5t25 61.5q1 32 -13 52.5t-47 31.5l-16 5q-35 11 -60 -8t-26 -62zM191 -23q-36 0 -62 9.5t-45 25.5t-31.5 38t-21.5 46l63 31q27 -88 98 -88q39 0 56 19t17 52q0 35 -15 53t-49 29l-31 10q-119 40 -119 148q0 37 16.5 66 t45.5 43q-51 45 -51 115q0 30 9.5 55t27 44t43 29.5t58.5 10.5q54 0 89.5 -24t57.5 -78l-65 -32q-10 32 -31.5 51.5t-53.5 19.5q-33 0 -51 -18t-18 -53q0 -27 14 -48.5t52 -35.5l40 -13q64 -21 87.5 -55.5t23.5 -86.5q0 -34 -16.5 -64t-50.5 -44q32 -22 44.5 -50t12.5 -66 q0 -27 -7.5 -52t-25 -44.5t-45 -31t-66.5 -11.5z" />
<glyph unicode="&#xa8;" horiz-adv-x="454" d="M251 637q0 54 49 54q50 0 50 -54q0 -55 -50 -55q-49 0 -49 55zM111 637q0 26 13 40t36 14q51 0 51 -54q0 -55 -51 -55q-23 0 -36 14.5t-13 40.5z" />
<glyph unicode="&#xa9;" horiz-adv-x="628" d="M47 350q0 81 19 144.5t54.5 107.5t85 67t109.5 23t108.5 -23t83 -67t53.5 -107.5t19 -144.5t-19 -144.5t-53.5 -108t-83 -67.5t-108.5 -23t-109.5 23t-85 67.5t-54.5 108t-19 144.5zM88 350q0 -76 17 -133.5t47.5 -96t72 -58t90.5 -19.5t90 19.5t71 58t46.5 96 t16.5 133.5t-16.5 133t-46.5 95.5t-71 58t-90 19.5t-90.5 -19.5t-72 -58t-47.5 -95.5t-17 -133zM439 275q-32 -98 -123 -98q-30 0 -54 9.5t-41 30.5t-26.5 55t-9.5 82q0 95 36 136t98 41q45 0 73 -21.5t45 -67.5l-51 -25q-11 30 -27.5 47t-40.5 17q-37 0 -55.5 -27.5 t-18.5 -100.5q0 -71 19.5 -97.5t54.5 -26.5q26 0 43 14.5t28 49.5z" />
<glyph unicode="&#xaa;" horiz-adv-x="312" d="M138 399q32 0 52 32t20 87v2h-49q-33 0 -53 -18.5t-20 -47.5q0 -26 12 -40.5t38 -14.5zM213 418q-12 -32 -35.5 -51t-57.5 -19q-35 0 -62 26t-27 77q0 49 34.5 82t94.5 33h50q-1 54 -17.5 73t-47.5 19q-27 0 -45 -13t-30 -33l-41 34q19 32 49 48.5t74 16.5 q26 0 47.5 -7.5t37 -24t24 -44.5t8.5 -68v-209h-51z" />
<glyph unicode="&#xab;" horiz-adv-x="487" d="M185 0l-145 241v3l144 243h85l-145 -242l148 -245h-87zM354 0l-149 243v3l145 241h86l-146 -240l152 -247h-88z" />
<glyph unicode="&#xad;" horiz-adv-x="311" d="M272 289v-69h-234v69h234z" />
<glyph unicode="&#xae;" horiz-adv-x="359" d="M180 339q-69 0 -109 50.5t-40 135.5q0 42 10.5 76.5t30 59t47 38t61.5 13.5t61.5 -13.5t46.5 -38t29.5 -59t10.5 -76.5q0 -85 -39.5 -135.5t-108.5 -50.5zM180 364q51 0 86.5 40.5t35.5 120.5q0 79 -35.5 120.5t-86.5 41.5q-53 0 -88 -41t-35 -121t35 -120.5t88 -40.5z M179 593h-26v-66h26q29 0 29 33t-29 33zM124 437v184h56q29 0 43 -16.5t14 -45.5q0 -39 -26 -54l27 -68h-33l-24 62h-28v-62h-29z" />
<glyph unicode="&#xaf;" horiz-adv-x="454" d="M327 659v-58h-197v58h197z" />
<glyph unicode="&#xb0;" horiz-adv-x="355" d="M178 352q-69 0 -106.5 49t-37.5 130t37.5 130t106.5 49q67 0 105 -49t38 -130t-38 -130t-105 -49zM178 656q-40 0 -63 -31.5t-23 -93.5q0 -61 23 -92.5t63 -31.5q38 0 62 31.5t24 92.5q0 62 -24 93.5t-62 31.5z" />
<glyph unicode="&#xb1;" horiz-adv-x="383" d="M225 136h-66v153h-119v66h119v154h66v-154h119v-66h-119v-153zM344 65v-65h-304v65h304z" />
<glyph unicode="&#xb2;" horiz-adv-x="266" d="M9 294zM20 294v49l115 163q41 59 41 95q0 55 -49 55q-24 0 -41 -14t-30 -46l-47 21q17 52 48.5 73.5t74.5 21.5q51 0 79 -26.5t28 -75.5q0 -31 -13.5 -62t-44.5 -75l-86 -124l156 2v-57h-231z" />
<glyph unicode="&#xb3;" horiz-adv-x="279" d="M12 286zM132 286q-44 0 -74.5 20t-45.5 66l50 24q10 -32 28 -44.5t39 -12.5q29 0 45 18.5t16 54.5q0 33 -15.5 50t-44.5 17h-30v53h29q23 0 38 17.5t15 47.5q0 29 -14.5 44.5t-40.5 15.5q-48 0 -63 -55l-48 21q25 89 119 89q55 0 82 -28t27 -76q0 -33 -13 -58t-36 -42 q26 -11 41.5 -36t15.5 -63q0 -54 -30 -88.5t-90 -34.5z" />
<glyph unicode="&#xb4;" horiz-adv-x="454" d="M335 683l-89 -109h-64v4l59 111h94v-6z" />
<glyph unicode="&#xb6;" horiz-adv-x="506" d="M300 321h51v309h-51v-309zM108 478q0 -79 32 -118.5t86 -38.5h2v308h-2q-59 1 -88.5 -38t-29.5 -113zM300 247v-247h-72v247q-95 5 -145 63.5t-50 169.5q0 106 50.5 163t153.5 57h187v-700h-73v247h-51z" />
<glyph unicode="&#xb7;" horiz-adv-x="182" d="M40 282zM91 282q-24 0 -37.5 14.5t-13.5 40.5q0 27 13.5 41t37.5 14q51 0 51 -55q0 -26 -13 -40.5t-38 -14.5z" />
<glyph unicode="&#xb8;" horiz-adv-x="454" d="M237 -235q-30 0 -56.5 13.5t-43.5 48.5l45 30q19 -43 55 -43q19 0 30 11.5t11 29.5t-11 30t-28 12q-5 0 -8.5 -0.5t-8.5 -1.5l-14 15l17 90h50l-13 -62h3q27 0 48 -20.5t21 -60.5q0 -48 -28 -70t-69 -22z" />
<glyph unicode="&#xb9;" horiz-adv-x="180" d="M7 294zM133 294h-63v327l-37 -32l-26 52l84 65h42v-412z" />
<glyph unicode="&#xba;" horiz-adv-x="323" d="M30 531q0 94 34.5 137.5t96.5 43.5q66 0 98.5 -42.5t32.5 -138.5q0 -94 -33 -138.5t-98 -44.5q-63 0 -97 43t-34 140zM234 531q0 71 -18 100.5t-55 29.5t-54 -29.5t-17 -100.5t17.5 -101t53.5 -30t54.5 30t18.5 101z" />
<glyph unicode="&#xbb;" horiz-adv-x="487" d="M298 486l145 -241v-3l-144 -243h-85l145 242l-148 245h87zM129 486l149 -243v-3l-145 -241h-86l146 240l-152 247h88z" />
<glyph unicode="&#xbc;" horiz-adv-x="655" d="M7 0zM133 293h-63v327l-37 -32l-26 52l84 65h42v-412zM435 700l-255 -700h-72l254 700h73zM365 100v46l97 264h61l-94 -253h106v164h61v-164h42v-57h-42v-100h-61v100h-170z" />
<glyph unicode="&#xbd;" horiz-adv-x="643" d="M7 0zM377 0v49l115 163q41 59 41 95q0 55 -49 55q-24 0 -41 -14t-30 -46l-47 21q17 52 48.5 73.5t74.5 21.5q51 0 79 -26.5t28 -75.5q0 -31 -13.5 -62t-44.5 -75l-86 -124l156 2v-57h-231zM133 293h-63v327l-37 -32l-26 52l84 65h42v-412zM435 700l-255 -700h-72l254 700 h73z" />
<glyph unicode="&#xbe;" horiz-adv-x="728" d="M12 0zM132 285q-44 0 -74.5 20t-45.5 66l50 24q10 -32 28 -44.5t39 -12.5q29 0 45 18.5t16 54.5q0 33 -15.5 50t-44.5 17h-30v53h29q23 0 38 17.5t15 47.5q0 29 -14.5 44.5t-40.5 15.5q-48 0 -63 -55l-48 21q25 89 119 89q55 0 82 -28t27 -76q0 -33 -13 -58t-36 -42 q26 -11 41.5 -36t15.5 -63q0 -54 -30 -88.5t-90 -34.5zM524 700l-255 -700h-72l254 700h73zM438 100v46l97 264h61l-94 -253h106v164h61v-164h42v-57h-42v-100h-61v100h-170z" />
<glyph unicode="&#xbf;" horiz-adv-x="386" d="M229 306l3 -154h-31q-55 0 -86.5 -38.5t-31.5 -114.5q0 -72 29.5 -107.5t85.5 -35.5q48 0 79.5 25.5t45.5 83.5l64 -26q-10 -42 -28.5 -71.5t-43.5 -47.5t-56 -26t-65 -8q-92 0 -140 56t-48 154q0 93 39.5 146t111.5 64l4 100h68zM196 503q24 0 37 -14.5t13 -40.5 q0 -55 -50 -55q-51 0 -51 55q0 26 13 40.5t38 14.5z" />
<glyph unicode="&#xc0;" horiz-adv-x="485" d="M9 0zM241 608l-97 -391h194zM391 0l-36 145h-226l-37 -145h-83l183 700h101l182 -700h-84zM217 789l-90 109v6h96l58 -111v-4h-64z" />
<glyph unicode="&#xc1;" horiz-adv-x="485" d="M9 0zM241 608l-97 -391h194zM391 0l-36 145h-226l-37 -145h-83l183 700h101l182 -700h-84zM359 896l-89 -109h-64v4l59 111h94v-6z" />
<glyph unicode="&#xc2;" horiz-adv-x="485" d="M9 0zM241 608l-97 -391h194zM391 0l-36 145h-226l-37 -145h-83l183 700h101l182 -700h-84zM241 857l-50 -70h-76v3l92 112h71l93 -112v-3h-79z" />
<glyph unicode="&#xc3;" horiz-adv-x="485" d="M9 0zM241 608l-97 -391h194zM391 0l-36 145h-226l-37 -145h-83l183 700h101l182 -700h-84zM310 896h54q2 -29 -4 -48t-16 -30.5t-23 -16.5t-26 -5q-16 0 -30 6.5t-26 14t-22.5 14t-20.5 6.5q-14 0 -18 -11t-4 -26h-55q-1 28 4.5 47.5t15.5 30.5t22.5 16t24.5 5 q17 0 31.5 -6.5t26.5 -14t22.5 -14t21.5 -6.5q14 0 18 11t4 27z" />
<glyph unicode="&#xc4;" horiz-adv-x="485" d="M9 0zM241 608l-97 -391h194zM391 0l-36 145h-226l-37 -145h-83l183 700h101l182 -700h-84zM266 850q0 54 49 54q50 0 50 -54q0 -55 -50 -55q-49 0 -49 55zM126 850q0 26 13 40t36 14q51 0 51 -54q0 -55 -51 -55q-23 0 -36 14.5t-13 40.5z" />
<glyph unicode="&#xc5;" horiz-adv-x="485" d="M9 0zM241 608l-97 -391h194zM391 0l-36 145h-226l-37 -145h-83l183 700h101l182 -700h-84zM159 855q0 43 23.5 67t60.5 24q35 0 58 -24t23 -67q0 -42 -23 -66.5t-59 -24.5t-59.5 24.5t-23.5 66.5zM201 855q0 -23 11 -38t30 -15q17 0 29 15t12 38q0 24 -11.5 38t-28.5 14 q-20 0 -31 -14t-11 -38z" />
<glyph unicode="&#xc6;" horiz-adv-x="720" d="M244 624l-99 -407h192zM386 0l-33 145h-225l-37 -145h-83l188 700h483v-71h-357l56 -239h263v-75h-247l57 -243h236v-72h-301z" />
<glyph unicode="&#xc7;" horiz-adv-x="530" d="M284 -235q-30 0 -56.5 13.5t-43.5 48.5l45 30q19 -43 55 -43q18 0 29.5 11.5t11.5 29.5t-11 30t-28 12q-5 0 -8.5 -0.5t-8.5 -1.5l-14 15l15 79q-53 4 -93 26.5t-67 66.5t-40.5 110.5t-13.5 158.5q0 98 15 166.5t45 112t75.5 63t105.5 19.5q37 0 70 -8t59.5 -27.5t46 -52 t31.5 -81.5l-73 -31q-17 73 -51.5 100.5t-83.5 27.5q-38 0 -67 -13t-49.5 -46t-31 -88.5t-10.5 -140.5q0 -86 10.5 -142.5t31 -90t50.5 -47.5t68 -14q50 0 86 28.5t58 102.5l69 -32q-23 -82 -73.5 -122t-117.5 -46l-11 -51h3q27 0 48 -20.5t21 -60.5q0 -48 -28 -70t-69 -22z " />
<glyph unicode="&#xc8;" horiz-adv-x="507" d="M81 0zM81 0v700h392v-72h-312v-242h267v-75h-267v-240h305v-71h-385zM255 789l-90 109v6h96l58 -111v-4h-64z" />
<glyph unicode="&#xc9;" horiz-adv-x="507" d="M81 0zM81 0v700h392v-72h-312v-242h267v-75h-267v-240h305v-71h-385zM397 896l-89 -109h-64v4l59 111h94v-6z" />
<glyph unicode="&#xca;" horiz-adv-x="507" d="M81 0zM81 0v700h392v-72h-312v-242h267v-75h-267v-240h305v-71h-385zM279 857l-50 -70h-76v3l92 112h71l93 -112v-3h-79z" />
<glyph unicode="&#xcb;" horiz-adv-x="507" d="M81 0zM81 0v700h392v-72h-312v-242h267v-75h-267v-240h305v-71h-385zM304 850q0 54 49 54q50 0 50 -54q0 -55 -50 -55q-49 0 -49 55zM164 850q0 26 13 40t36 14q51 0 51 -54q0 -55 -51 -55q-23 0 -36 14.5t-13 40.5z" />
<glyph unicode="&#xcc;" horiz-adv-x="245" d="M8 0zM81 0v700h82v-700h-82zM98 789l-90 109v6h96l58 -111v-4h-64z" />
<glyph unicode="&#xcd;" horiz-adv-x="245" d="M81 0zM81 0v700h82v-700h-82zM240 896l-89 -109h-64v4l59 111h94v-6z" />
<glyph unicode="&#xce;" horiz-adv-x="245" d="M0 0zM81 0v700h82v-700h-82zM122 857l-50 -70h-76v3l92 112h71l93 -112v-3h-79z" />
<glyph unicode="&#xcf;" horiz-adv-x="245" d="M7 0zM81 0v700h82v-700h-82zM147 850q0 54 49 54q50 0 50 -54q0 -55 -50 -55q-49 0 -49 55zM7 850q0 26 13 40t36 14q51 0 51 -54q0 -55 -51 -55q-23 0 -36 14.5t-13 40.5z" />
<glyph unicode="&#xd0;" horiz-adv-x="587" d="M277 0h-182v325h-59v68h59v307h184q127 0 189.5 -82.5t62.5 -263.5t-63.5 -267.5t-190.5 -86.5zM177 72h97q40 0 72 14t55 46t35.5 85.5t12.5 133.5q0 78 -11.5 131t-33 85.5t-53 47t-71.5 14.5h-103v-236h111v-68h-111v-253z" />
<glyph unicode="&#xd1;" horiz-adv-x="596" d="M81 0zM437 0l-282 543l2 -543h-76v700h79l283 -544l-4 544h76v-700h-78zM366 897h54q2 -29 -4 -48t-16 -30.5t-23 -16.5t-26 -5q-16 0 -30 6.5t-26 14t-22.5 14t-20.5 6.5q-14 0 -18 -11t-4 -26h-55q-1 28 4.5 47.5t15.5 30.5t22.5 16t24.5 5q17 0 31.5 -6.5t26.5 -14 t22.5 -14t21.5 -6.5q14 0 18 11t4 27z" />
<glyph unicode="&#xd2;" horiz-adv-x="593" d="M56 0zM297 -12q-62 0 -107.5 20.5t-75 65t-44 113t-14.5 164.5t15 164.5t45 112t75 64t106 20.5q63 0 108.5 -20.5t74.5 -64t43 -112t14 -164.5q0 -192 -59.5 -277.5t-180.5 -85.5zM297 642q-39 0 -68.5 -13.5t-50 -47t-30.5 -90t-10 -141.5q0 -84 10 -140t30.5 -90.5 t50 -49t68.5 -14.5q38 0 67.5 14t49.5 48t30 91t10 143q0 83 -10 138.5t-30 89.5t-49.5 48t-67.5 14zM270 790l-90 109v6h96l58 -111v-4h-64z" />
<glyph unicode="&#xd3;" horiz-adv-x="593" d="M56 0zM297 -12q-62 0 -107.5 20.5t-75 65t-44 113t-14.5 164.5t15 164.5t45 112t75 64t106 20.5q63 0 108.5 -20.5t74.5 -64t43 -112t14 -164.5q0 -192 -59.5 -277.5t-180.5 -85.5zM297 642q-39 0 -68.5 -13.5t-50 -47t-30.5 -90t-10 -141.5q0 -84 10 -140t30.5 -90.5 t50 -49t68.5 -14.5q38 0 67.5 14t49.5 48t30 91t10 143q0 83 -10 138.5t-30 89.5t-49.5 48t-67.5 14zM412 897l-89 -109h-64v4l59 111h94v-6z" />
<glyph unicode="&#xd4;" horiz-adv-x="593" d="M56 0zM297 -12q-62 0 -107.5 20.5t-75 65t-44 113t-14.5 164.5t15 164.5t45 112t75 64t106 20.5q63 0 108.5 -20.5t74.5 -64t43 -112t14 -164.5q0 -192 -59.5 -277.5t-180.5 -85.5zM297 642q-39 0 -68.5 -13.5t-50 -47t-30.5 -90t-10 -141.5q0 -84 10 -140t30.5 -90.5 t50 -49t68.5 -14.5q38 0 67.5 14t49.5 48t30 91t10 143q0 83 -10 138.5t-30 89.5t-49.5 48t-67.5 14zM294 858l-50 -70h-76v3l92 112h71l93 -112v-3h-79z" />
<glyph unicode="&#xd5;" horiz-adv-x="593" d="M56 0zM297 -12q-62 0 -107.5 20.5t-75 65t-44 113t-14.5 164.5t15 164.5t45 112t75 64t106 20.5q63 0 108.5 -20.5t74.5 -64t43 -112t14 -164.5q0 -192 -59.5 -277.5t-180.5 -85.5zM297 642q-39 0 -68.5 -13.5t-50 -47t-30.5 -90t-10 -141.5q0 -84 10 -140t30.5 -90.5 t50 -49t68.5 -14.5q38 0 67.5 14t49.5 48t30 91t10 143q0 83 -10 138.5t-30 89.5t-49.5 48t-67.5 14zM363 897h54q2 -29 -4 -48t-16 -30.5t-23 -16.5t-26 -5q-16 0 -30 6.5t-26 14t-22.5 14t-20.5 6.5q-14 0 -18 -11t-4 -26h-55q-1 28 4.5 47.5t15.5 30.5t22.5 16t24.5 5 q17 0 31.5 -6.5t26.5 -14t22.5 -14t21.5 -6.5q14 0 18 11t4 27z" />
<glyph unicode="&#xd6;" horiz-adv-x="593" d="M56 0zM297 -12q-62 0 -107.5 20.5t-75 65t-44 113t-14.5 164.5t15 164.5t45 112t75 64t106 20.5q63 0 108.5 -20.5t74.5 -64t43 -112t14 -164.5q0 -192 -59.5 -277.5t-180.5 -85.5zM297 642q-39 0 -68.5 -13.5t-50 -47t-30.5 -90t-10 -141.5q0 -84 10 -140t30.5 -90.5 t50 -49t68.5 -14.5q38 0 67.5 14t49.5 48t30 91t10 143q0 83 -10 138.5t-30 89.5t-49.5 48t-67.5 14zM319 851q0 54 49 54q50 0 50 -54q0 -55 -50 -55q-49 0 -49 55zM179 851q0 26 13 40t36 14q51 0 51 -54q0 -55 -51 -55q-23 0 -36 14.5t-13 40.5z" />
<glyph unicode="&#xd7;" horiz-adv-x="375" d="M97 147l-47 39l98 127l-101 131l49 40l92 -118l91 117l48 -40l-100 -128l99 -127l-50 -41l-90 115z" />
<glyph unicode="&#xd8;" horiz-adv-x="593" d="M301 -12q-102 0 -161 60l-31 -48h-74l68 103q-42 88 -42 248q0 96 15 164.5t45 112t75 64t105 20.5q53 0 93.5 -14t69.5 -45l31 47h74l-68 -104q41 -83 41 -245q0 -192 -60 -277.5t-181 -85.5zM143 350q0 -99 15 -160l261 391q-21 33 -50 47t-68 14t-68.5 -13.5 t-49.5 -47t-30 -90t-10 -141.5zM301 56q39 0 68.5 14t49.5 48t30 91t10 143q0 96 -15 156l-260 -392q20 -32 49.5 -46t67.5 -14z" />
<glyph unicode="&#xd9;" horiz-adv-x="571" d="M67 0zM422 228v472h82v-469q0 -121 -57.5 -182t-160.5 -61q-105 0 -162 61t-57 182v469h82v-472q0 -89 37 -128.5t100 -39.5t99.5 39.5t36.5 128.5zM262 790l-90 109v6h96l58 -111v-4h-64z" />
<glyph unicode="&#xda;" horiz-adv-x="571" d="M67 0zM422 228v472h82v-469q0 -121 -57.5 -182t-160.5 -61q-105 0 -162 61t-57 182v469h82v-472q0 -89 37 -128.5t100 -39.5t99.5 39.5t36.5 128.5zM404 897l-89 -109h-64v4l59 111h94v-6z" />
<glyph unicode="&#xdb;" horiz-adv-x="571" d="M67 0zM422 228v472h82v-469q0 -121 -57.5 -182t-160.5 -61q-105 0 -162 61t-57 182v469h82v-472q0 -89 37 -128.5t100 -39.5t99.5 39.5t36.5 128.5zM286 858l-50 -70h-76v3l92 112h71l93 -112v-3h-79z" />
<glyph unicode="&#xdc;" horiz-adv-x="571" d="M67 0zM422 228v472h82v-469q0 -121 -57.5 -182t-160.5 -61q-105 0 -162 61t-57 182v469h82v-472q0 -89 37 -128.5t100 -39.5t99.5 39.5t36.5 128.5zM311 851q0 54 49 54q50 0 50 -54q0 -55 -50 -55q-49 0 -49 55zM171 851q0 26 13 40t36 14q51 0 51 -54q0 -55 -51 -55 q-23 0 -36 14.5t-13 40.5z" />
<glyph unicode="&#xdd;" horiz-adv-x="477" d="M8 0zM197 280l-189 420h93l139 -340l141 340h88l-190 -419v-281h-82v280zM355 897l-89 -109h-64v4l59 111h94v-6z" />
<glyph unicode="&#xde;" horiz-adv-x="501" d="M163 0h-82v700h82v-133h135q87 0 129 -52t42 -150q0 -107 -47.5 -161.5t-132.5 -54.5h-126v-149zM292 494h-129v-272h129q45 0 71 33.5t26 104.5q0 65 -23.5 99.5t-73.5 34.5z" />
<glyph unicode="&#xdf;" horiz-adv-x="490" d="M254 343h-28v67h26q39 0 62 31.5t23 85.5q0 55 -25.5 85.5t-68.5 30.5q-49 0 -73.5 -35t-24.5 -98v-510h-79v509q0 97 46 149.5t133 52.5q81 0 125.5 -49t44.5 -130q0 -53 -18.5 -90t-50.5 -58q47 -14 75 -63t28 -125q0 -96 -46 -150t-126 -54q-42 0 -78 18l20 62 q26 -13 54 -13q45 0 71 34t26 103q0 64 -27.5 105.5t-88.5 41.5z" />
<glyph unicode="&#xe0;" horiz-adv-x="433" d="M43 0zM185 54q47 0 78 43.5t32 122.5v14h-49q-64 0 -96.5 -29t-32.5 -76q0 -35 18 -55t50 -20zM306 0l-6 90q-20 -49 -53.5 -75.5t-80.5 -26.5q-57 0 -90 36.5t-33 100.5q0 37 13 68t38 54t61.5 36t83.5 13h56v10q0 36 -8 60t-20.5 38.5t-29 21t-34.5 6.5 q-32 0 -55.5 -18t-34.5 -56l-66 33q8 23 21.5 43t33 34.5t46 22.5t60.5 8q81 0 122.5 -45.5t41.5 -150.5v-303h-66zM182 577l-90 109v6h96l58 -111v-4h-64z" />
<glyph unicode="&#xe1;" horiz-adv-x="433" d="M43 0zM185 54q47 0 78 43.5t32 122.5v14h-49q-64 0 -96.5 -29t-32.5 -76q0 -35 18 -55t50 -20zM306 0l-6 90q-20 -49 -53.5 -75.5t-80.5 -26.5q-57 0 -90 36.5t-33 100.5q0 37 13 68t38 54t61.5 36t83.5 13h56v10q0 36 -8 60t-20.5 38.5t-29 21t-34.5 6.5 q-32 0 -55.5 -18t-34.5 -56l-66 33q8 23 21.5 43t33 34.5t46 22.5t60.5 8q81 0 122.5 -45.5t41.5 -150.5v-303h-66zM324 684l-89 -109h-64v4l59 111h94v-6z" />
<glyph unicode="&#xe2;" horiz-adv-x="433" d="M43 0zM185 54q47 0 78 43.5t32 122.5v14h-49q-64 0 -96.5 -29t-32.5 -76q0 -35 18 -55t50 -20zM306 0l-6 90q-20 -49 -53.5 -75.5t-80.5 -26.5q-57 0 -90 36.5t-33 100.5q0 37 13 68t38 54t61.5 36t83.5 13h56v10q0 36 -8 60t-20.5 38.5t-29 21t-34.5 6.5 q-32 0 -55.5 -18t-34.5 -56l-66 33q8 23 21.5 43t33 34.5t46 22.5t60.5 8q81 0 122.5 -45.5t41.5 -150.5v-303h-66zM206 645l-50 -70h-76v3l92 112h71l93 -112v-3h-79z" />
<glyph unicode="&#xe3;" horiz-adv-x="433" d="M43 0zM185 54q47 0 78 43.5t32 122.5v14h-49q-64 0 -96.5 -29t-32.5 -76q0 -35 18 -55t50 -20zM306 0l-6 90q-20 -49 -53.5 -75.5t-80.5 -26.5q-57 0 -90 36.5t-33 100.5q0 37 13 68t38 54t61.5 36t83.5 13h56v10q0 36 -8 60t-20.5 38.5t-29 21t-34.5 6.5 q-32 0 -55.5 -18t-34.5 -56l-66 33q8 23 21.5 43t33 34.5t46 22.5t60.5 8q81 0 122.5 -45.5t41.5 -150.5v-303h-66zM275 684h54q2 -29 -4 -48t-16 -30.5t-23 -16.5t-26 -5q-16 0 -30 6.5t-26 14t-22.5 14t-20.5 6.5q-14 0 -18 -11t-4 -26h-55q-1 28 4.5 47.5t15.5 30.5 t22.5 16t24.5 5q17 0 31.5 -6.5t26.5 -14t22.5 -14t21.5 -6.5q14 0 18 11t4 27z" />
<glyph unicode="&#xe4;" horiz-adv-x="433" d="M43 0zM185 54q47 0 78 43.5t32 122.5v14h-49q-64 0 -96.5 -29t-32.5 -76q0 -35 18 -55t50 -20zM306 0l-6 90q-20 -49 -53.5 -75.5t-80.5 -26.5q-57 0 -90 36.5t-33 100.5q0 37 13 68t38 54t61.5 36t83.5 13h56v10q0 36 -8 60t-20.5 38.5t-29 21t-34.5 6.5 q-32 0 -55.5 -18t-34.5 -56l-66 33q8 23 21.5 43t33 34.5t46 22.5t60.5 8q81 0 122.5 -45.5t41.5 -150.5v-303h-66zM231 638q0 54 49 54q50 0 50 -54q0 -55 -50 -55q-49 0 -49 55zM91 638q0 26 13 40t36 14q51 0 51 -54q0 -55 -51 -55q-23 0 -36 14.5t-13 40.5z" />
<glyph unicode="&#xe5;" horiz-adv-x="433" d="M43 0zM185 54q47 0 78 43.5t32 122.5v14h-49q-64 0 -96.5 -29t-32.5 -76q0 -35 18 -55t50 -20zM306 0l-6 90q-20 -49 -53.5 -75.5t-80.5 -26.5q-57 0 -90 36.5t-33 100.5q0 37 13 68t38 54t61.5 36t83.5 13h56v10q0 36 -8 60t-20.5 38.5t-29 21t-34.5 6.5 q-32 0 -55.5 -18t-34.5 -56l-66 33q8 23 21.5 43t33 34.5t46 22.5t60.5 8q81 0 122.5 -45.5t41.5 -150.5v-303h-66zM124 643q0 43 23.5 67t60.5 24q35 0 58 -24t23 -67q0 -42 -23 -66.5t-59 -24.5t-59.5 24.5t-23.5 66.5zM166 643q0 -23 11 -38t30 -15q17 0 29 15t12 38 q0 24 -11.5 38t-28.5 14q-20 0 -31 -14t-11 -38z" />
<glyph unicode="&#xe6;" horiz-adv-x="674" d="M473 -12q-53 0 -92 27.5t-56 87.5q-23 -53 -61 -84t-90 -31q-60 0 -95.5 36t-35.5 102q0 35 13 65t38 52t61.5 34.5t83.5 12.5h56v6q0 77 -25 107t-68 30q-67 0 -89 -75l-66 33q16 47 53.5 77.5t105.5 30.5q46 0 81 -20t53 -68q41 88 133 88q43 0 73.5 -18t50 -48.5 t28.5 -72t9 -88.5v-22q0 -11 -1 -22h-263v-8q4 -92 30.5 -129.5t75.5 -37.5q70 0 98 92l64 -30q-9 -25 -22.5 -48t-33 -40.5t-46 -28t-63.5 -10.5zM182 54q51 0 82 43.5t31 122.5v9h-49q-64 0 -96.5 -28t-32.5 -72q0 -35 17.5 -55t47.5 -20zM471 433q-42 0 -67 -31.5 t-31 -111.5h186q-3 143 -88 143z" />
<glyph unicode="&#xe7;" horiz-adv-x="405" d="M209 -235q-30 0 -56.5 13.5t-43.5 48.5l45 30q19 -43 55 -43q19 0 30 11.5t11 29.5t-10.5 30t-27.5 12q-5 0 -9 -0.5t-9 -1.5l-13 15l15 79q-75 8 -115 69t-40 186q0 132 48.5 193.5t137.5 61.5q61 0 97.5 -31t56.5 -97l-67 -32q-14 47 -35 69.5t-54 22.5 q-54 0 -79.5 -41.5t-25.5 -146.5q0 -53 6 -89t18.5 -58t32 -32t45.5 -10q71 0 99 92l66 -29q-9 -24 -20.5 -45.5t-28.5 -38.5t-39.5 -28.5t-53.5 -15.5l-11 -51h3q28 0 49 -20.5t21 -60.5q0 -48 -28.5 -70t-69.5 -22z" />
<glyph unicode="&#xe8;" horiz-adv-x="420" d="M41 0zM220 -12q-84 0 -131.5 61.5t-47.5 193.5q0 126 45.5 191t133.5 65q42 0 72.5 -17.5t50 -49t29 -74.5t9.5 -93q0 -12 -0.5 -23.5t-1.5 -22.5h-261q1 -46 9 -77.5t21 -51t32 -28.5t43 -9q70 0 98 92l64 -30q-9 -25 -22.5 -48t-33 -40.5t-46 -28t-63.5 -10.5zM218 433 q-44 0 -69.5 -34.5t-29.5 -116.5h186q-2 81 -24 116t-63 35zM191 576l-90 109v6h96l58 -111v-4h-64z" />
<glyph unicode="&#xe9;" horiz-adv-x="420" d="M41 0zM220 -12q-84 0 -131.5 61.5t-47.5 193.5q0 126 45.5 191t133.5 65q42 0 72.5 -17.5t50 -49t29 -74.5t9.5 -93q0 -12 -0.5 -23.5t-1.5 -22.5h-261q1 -46 9 -77.5t21 -51t32 -28.5t43 -9q70 0 98 92l64 -30q-9 -25 -22.5 -48t-33 -40.5t-46 -28t-63.5 -10.5zM218 433 q-44 0 -69.5 -34.5t-29.5 -116.5h186q-2 81 -24 116t-63 35zM333 683l-89 -109h-64v4l59 111h94v-6z" />
<glyph unicode="&#xea;" horiz-adv-x="420" d="M41 0zM220 -12q-84 0 -131.5 61.5t-47.5 193.5q0 126 45.5 191t133.5 65q42 0 72.5 -17.5t50 -49t29 -74.5t9.5 -93q0 -12 -0.5 -23.5t-1.5 -22.5h-261q1 -46 9 -77.5t21 -51t32 -28.5t43 -9q70 0 98 92l64 -30q-9 -25 -22.5 -48t-33 -40.5t-46 -28t-63.5 -10.5zM218 433 q-44 0 -69.5 -34.5t-29.5 -116.5h186q-2 81 -24 116t-63 35zM215 644l-50 -70h-76v3l92 112h71l93 -112v-3h-79z" />
<glyph unicode="&#xeb;" horiz-adv-x="420" d="M41 0zM220 -12q-84 0 -131.5 61.5t-47.5 193.5q0 126 45.5 191t133.5 65q42 0 72.5 -17.5t50 -49t29 -74.5t9.5 -93q0 -12 -0.5 -23.5t-1.5 -22.5h-261q1 -46 9 -77.5t21 -51t32 -28.5t43 -9q70 0 98 92l64 -30q-9 -25 -22.5 -48t-33 -40.5t-46 -28t-63.5 -10.5zM218 433 q-44 0 -69.5 -34.5t-29.5 -116.5h186q-2 81 -24 116t-63 35zM240 637q0 54 49 54q50 0 50 -54q0 -55 -50 -55q-49 0 -49 55zM100 637q0 26 13 40t36 14q51 0 51 -54q0 -55 -51 -55q-23 0 -36 14.5t-13 40.5z" />
<glyph unicode="&#xec;" horiz-adv-x="214" d="M0 0zM67 487h79v-487h-79v487zM83 576l-90 109v6h96l58 -111v-4h-64z" />
<glyph unicode="&#xed;" horiz-adv-x="214" d="M67 0zM67 487h79v-487h-79v487zM225 683l-89 -109h-64v4l59 111h94v-6z" />
<glyph unicode="&#xee;" horiz-adv-x="214" d="M0 0zM67 487h79v-487h-79v487zM107 644l-50 -70h-76v3l92 112h71l93 -112v-3h-79z" />
<glyph unicode="&#xef;" horiz-adv-x="214" d="M0 0zM67 487h79v-487h-79v487zM130 637q0 54 49 54q50 0 50 -54q0 -55 -50 -55q-49 0 -49 55zM-10 637q0 26 13 40t36 14q51 0 51 -54q0 -55 -51 -55q-23 0 -36 14.5t-13 40.5z" />
<glyph unicode="&#xf0;" horiz-adv-x="447" d="M225 -12q-89 0 -136.5 60t-47.5 194q0 132 47.5 193t133.5 61q60 0 97 -49q-7 37 -18.5 69.5t-28.5 60.5l-63 -50l-23 46l55 44q-42 43 -104 66l29 57q77 -24 127 -80l69 57l25 -46l-63 -50q42 -65 62 -157t20 -211v-11q0 -131 -45.5 -192.5t-135.5 -61.5zM329 242 q0 102 -24.5 145t-79.5 43t-80.5 -43t-25.5 -145q0 -103 26 -145t80 -42t79 42t25 145z" />
<glyph unicode="&#xf1;" horiz-adv-x="479" d="M66 0zM66 487h69l7 -97q21 60 57.5 84.5t81.5 24.5q137 0 137 -181v-318h-79v300q0 70 -21.5 100t-62.5 30q-49 0 -79 -48.5t-31 -138.5v-243h-79v487zM321 683h54q2 -29 -4 -48t-16 -30.5t-23 -16.5t-26 -5q-16 0 -30 6.5t-26 14t-22.5 14t-20.5 6.5q-14 0 -18 -11 t-4 -26h-55q-1 28 4.5 47.5t15.5 30.5t22.5 16t24.5 5q17 0 31.5 -6.5t26.5 -14t22.5 -14t21.5 -6.5q14 0 18 11t4 27z" />
<glyph unicode="&#xf2;" horiz-adv-x="448" d="M41 0zM41 242q0 135 47 196t136 61t135.5 -62.5t46.5 -194.5q0 -133 -45.5 -193.5t-136.5 -60.5q-87 0 -135 61t-48 193zM327 243q0 104 -25 147t-79 43q-53 0 -78.5 -43t-25.5 -147q0 -52 6 -87.5t18.5 -57.5t32.5 -32t47 -10t46.5 10t32.5 32t19 57.5t6 87.5zM199 576 l-90 109v6h96l58 -111v-4h-64z" />
<glyph unicode="&#xf3;" horiz-adv-x="448" d="M41 0zM41 242q0 135 47 196t136 61t135.5 -62.5t46.5 -194.5q0 -133 -45.5 -193.5t-136.5 -60.5q-87 0 -135 61t-48 193zM327 243q0 104 -25 147t-79 43q-53 0 -78.5 -43t-25.5 -147q0 -52 6 -87.5t18.5 -57.5t32.5 -32t47 -10t46.5 10t32.5 32t19 57.5t6 87.5zM341 683 l-89 -109h-64v4l59 111h94v-6z" />
<glyph unicode="&#xf4;" horiz-adv-x="448" d="M41 0zM41 242q0 135 47 196t136 61t135.5 -62.5t46.5 -194.5q0 -133 -45.5 -193.5t-136.5 -60.5q-87 0 -135 61t-48 193zM327 243q0 104 -25 147t-79 43q-53 0 -78.5 -43t-25.5 -147q0 -52 6 -87.5t18.5 -57.5t32.5 -32t47 -10t46.5 10t32.5 32t19 57.5t6 87.5zM223 644 l-50 -70h-76v3l92 112h71l93 -112v-3h-79z" />
<glyph unicode="&#xf5;" horiz-adv-x="448" d="M41 0zM41 242q0 135 47 196t136 61t135.5 -62.5t46.5 -194.5q0 -133 -45.5 -193.5t-136.5 -60.5q-87 0 -135 61t-48 193zM327 243q0 104 -25 147t-79 43q-53 0 -78.5 -43t-25.5 -147q0 -52 6 -87.5t18.5 -57.5t32.5 -32t47 -10t46.5 10t32.5 32t19 57.5t6 87.5zM292 683 h54q2 -29 -4 -48t-16 -30.5t-23 -16.5t-26 -5q-16 0 -30 6.5t-26 14t-22.5 14t-20.5 6.5q-14 0 -18 -11t-4 -26h-55q-1 28 4.5 47.5t15.5 30.5t22.5 16t24.5 5q17 0 31.5 -6.5t26.5 -14t22.5 -14t21.5 -6.5q14 0 18 11t4 27z" />
<glyph unicode="&#xf6;" horiz-adv-x="448" d="M41 0zM41 242q0 135 47 196t136 61t135.5 -62.5t46.5 -194.5q0 -133 -45.5 -193.5t-136.5 -60.5q-87 0 -135 61t-48 193zM327 243q0 104 -25 147t-79 43q-53 0 -78.5 -43t-25.5 -147q0 -52 6 -87.5t18.5 -57.5t32.5 -32t47 -10t46.5 10t32.5 32t19 57.5t6 87.5zM248 637 q0 54 49 54q50 0 50 -54q0 -55 -50 -55q-49 0 -49 55zM108 637q0 26 13 40t36 14q51 0 51 -54q0 -55 -51 -55q-23 0 -36 14.5t-13 40.5z" />
<glyph unicode="&#xf7;" horiz-adv-x="383" d="M145 473q0 56 47 56q22 0 35 -14.5t13 -41.5q0 -26 -13 -40.5t-35 -14.5q-23 0 -35 14.5t-12 40.5zM344 344v-69h-304v69h304zM145 149q0 55 47 55q22 0 35 -14t13 -41q0 -29 -13 -42.5t-35 -13.5q-47 0 -47 56z" />
<glyph unicode="&#xf8;" horiz-adv-x="454" d="M229 -12q-78 0 -121 44l-24 -32h-66l56 79q-14 31 -21.5 71.5t-7.5 94.5q0 132 48.5 193t135.5 61q78 0 122 -45l23 33h67l-58 -80q14 -30 20.5 -70t6.5 -92q0 -132 -46.5 -194.5t-134.5 -62.5zM229 433q-56 0 -81.5 -42.5t-25.5 -146.5q0 -28 2.5 -51.5t5.5 -42.5 l176 244q-13 21 -32 30t-45 9zM229 54q53 0 78.5 42.5t25.5 147.5q0 55 -7 90l-173 -244q23 -36 76 -36z" />
<glyph unicode="&#xf9;" horiz-adv-x="476" d="M61 0zM410 0h-68l-5 87q-21 -53 -56.5 -76t-77.5 -23q-73 0 -107.5 49.5t-34.5 139.5v310h79v-300q0 -132 86 -132q47 0 75 46t30 135v251h79v-487zM211 576l-90 109v6h96l58 -111v-4h-64z" />
<glyph unicode="&#xfa;" horiz-adv-x="476" d="M61 0zM410 0h-68l-5 87q-21 -53 -56.5 -76t-77.5 -23q-73 0 -107.5 49.5t-34.5 139.5v310h79v-300q0 -132 86 -132q47 0 75 46t30 135v251h79v-487zM353 683l-89 -109h-64v4l59 111h94v-6z" />
<glyph unicode="&#xfb;" horiz-adv-x="476" d="M61 0zM410 0h-68l-5 87q-21 -53 -56.5 -76t-77.5 -23q-73 0 -107.5 49.5t-34.5 139.5v310h79v-300q0 -132 86 -132q47 0 75 46t30 135v251h79v-487zM235 644l-50 -70h-76v3l92 112h71l93 -112v-3h-79z" />
<glyph unicode="&#xfc;" horiz-adv-x="476" d="M61 0zM410 0h-68l-5 87q-21 -53 -56.5 -76t-77.5 -23q-73 0 -107.5 49.5t-34.5 139.5v310h79v-300q0 -132 86 -132q47 0 75 46t30 135v251h79v-487zM260 637q0 54 49 54q50 0 50 -54q0 -55 -50 -55q-49 0 -49 55zM120 637q0 26 13 40t36 14q51 0 51 -54q0 -55 -51 -55 q-23 0 -36 14.5t-13 40.5z" />
<glyph unicode="&#xfd;" horiz-adv-x="396" d="M0 0zM144 -65l14 53l-151 499h84l108 -392l109 392h80l-175 -579q-23 -72 -58 -98t-80 -26q-21 0 -37.5 3t-37.5 12l22 68q30 -11 50 -11q28 0 44.5 17t27.5 62zM315 683l-89 -109h-64v4l59 111h94v-6z" />
<glyph unicode="&#xfe;" horiz-adv-x="468" d="M146 243q0 -100 28 -144.5t73 -44.5q51 0 76.5 46.5t25.5 143.5t-24.5 142t-74.5 45q-46 0 -75 -44.5t-29 -143.5zM66 -187v887h80v-290q17 44 51 66.5t77 22.5q74 0 113.5 -64.5t39.5 -189.5t-42.5 -191t-123.5 -66q-36 0 -65.5 18.5t-49.5 56.5v-250h-80z" />
<glyph unicode="&#xff;" horiz-adv-x="396" d="M0 0zM144 -65l14 53l-151 499h84l108 -392l109 392h80l-175 -579q-23 -72 -58 -98t-80 -26q-21 0 -37.5 3t-37.5 12l22 68q30 -11 50 -11q28 0 44.5 17t27.5 62zM222 637q0 54 49 54q50 0 50 -54q0 -55 -50 -55q-49 0 -49 55zM82 637q0 26 13 40t36 14q51 0 51 -54 q0 -55 -51 -55q-23 0 -36 14.5t-13 40.5z" />
<glyph unicode="&#x100;" horiz-adv-x="485" d="M9 0zM241 608l-97 -391h194zM391 0l-36 145h-226l-37 -145h-83l183 700h101l182 -700h-84zM341 872v-58h-197v58h197z" />
<glyph unicode="&#x101;" horiz-adv-x="433" d="M43 0zM185 54q47 0 78 43.5t32 122.5v14h-49q-64 0 -96.5 -29t-32.5 -76q0 -35 18 -55t50 -20zM306 0l-6 90q-20 -49 -53.5 -75.5t-80.5 -26.5q-57 0 -90 36.5t-33 100.5q0 37 13 68t38 54t61.5 36t83.5 13h56v10q0 36 -8 60t-20.5 38.5t-29 21t-34.5 6.5 q-32 0 -55.5 -18t-34.5 -56l-66 33q8 23 21.5 43t33 34.5t46 22.5t60.5 8q81 0 122.5 -45.5t41.5 -150.5v-303h-66zM306 660v-58h-197v58h197z" />
<glyph unicode="&#x102;" horiz-adv-x="485" d="M9 0zM241 608l-97 -391h194zM391 0l-36 145h-226l-37 -145h-83l183 700h101l182 -700h-84zM299 902h55q0 -69 -29.5 -95t-82.5 -26q-54 0 -83 26t-29 95h54q0 -38 14.5 -52.5t42.5 -14.5q29 0 43.5 14.5t14.5 52.5z" />
<glyph unicode="&#x103;" horiz-adv-x="433" d="M43 0zM185 54q47 0 78 43.5t32 122.5v14h-49q-64 0 -96.5 -29t-32.5 -76q0 -35 18 -55t50 -20zM306 0l-6 90q-20 -49 -53.5 -75.5t-80.5 -26.5q-57 0 -90 36.5t-33 100.5q0 37 13 68t38 54t61.5 36t83.5 13h56v10q0 36 -8 60t-20.5 38.5t-29 21t-34.5 6.5 q-32 0 -55.5 -18t-34.5 -56l-66 33q8 23 21.5 43t33 34.5t46 22.5t60.5 8q81 0 122.5 -45.5t41.5 -150.5v-303h-66zM264 690h55q0 -69 -29.5 -95t-82.5 -26q-54 0 -83 26t-29 95h54q0 -38 14.5 -52.5t42.5 -14.5q29 0 43.5 14.5t14.5 52.5z" />
<glyph unicode="&#x104;" horiz-adv-x="485" d="M478 -184q-18 -14 -36 -20.5t-41 -6.5q-18 0 -36 5t-31.5 17t-22 32t-8.5 51q0 53 25 86t57 47l-30 118h-226l-37 -145h-83l183 700h101l182 -700h-43q-18 -2 -32.5 -11t-24 -22.5t-14.5 -30t-5 -32.5q0 -32 15.5 -44t35.5 -12q26 0 46 17zM241 608l-97 -391h194z" />
<glyph unicode="&#x105;" horiz-adv-x="434" d="M414 -184q-18 -14 -36 -20.5t-41 -6.5q-18 0 -36 5t-31.5 17t-22 32t-8.5 51q0 46 19 77t47 48l-5 71q-20 -49 -53.5 -75.5t-80.5 -26.5q-57 0 -90 36.5t-33 100.5q0 37 13 68t38 54t61.5 36t83.5 13h56v10q0 36 -8 60t-20.5 38.5t-29 21t-34.5 6.5q-32 0 -55.5 -18 t-34.5 -56l-66 33q8 23 21.5 43t33 34.5t46 22.5t60.5 8q81 0 122.5 -45.5t41.5 -150.5v-303h-3q-19 -2 -33 -11t-23.5 -22.5t-14.5 -30t-5 -32.5q0 -32 15 -44t35 -12q26 0 46 17zM185 54q47 0 78 43.5t32 122.5v14h-49q-64 0 -96.5 -29t-32.5 -76q0 -35 18 -55t50 -20z " />
<glyph unicode="&#x106;" horiz-adv-x="530" d="M56 0zM296 -12q-60 0 -105 20t-75 63.5t-45 112.5t-15 167t15 166.5t45 112t75.5 63t105.5 19.5q37 0 70 -8t59.5 -27.5t46 -52t31.5 -81.5l-73 -31q-17 73 -51.5 100.5t-83.5 27.5q-38 0 -67 -13t-49.5 -46t-31 -88.5t-10.5 -140.5q0 -86 10.5 -142.5t31 -90t50.5 -47.5 t68 -14q50 0 86 28.5t58 102.5l69 -32q-25 -90 -82.5 -129.5t-132.5 -39.5zM410 897l-89 -109h-64v4l59 111h94v-6z" />
<glyph unicode="&#x107;" horiz-adv-x="405" d="M41 0zM220 -12q-85 0 -132 60.5t-47 195.5q0 132 48.5 193.5t137.5 61.5q61 0 97.5 -31t56.5 -97l-67 -32q-14 47 -35 69.5t-54 22.5q-54 0 -79.5 -41.5t-25.5 -146.5q0 -53 6 -89t18.5 -58t32 -32t45.5 -10q71 0 99 92l66 -29q-9 -26 -22.5 -49t-33 -41t-47 -28.5 t-64.5 -10.5zM337 683l-89 -109h-64v4l59 111h94v-6z" />
<glyph unicode="&#x108;" horiz-adv-x="530" d="M56 0zM296 -12q-60 0 -105 20t-75 63.5t-45 112.5t-15 167t15 166.5t45 112t75.5 63t105.5 19.5q37 0 70 -8t59.5 -27.5t46 -52t31.5 -81.5l-73 -31q-17 73 -51.5 100.5t-83.5 27.5q-38 0 -67 -13t-49.5 -46t-31 -88.5t-10.5 -140.5q0 -86 10.5 -142.5t31 -90t50.5 -47.5 t68 -14q50 0 86 28.5t58 102.5l69 -32q-25 -90 -82.5 -129.5t-132.5 -39.5zM292 858l-50 -70h-76v3l92 112h71l93 -112v-3h-79z" />
<glyph unicode="&#x109;" horiz-adv-x="405" d="M41 0zM220 -12q-85 0 -132 60.5t-47 195.5q0 132 48.5 193.5t137.5 61.5q61 0 97.5 -31t56.5 -97l-67 -32q-14 47 -35 69.5t-54 22.5q-54 0 -79.5 -41.5t-25.5 -146.5q0 -53 6 -89t18.5 -58t32 -32t45.5 -10q71 0 99 92l66 -29q-9 -26 -22.5 -49t-33 -41t-47 -28.5 t-64.5 -10.5zM219 644l-50 -70h-76v3l92 112h71l93 -112v-3h-79z" />
<glyph unicode="&#x10a;" horiz-adv-x="530" d="M56 0zM296 -12q-60 0 -105 20t-75 63.5t-45 112.5t-15 167t15 166.5t45 112t75.5 63t105.5 19.5q37 0 70 -8t59.5 -27.5t46 -52t31.5 -81.5l-73 -31q-17 73 -51.5 100.5t-83.5 27.5q-38 0 -67 -13t-49.5 -46t-31 -88.5t-10.5 -140.5q0 -86 10.5 -142.5t31 -90t50.5 -47.5 t68 -14q50 0 86 28.5t58 102.5l69 -32q-25 -90 -82.5 -129.5t-132.5 -39.5zM242 850q0 26 13.5 40t37.5 14q50 0 50 -54q0 -55 -50 -55q-24 0 -37.5 14.5t-13.5 40.5z" />
<glyph unicode="&#x10b;" horiz-adv-x="405" d="M41 0zM220 -12q-85 0 -132 60.5t-47 195.5q0 132 48.5 193.5t137.5 61.5q61 0 97.5 -31t56.5 -97l-67 -32q-14 47 -35 69.5t-54 22.5q-54 0 -79.5 -41.5t-25.5 -146.5q0 -53 6 -89t18.5 -58t32 -32t45.5 -10q71 0 99 92l66 -29q-9 -26 -22.5 -49t-33 -41t-47 -28.5 t-64.5 -10.5zM169 636q0 26 13.5 40t37.5 14q50 0 50 -54q0 -55 -50 -55q-24 0 -37.5 14.5t-13.5 40.5z" />
<glyph unicode="&#x10c;" horiz-adv-x="530" d="M56 0zM296 -12q-60 0 -105 20t-75 63.5t-45 112.5t-15 167t15 166.5t45 112t75.5 63t105.5 19.5q37 0 70 -8t59.5 -27.5t46 -52t31.5 -81.5l-73 -31q-17 73 -51.5 100.5t-83.5 27.5q-38 0 -67 -13t-49.5 -46t-31 -88.5t-10.5 -140.5q0 -86 10.5 -142.5t31 -90t50.5 -47.5 t68 -14q50 0 86 28.5t58 102.5l69 -32q-25 -90 -82.5 -129.5t-132.5 -39.5zM294 836l53 67h76v-2l-94 -113h-71l-91 113v2h78z" />
<glyph unicode="&#x10d;" horiz-adv-x="405" d="M41 0zM220 -12q-85 0 -132 60.5t-47 195.5q0 132 48.5 193.5t137.5 61.5q61 0 97.5 -31t56.5 -97l-67 -32q-14 47 -35 69.5t-54 22.5q-54 0 -79.5 -41.5t-25.5 -146.5q0 -53 6 -89t18.5 -58t32 -32t45.5 -10q71 0 99 92l66 -29q-9 -26 -22.5 -49t-33 -41t-47 -28.5 t-64.5 -10.5zM221 622l53 67h76v-2l-94 -113h-71l-91 113v2h78z" />
<glyph unicode="&#x10e;" horiz-adv-x="573" d="M81 0zM264 0h-183v700h185q126 0 188.5 -82.5t62.5 -263.5t-63.5 -267.5t-189.5 -86.5zM260 72q40 0 72 14t55 46t35.5 85.5t12.5 133.5q0 78 -11.5 131t-33 85.5t-52.5 47t-71 14.5h-104v-557h97zM294 835l53 67h76v-2l-94 -113h-71l-91 113v2h78z" />
<glyph unicode="&#x10f;" horiz-adv-x="520" d="M41 0zM516 482h-54l5 218h71zM322 242q0 101 -29 145.5t-74 44.5q-51 0 -75 -46t-24 -143q0 -98 24.5 -143.5t74.5 -45.5q45 0 74 44.5t29 143.5zM335 0l-7 82q-20 -47 -52 -70.5t-80 -23.5q-74 0 -114.5 65.5t-40.5 190.5t42.5 190t120.5 65q40 0 69 -21.5t49 -62.5v285 h79v-700h-66z" />
<glyph unicode="&#x110;" horiz-adv-x="587" d="M277 0h-182v325h-59v68h59v307h184q127 0 189.5 -82.5t62.5 -263.5t-63.5 -267.5t-190.5 -86.5zM177 72h97q40 0 72 14t55 46t35.5 85.5t12.5 133.5q0 78 -11.5 131t-33 85.5t-53 47t-71.5 14.5h-103v-236h111v-68h-111v-253z" />
<glyph unicode="&#x111;" horiz-adv-x="479" d="M322 242q0 100 -28.5 145t-74.5 45q-51 0 -75 -46t-24 -143q0 -98 24 -143.5t74 -45.5q46 0 75 44.5t29 143.5zM328 83q-40 -95 -132 -95q-74 0 -114.5 65.5t-40.5 190.5t42.5 190t120.5 65t118 -85v143h-113v56h113v87h79v-87h56v-56h-56v-557h-66z" />
<glyph unicode="&#x112;" horiz-adv-x="507" d="M81 0zM81 0v700h392v-72h-312v-242h267v-75h-267v-240h305v-71h-385zM379 872v-58h-197v58h197z" />
<glyph unicode="&#x113;" horiz-adv-x="420" d="M41 0zM220 -12q-84 0 -131.5 61.5t-47.5 193.5q0 126 45.5 191t133.5 65q42 0 72.5 -17.5t50 -49t29 -74.5t9.5 -93q0 -12 -0.5 -23.5t-1.5 -22.5h-261q1 -46 9 -77.5t21 -51t32 -28.5t43 -9q70 0 98 92l64 -30q-9 -25 -22.5 -48t-33 -40.5t-46 -28t-63.5 -10.5zM218 433 q-44 0 -69.5 -34.5t-29.5 -116.5h186q-2 81 -24 116t-63 35zM315 659v-58h-197v58h197z" />
<glyph unicode="&#x114;" horiz-adv-x="507" d="M81 0zM81 0v700h392v-72h-312v-242h267v-75h-267v-240h305v-71h-385zM337 902h55q0 -69 -29.5 -95t-82.5 -26q-54 0 -83 26t-29 95h54q0 -38 14.5 -52.5t42.5 -14.5q29 0 43.5 14.5t14.5 52.5z" />
<glyph unicode="&#x115;" horiz-adv-x="420" d="M41 0zM220 -12q-84 0 -131.5 61.5t-47.5 193.5q0 126 45.5 191t133.5 65q42 0 72.5 -17.5t50 -49t29 -74.5t9.5 -93q0 -12 -0.5 -23.5t-1.5 -22.5h-261q1 -46 9 -77.5t21 -51t32 -28.5t43 -9q70 0 98 92l64 -30q-9 -25 -22.5 -48t-33 -40.5t-46 -28t-63.5 -10.5zM218 433 q-44 0 -69.5 -34.5t-29.5 -116.5h186q-2 81 -24 116t-63 35zM273 689h55q0 -69 -29.5 -95t-82.5 -26q-54 0 -83 26t-29 95h54q0 -38 14.5 -52.5t42.5 -14.5q29 0 43.5 14.5t14.5 52.5z" />
<glyph unicode="&#x116;" horiz-adv-x="507" d="M81 0zM81 0v700h392v-72h-312v-242h267v-75h-267v-240h305v-71h-385zM229 849q0 26 13.5 40t37.5 14q50 0 50 -54q0 -55 -50 -55q-24 0 -37.5 14.5t-13.5 40.5z" />
<glyph unicode="&#x117;" horiz-adv-x="420" d="M41 0zM220 -12q-84 0 -131.5 61.5t-47.5 193.5q0 126 45.5 191t133.5 65q42 0 72.5 -17.5t50 -49t29 -74.5t9.5 -93q0 -12 -0.5 -23.5t-1.5 -22.5h-261q1 -46 9 -77.5t21 -51t32 -28.5t43 -9q70 0 98 92l64 -30q-9 -25 -22.5 -48t-33 -40.5t-46 -28t-63.5 -10.5zM218 433 q-44 0 -69.5 -34.5t-29.5 -116.5h186q-2 81 -24 116t-63 35zM165 636q0 26 13.5 40t37.5 14q50 0 50 -54q0 -55 -50 -55q-24 0 -37.5 14.5t-13.5 40.5z" />
<glyph unicode="&#x118;" horiz-adv-x="507" d="M471 -184q-18 -14 -36 -20.5t-41 -6.5q-18 0 -36 5t-31.5 17t-22 32t-8.5 51q0 35 11.5 61.5t29.5 44.5h-256v700h392v-72h-312v-242h267v-75h-267v-240h305v-71h-40q-19 -2 -33 -11t-23.5 -22.5t-14.5 -30t-5 -32.5q0 -32 15 -44t35 -12q26 0 46 17z" />
<glyph unicode="&#x119;" horiz-adv-x="420" d="M263 -211q-18 0 -36 5t-32 17t-22.5 32t-8.5 51q0 30 9.5 54t23.5 41q-74 8 -115 69.5t-41 184.5q0 126 45.5 191t133.5 65q42 0 72.5 -17.5t50 -49t29 -74.5t9.5 -93q0 -12 -0.5 -23.5t-1.5 -22.5h-261q1 -46 9 -77.5t21 -51t32 -28.5t43 -9q70 0 98 92l64 -30 q-15 -39 -40 -72t-70 -47q-28 -11 -42.5 -37t-14.5 -55q0 -32 15 -44t35 -12q26 0 46 17l26 -49q-18 -14 -36 -20.5t-41 -6.5zM218 433q-44 0 -69.5 -34.5t-29.5 -116.5h186q-2 81 -24 116t-63 35z" />
<glyph unicode="&#x11a;" horiz-adv-x="507" d="M81 0zM81 0v700h392v-72h-312v-242h267v-75h-267v-240h305v-71h-385zM281 835l53 67h76v-2l-94 -113h-71l-91 113v2h78z" />
<glyph unicode="&#x11b;" horiz-adv-x="420" d="M41 0zM220 -12q-84 0 -131.5 61.5t-47.5 193.5q0 126 45.5 191t133.5 65q42 0 72.5 -17.5t50 -49t29 -74.5t9.5 -93q0 -12 -0.5 -23.5t-1.5 -22.5h-261q1 -46 9 -77.5t21 -51t32 -28.5t43 -9q70 0 98 92l64 -30q-9 -25 -22.5 -48t-33 -40.5t-46 -28t-63.5 -10.5zM218 433 q-44 0 -69.5 -34.5t-29.5 -116.5h186q-2 81 -24 116t-63 35zM217 622l53 67h76v-2l-94 -113h-71l-91 113v2h78z" />
<glyph unicode="&#x11c;" horiz-adv-x="562" d="M56 0zM283 -12q-110 0 -168.5 87.5t-58.5 275.5q0 98 15 166.5t45.5 112t76 63t105.5 19.5q37 0 70 -8.5t59 -28t45.5 -51.5t31.5 -80l-71 -31q-11 37 -24 62t-30 39t-37 20t-44 6q-39 0 -68.5 -13t-50 -45.5t-31 -88.5t-10.5 -142q0 -84 10.5 -141t30.5 -91t49.5 -48.5 t67.5 -14.5q24 0 47.5 9.5t42 32.5t31 62t13.5 98v25h-132v67h209v-350h-58l-10 94q-21 -51 -63 -78.5t-93 -27.5zM293 858l-50 -70h-76v3l92 112h71l93 -112v-3h-79z" />
<glyph unicode="&#x11d;" horiz-adv-x="466" d="M35 0zM213 644l-50 -70h-76v3l92 112h71l93 -112v-3h-79zM322 251q0 96 -28.5 138.5t-73.5 42.5q-50 0 -75 -43.5t-25 -138.5t25 -140t72 -45t76 44.5t29 141.5zM213 -215q-72 0 -113.5 32.5t-64.5 92.5l67 32q14 -45 40.5 -68t64.5 -23q115 0 115 154v81 q-18 -43 -50 -64.5t-74 -21.5q-72 0 -114.5 62t-42.5 187q0 122 42.5 186t123.5 64q79 0 122 -87l5 75h67v-482q0 -56 -13.5 -97.5t-38.5 -68.5t-59.5 -40.5t-76.5 -13.5z" />
<glyph unicode="&#x11e;" horiz-adv-x="562" d="M56 0zM283 -12q-110 0 -168.5 87.5t-58.5 275.5q0 98 15 166.5t45.5 112t76 63t105.5 19.5q37 0 70 -8.5t59 -28t45.5 -51.5t31.5 -80l-71 -31q-11 37 -24 62t-30 39t-37 20t-44 6q-39 0 -68.5 -13t-50 -45.5t-31 -88.5t-10.5 -142q0 -84 10.5 -141t30.5 -91t49.5 -48.5 t67.5 -14.5q24 0 47.5 9.5t42 32.5t31 62t13.5 98v25h-132v67h209v-350h-58l-10 94q-21 -51 -63 -78.5t-93 -27.5zM351 903h55q0 -69 -29.5 -95t-82.5 -26q-54 0 -83 26t-29 95h54q0 -38 14.5 -52.5t42.5 -14.5q29 0 43.5 14.5t14.5 52.5z" />
<glyph unicode="&#x11f;" horiz-adv-x="466" d="M35 0zM322 251q0 96 -28.5 138.5t-73.5 42.5q-50 0 -75 -43.5t-25 -138.5t25 -140t72 -45t76 44.5t29 141.5zM213 -215q-72 0 -113.5 32.5t-64.5 92.5l67 32q14 -45 40.5 -68t64.5 -23q115 0 115 154v81q-18 -43 -50 -64.5t-74 -21.5q-72 0 -114.5 62t-42.5 187 q0 122 42.5 186t123.5 64q79 0 122 -87l5 75h67v-482q0 -56 -13.5 -97.5t-38.5 -68.5t-59.5 -40.5t-76.5 -13.5zM270 689h55q0 -69 -29.5 -95t-82.5 -26q-54 0 -83 26t-29 95h54q0 -38 14.5 -52.5t42.5 -14.5q29 0 43.5 14.5t14.5 52.5z" />
<glyph unicode="&#x120;" horiz-adv-x="562" d="M56 0zM283 -12q-110 0 -168.5 87.5t-58.5 275.5q0 98 15 166.5t45.5 112t76 63t105.5 19.5q37 0 70 -8.5t59 -28t45.5 -51.5t31.5 -80l-71 -31q-11 37 -24 62t-30 39t-37 20t-44 6q-39 0 -68.5 -13t-50 -45.5t-31 -88.5t-10.5 -142q0 -84 10.5 -141t30.5 -91t49.5 -48.5 t67.5 -14.5q24 0 47.5 9.5t42 32.5t31 62t13.5 98v25h-132v67h209v-350h-58l-10 94q-21 -51 -63 -78.5t-93 -27.5zM243 850q0 26 13.5 40t37.5 14q50 0 50 -54q0 -55 -50 -55q-24 0 -37.5 14.5t-13.5 40.5z" />
<glyph unicode="&#x121;" horiz-adv-x="466" d="M35 0zM322 251q0 96 -28.5 138.5t-73.5 42.5q-50 0 -75 -43.5t-25 -138.5t25 -140t72 -45t76 44.5t29 141.5zM213 -215q-72 0 -113.5 32.5t-64.5 92.5l67 32q14 -45 40.5 -68t64.5 -23q115 0 115 154v81q-18 -43 -50 -64.5t-74 -21.5q-72 0 -114.5 62t-42.5 187 q0 122 42.5 186t123.5 64q79 0 122 -87l5 75h67v-482q0 -56 -13.5 -97.5t-38.5 -68.5t-59.5 -40.5t-76.5 -13.5zM164 636q0 26 13.5 40t37.5 14q50 0 50 -54q0 -55 -50 -55q-24 0 -37.5 14.5t-13.5 40.5z" />
<glyph unicode="&#x122;" horiz-adv-x="562" d="M56 0zM283 -12q-110 0 -168.5 87.5t-58.5 275.5q0 98 15 166.5t45.5 112t76 63t105.5 19.5q37 0 70 -8.5t59 -28t45.5 -51.5t31.5 -80l-71 -31q-11 37 -24 62t-30 39t-37 20t-44 6q-39 0 -68.5 -13t-50 -45.5t-31 -88.5t-10.5 -142q0 -84 10.5 -141t30.5 -91t49.5 -48.5 t67.5 -14.5q24 0 47.5 9.5t42 32.5t31 62t13.5 98v25h-132v67h209v-350h-58l-10 94q-21 -51 -63 -78.5t-93 -27.5zM336 -132q0 -55 -22.5 -95t-62.5 -59l-24 33q25 14 42 37t18 52q-21 -3 -36 9.5t-15 39.5q0 25 13.5 37.5t36.5 12.5q50 0 50 -67z" />
<glyph unicode="&#x123;" horiz-adv-x="466" d="M160 632q0 55 22.5 95t62.5 59l24 -33q-25 -14 -42 -37t-18 -52q21 3 36 -9.5t15 -39.5q0 -25 -13.5 -37.5t-36.5 -12.5q-50 0 -50 67zM322 251q0 96 -28.5 138.5t-73.5 42.5q-50 0 -75 -43.5t-25 -138.5t25 -140t72 -45t76 44.5t29 141.5zM213 -215q-72 0 -113.5 32.5 t-64.5 92.5l67 32q14 -45 40.5 -68t64.5 -23q115 0 115 154v81q-18 -43 -50 -64.5t-74 -21.5q-72 0 -114.5 62t-42.5 187q0 122 42.5 186t123.5 64q79 0 122 -87l5 75h67v-482q0 -56 -13.5 -97.5t-38.5 -68.5t-59.5 -40.5t-76.5 -13.5z" />
<glyph unicode="&#x124;" horiz-adv-x="604" d="M81 0zM441 0v315h-278v-315h-82v700h82v-311h278v311h82v-700h-82zM302 858l-50 -70h-76v3l92 112h71l93 -112v-3h-79z" />
<glyph unicode="&#x125;" horiz-adv-x="479" d="M0 0zM339 298q0 71 -22 101.5t-62 30.5q-50 0 -79 -48.5t-31 -138.5v-243h-79v700h79v-309q20 58 57 83t81 25q135 0 135 -181v-318h-79v298zM104 857l-50 -70h-76v3l92 112h71l93 -112v-3h-79z" />
<glyph unicode="&#x126;" horiz-adv-x="618" d="M171 389h278v102h-278v-102zM449 0v315h-278v-315h-82v491h-53v58h53v151h82v-151h278v151h82v-151h52v-58h-52v-491h-82z" />
<glyph unicode="&#x127;" horiz-adv-x="489" d="M156 244v-244h-79v557h-55v56h55v87h79v-87h113v-56h-113v-167q20 59 57 84.5t81 25.5q67 0 100.5 -49.5t33.5 -146.5v-304h-79v285q0 78 -22 110.5t-61 32.5q-50 0 -79 -47t-31 -137z" />
<glyph unicode="&#x128;" horiz-adv-x="245" d="M0 0zM81 0v700h82v-700h-82zM191 896h54q2 -29 -4 -48t-16 -30.5t-23 -16.5t-26 -5q-16 0 -30 6.5t-26 14t-22.5 14t-20.5 6.5q-14 0 -18 -11t-4 -26h-55q-1 28 4.5 47.5t15.5 30.5t22.5 16t24.5 5q17 0 31.5 -6.5t26.5 -14t22.5 -14t21.5 -6.5q14 0 18 11t4 27z" />
<glyph unicode="&#x129;" horiz-adv-x="214" d="M0 0zM67 487h79v-487h-79v487zM176 683h54q2 -29 -4 -48t-16 -30.5t-23 -16.5t-26 -5q-16 0 -30 6.5t-26 14t-22.5 14t-20.5 6.5q-14 0 -18 -11t-4 -26h-55q-1 28 4.5 47.5t15.5 30.5t22.5 16t24.5 5q17 0 31.5 -6.5t26.5 -14t22.5 -14t21.5 -6.5q14 0 18 11t4 27z" />
<glyph unicode="&#x12a;" horiz-adv-x="245" d="M25 0zM81 0v700h82v-700h-82zM222 872v-58h-197v58h197z" />
<glyph unicode="&#x12b;" horiz-adv-x="215" d="M10 0zM67 487h79v-487h-79v487zM207 659v-58h-197v58h197z" />
<glyph unicode="&#x12c;" horiz-adv-x="245" d="M11 0zM81 0v700h82v-700h-82zM180 902h55q0 -69 -29.5 -95t-82.5 -26q-54 0 -83 26t-29 95h54q0 -38 14.5 -52.5t42.5 -14.5q29 0 43.5 14.5t14.5 52.5z" />
<glyph unicode="&#x12d;" horiz-adv-x="214" d="M0 0zM67 487h79v-487h-79v487zM165 689h55q0 -69 -29.5 -95t-82.5 -26q-54 0 -83 26t-29 95h54q0 -38 14.5 -52.5t42.5 -14.5q29 0 43.5 14.5t14.5 52.5z" />
<glyph unicode="&#x12e;" horiz-adv-x="244" d="M180 -184q-18 -14 -36.5 -20.5t-41.5 -6.5q-18 0 -35.5 5t-31.5 17t-22.5 32t-8.5 51q0 51 23 84t54 47v675h82v-700h-29q-19 -2 -33 -11t-23.5 -22.5t-14.5 -30t-5 -32.5q0 -32 15 -44t35 -12q26 0 46 17z" />
<glyph unicode="&#x12f;" horiz-adv-x="214" d="M54 637q0 27 14 41t38 14q25 0 39 -14t14 -41t-14 -42t-39 -15q-24 0 -38 15t-14 42zM164 -184q-18 -14 -36.5 -20.5t-41.5 -6.5q-18 0 -35.5 5t-31.5 17t-22.5 32t-8.5 51q0 51 24 84t55 47v462h79v-487h-28q-18 -2 -32.5 -11t-24 -22.5t-14.5 -30t-5 -32.5 q0 -32 15 -44t35 -12q26 0 46 17z" />
<glyph unicode="&#x130;" horiz-adv-x="245" d="M72 0zM81 0v700h82v-700h-82zM72 849q0 26 13.5 40t37.5 14q50 0 50 -54q0 -55 -50 -55q-24 0 -37.5 14.5t-13.5 40.5z" />
<glyph unicode="&#x131;" horiz-adv-x="214" d="M67 487h79v-487h-79v487z" />
<glyph unicode="&#x132;" horiz-adv-x="636" d="M81 0zM81 0v700h82v-700h-82zM569 245q0 -73 -14 -122.5t-39.5 -79.5t-60.5 -42.5t-76 -12.5q-35 0 -70.5 11.5t-64.5 37.5l45 63q19 -20 43.5 -29.5t49.5 -9.5q47 0 76 39.5t29 133.5v466h82v-455z" />
<glyph unicode="&#x133;" horiz-adv-x="426" d="M54 0zM54 637q0 27 14 41t38 14q25 0 39 -14t14 -41t-14 -42t-39 -15q-24 0 -38 15t-14 42zM67 487h79v-487h-79v487zM317 580q-24 0 -38 15t-14 42t14 41t38 14q25 0 39 -14t14 -41t-14 -42t-39 -15zM278 -44v531h79v-542q0 -84 -33 -122t-89 -38q-18 0 -35 2.5 t-37 11.5l20 71q10 -5 19 -7.5t22 -2.5q26 0 40 20t14 76z" />
<glyph unicode="&#x134;" horiz-adv-x="393" d="M1 0zM326 245q0 -73 -14 -122.5t-39.5 -79.5t-60.5 -42.5t-76 -12.5q-35 0 -70.5 11.5t-64.5 37.5l45 63q19 -20 43.5 -29.5t49.5 -9.5q47 0 76 39.5t29 133.5v466h82v-455zM284 857l-50 -70h-76v3l92 112h71l93 -112v-3h-79z" />
<glyph unicode="&#x135;" horiz-adv-x="214" d="M0 0zM67 -44v531h79v-542q0 -84 -33 -122t-89 -38q-18 0 -35.5 2.5t-37.5 10.5l21 73q11 -5 20 -8t22 -3q25 0 39 20t14 76zM107 644l-50 -70h-76v3l92 112h71l93 -112v-3h-79z" />
<glyph unicode="&#x136;" horiz-adv-x="504" d="M81 0zM163 201v-201h-82v700h82l-2 -377l238 377h89l-199 -306l212 -394h-92l-169 315zM322 -132q0 -55 -22.5 -95t-62.5 -59l-24 33q25 14 42 37t18 52q-21 -3 -36 9.5t-15 39.5q0 25 13.5 37.5t36.5 12.5q50 0 50 -67z" />
<glyph unicode="&#x137;" horiz-adv-x="410" d="M66 0zM146 126v-126h-80v700h80l-2 -474l165 261h91l-152 -213l154 -274h-90l-109 206zM268 -132q0 -55 -22.5 -95t-62.5 -59l-24 33q25 14 42 37t18 52q-21 -3 -36 9.5t-15 39.5q0 25 13.5 37.5t36.5 12.5q50 0 50 -67z" />
<glyph unicode="&#x138;" horiz-adv-x="410" d="M146 126v-126h-80v487h80l-2 -261l165 261h91l-151 -213l153 -274h-90l-110 208z" />
<glyph unicode="&#x139;" horiz-adv-x="481" d="M81 0zM163 73h296v-73h-378v700h82v-627zM238 896l-89 -109h-64v4l59 111h94v-6z" />
<glyph unicode="&#x13a;" horiz-adv-x="211" d="M64 0zM143 109q0 -41 36 -41h28v-68h-48q-41 0 -68 22t-27 75v603h79v-591zM224 896l-89 -109h-64v4l59 111h94v-6z" />
<glyph unicode="&#x13b;" horiz-adv-x="481" d="M81 0zM163 73h296v-73h-378v700h82v-627zM319 -132q0 -55 -22.5 -95t-62.5 -59l-24 33q25 14 42 37t18 52q-21 -3 -36 9.5t-15 39.5q0 25 13.5 37.5t36.5 12.5q50 0 50 -67z" />
<glyph unicode="&#x13c;" horiz-adv-x="211" d="M64 0zM143 109q0 -41 36 -41h28v-68h-48q-41 0 -68 22t-27 75v603h79v-591zM183 -132q0 -55 -22.5 -95t-62.5 -59l-24 33q25 14 42 37t18 52q-21 -3 -36 9.5t-15 39.5q0 25 13.5 37.5t36.5 12.5q50 0 50 -67z" />
<glyph unicode="&#x13d;" horiz-adv-x="481" d="M81 0zM353 483h-54l5 218h71zM163 73h296v-73h-378v700h82v-627z" />
<glyph unicode="&#x13e;" horiz-adv-x="273" d="M64 0zM260 484h-54l5 218h71zM143 109q0 -41 36 -41h28v-68h-48q-41 0 -68 22t-27 75v603h79v-591z" />
<glyph unicode="&#x13f;" horiz-adv-x="481" d="M81 0zM163 73h296v-73h-378v700h82v-627zM299 359q0 26 13.5 40t37.5 14q50 0 50 -54q0 -55 -50 -55q-24 0 -37.5 14.5t-13.5 40.5z" />
<glyph unicode="&#x140;" horiz-adv-x="289" d="M64 0zM143 109q0 -41 36 -41h28v-68h-48q-41 0 -68 22t-27 75v603h79v-591zM194 307q0 26 13.5 40t37.5 14q50 0 50 -54q0 -55 -50 -55q-24 0 -37.5 14.5t-13.5 40.5z" />
<glyph unicode="&#x141;" horiz-adv-x="495" d="M473 0h-378v254l-75 -68v79l75 66v369h82v-314l131 113v-81l-131 -111v-234h296v-73z" />
<glyph unicode="&#x142;" horiz-adv-x="238" d="M222 0h-48q-41 0 -68 22t-27 75v165l-68 -74v78l68 73v361h79v-286l76 82v-79l-76 -81v-227q0 -41 36 -41h28v-68z" />
<glyph unicode="&#x143;" horiz-adv-x="596" d="M81 0zM437 0l-282 543l2 -543h-76v700h79l283 -544l-4 544h76v-700h-78zM415 897l-89 -109h-64v4l59 111h94v-6z" />
<glyph unicode="&#x144;" horiz-adv-x="479" d="M66 0zM66 487h69l7 -97q21 60 57.5 84.5t81.5 24.5q137 0 137 -181v-318h-79v300q0 70 -21.5 100t-62.5 30q-49 0 -79 -48.5t-31 -138.5v-243h-79v487zM370 683l-89 -109h-64v4l59 111h94v-6z" />
<glyph unicode="&#x145;" horiz-adv-x="596" d="M81 0zM437 0l-282 543l2 -543h-76v700h79l283 -544l-4 544h76v-700h-78zM347 -132q0 -55 -22.5 -95t-62.5 -59l-24 33q25 14 42 37t18 52q-21 -3 -36 9.5t-15 39.5q0 25 13.5 37.5t36.5 12.5q50 0 50 -67z" />
<glyph unicode="&#x146;" horiz-adv-x="479" d="M66 0zM66 487h69l7 -97q21 60 57.5 84.5t81.5 24.5q137 0 137 -181v-318h-79v300q0 70 -21.5 100t-62.5 30q-49 0 -79 -48.5t-31 -138.5v-243h-79v487zM293 -132q0 -55 -22.5 -95t-62.5 -59l-24 33q25 14 42 37t18 52q-21 -3 -36 9.5t-15 39.5q0 25 13.5 37.5t36.5 12.5 q50 0 50 -67z" />
<glyph unicode="&#x147;" horiz-adv-x="596" d="M81 0zM437 0l-282 543l2 -543h-76v700h79l283 -544l-4 544h76v-700h-78zM299 836l53 67h76v-2l-94 -113h-71l-91 113v2h78z" />
<glyph unicode="&#x148;" horiz-adv-x="479" d="M66 0zM66 487h69l7 -97q21 60 57.5 84.5t81.5 24.5q137 0 137 -181v-318h-79v300q0 70 -21.5 100t-62.5 30q-49 0 -79 -48.5t-31 -138.5v-243h-79v487zM254 622l53 67h76v-2l-94 -113h-71l-91 113v2h78z" />
<glyph unicode="&#x14a;" horiz-adv-x="596" d="M436 -44v46l-282 545l2 -547h-75v700h79l284 -547l-4 547h75v-754q0 -84 -33.5 -122.5t-89.5 -38.5q-17 0 -34.5 2.5t-37.5 10.5l20 73q11 -5 20 -8t23 -3q25 0 39 20t14 76z" />
<glyph unicode="&#x14b;" horiz-adv-x="479" d="M339 -45v345q0 69 -21 99.5t-63 30.5q-49 0 -78.5 -48.5t-30.5 -138.5v-243h-80v487h69l8 -93q20 57 56.5 81t81.5 24q137 0 137 -181v-377q0 -81 -33.5 -118.5t-89.5 -37.5q-18 0 -35.5 2.5t-37.5 10.5l21 73q11 -5 20 -8t22 -3q27 0 40.5 19.5t13.5 75.5z" />
<glyph unicode="&#x14c;" horiz-adv-x="593" d="M56 0zM297 -12q-62 0 -107.5 20.5t-75 65t-44 113t-14.5 164.5t15 164.5t45 112t75 64t106 20.5q63 0 108.5 -20.5t74.5 -64t43 -112t14 -164.5q0 -192 -59.5 -277.5t-180.5 -85.5zM297 642q-39 0 -68.5 -13.5t-50 -47t-30.5 -90t-10 -141.5q0 -84 10 -140t30.5 -90.5 t50 -49t68.5 -14.5q38 0 67.5 14t49.5 48t30 91t10 143q0 83 -10 138.5t-30 89.5t-49.5 48t-67.5 14zM393 873v-58h-197v58h197z" />
<glyph unicode="&#x14d;" horiz-adv-x="448" d="M41 0zM41 242q0 135 47 196t136 61t135.5 -62.5t46.5 -194.5q0 -133 -45.5 -193.5t-136.5 -60.5q-87 0 -135 61t-48 193zM327 243q0 104 -25 147t-79 43q-53 0 -78.5 -43t-25.5 -147q0 -52 6 -87.5t18.5 -57.5t32.5 -32t47 -10t46.5 10t32.5 32t19 57.5t6 87.5zM323 659 v-58h-197v58h197z" />
<glyph unicode="&#x14e;" horiz-adv-x="593" d="M56 0zM297 -12q-62 0 -107.5 20.5t-75 65t-44 113t-14.5 164.5t15 164.5t45 112t75 64t106 20.5q63 0 108.5 -20.5t74.5 -64t43 -112t14 -164.5q0 -192 -59.5 -277.5t-180.5 -85.5zM297 642q-39 0 -68.5 -13.5t-50 -47t-30.5 -90t-10 -141.5q0 -84 10 -140t30.5 -90.5 t50 -49t68.5 -14.5q38 0 67.5 14t49.5 48t30 91t10 143q0 83 -10 138.5t-30 89.5t-49.5 48t-67.5 14zM352 903h55q0 -69 -29.5 -95t-82.5 -26q-54 0 -83 26t-29 95h54q0 -38 14.5 -52.5t42.5 -14.5q29 0 43.5 14.5t14.5 52.5z" />
<glyph unicode="&#x14f;" horiz-adv-x="448" d="M41 0zM41 242q0 135 47 196t136 61t135.5 -62.5t46.5 -194.5q0 -133 -45.5 -193.5t-136.5 -60.5q-87 0 -135 61t-48 193zM327 243q0 104 -25 147t-79 43q-53 0 -78.5 -43t-25.5 -147q0 -52 6 -87.5t18.5 -57.5t32.5 -32t47 -10t46.5 10t32.5 32t19 57.5t6 87.5zM281 689 h55q0 -69 -29.5 -95t-82.5 -26q-54 0 -83 26t-29 95h54q0 -38 14.5 -52.5t42.5 -14.5q29 0 43.5 14.5t14.5 52.5z" />
<glyph unicode="&#x150;" horiz-adv-x="593" d="M56 0zM297 -12q-62 0 -107.5 20.5t-75 65t-44 113t-14.5 164.5t15 164.5t45 112t75 64t106 20.5q63 0 108.5 -20.5t74.5 -64t43 -112t14 -164.5q0 -192 -59.5 -277.5t-180.5 -85.5zM297 642q-39 0 -68.5 -13.5t-50 -47t-30.5 -90t-10 -141.5q0 -84 10 -140t30.5 -90.5 t50 -49t68.5 -14.5q38 0 67.5 14t49.5 48t30 91t10 143q0 83 -10 138.5t-30 89.5t-49.5 48t-67.5 14zM482 897l-96 -109h-60v4l60 111h96v-6zM338 903v-6l-96 -109h-60v4l60 111h96z" />
<glyph unicode="&#x151;" horiz-adv-x="448" d="M41 0zM41 242q0 135 47 196t136 61t135.5 -62.5t46.5 -194.5q0 -133 -45.5 -193.5t-136.5 -60.5q-87 0 -135 61t-48 193zM327 243q0 104 -25 147t-79 43q-53 0 -78.5 -43t-25.5 -147q0 -52 6 -87.5t18.5 -57.5t32.5 -32t47 -10t46.5 10t32.5 32t19 57.5t6 87.5zM411 683 l-96 -109h-60v4l60 111h96v-6zM267 689v-6l-96 -109h-60v4l60 111h96z" />
<glyph unicode="&#x152;" horiz-adv-x="831" d="M311 0q-129 0 -192 86t-63 268q0 181 62.5 263.5t193.5 82.5h478v-71h-300v-239h262v-75h-262v-243h308v-72h-487zM311 628q-42 0 -74 -14t-54 -46.5t-33.5 -85.5t-11.5 -131q0 -79 11.5 -132.5t34 -86.5t55 -47t73.5 -14h98v557h-99z" />
<glyph unicode="&#x153;" horiz-adv-x="708" d="M509 -12q-48 0 -83.5 22t-57.5 76q-45 -98 -143 -98q-90 0 -137 61t-47 196q0 132 48 193t136 61q102 0 143 -100q23 53 58 76.5t83 23.5q42 0 73 -17.5t50.5 -49t29 -74.5t9.5 -93q0 -12 -0.5 -23.5t-1.5 -22.5h-263q4 -91 32.5 -128.5t73.5 -37.5q37 0 60.5 22.5 t37.5 69.5l65 -30q-9 -25 -22.5 -48t-33 -40.5t-46.5 -28t-64 -10.5zM507 433q-44 0 -69.5 -34.5t-30.5 -116.5h188q-2 81 -24.5 116t-63.5 35zM328 244q0 52 -6 88t-18.5 58t-32.5 32t-47 10t-47 -10t-33 -32t-19 -58t-6 -88q0 -104 25.5 -147t79.5 -43t79 43t25 147z" />
<glyph unicode="&#x154;" horiz-adv-x="518" d="M81 0zM81 0v700h199q101 0 151.5 -54.5t50.5 -154.5q0 -79 -29 -131t-85 -75l119 -285h-87l-108 269q-5 -1 -10 -1h-119v-268h-82zM275 629h-112v-289h112q60 0 92.5 37t32.5 111q0 141 -125 141zM403 896l-89 -109h-64v4l59 111h94v-6z" />
<glyph unicode="&#x155;" horiz-adv-x="295" d="M66 0zM66 0v487h68l7 -105q20 63 57 92t85 24v-81q-67 8 -102 -38.5t-36 -142.5v-236h-79zM315 683l-89 -109h-64v4l59 111h94v-6z" />
<glyph unicode="&#x156;" horiz-adv-x="518" d="M81 0zM81 0v700h199q101 0 151.5 -54.5t50.5 -154.5q0 -79 -29 -131t-85 -75l119 -285h-87l-108 269q-5 -1 -10 -1h-119v-268h-82zM275 629h-112v-289h112q60 0 92.5 37t32.5 111q0 141 -125 141zM320 -132q0 -55 -22.5 -95t-62.5 -59l-24 33q25 14 42 37t18 52 q-21 -3 -36 9.5t-15 39.5q0 25 13.5 37.5t36.5 12.5q50 0 50 -67z" />
<glyph unicode="&#x157;" horiz-adv-x="295" d="M45 0zM66 0v487h68l7 -105q20 63 57 92t85 24v-81q-67 8 -102 -38.5t-36 -142.5v-236h-79zM154 -132q0 -55 -22.5 -95t-62.5 -59l-24 33q25 14 42 37t18 52q-21 -3 -36 9.5t-15 39.5q0 25 13.5 37.5t36.5 12.5q50 0 50 -67z" />
<glyph unicode="&#x158;" horiz-adv-x="518" d="M81 0zM81 0v700h199q101 0 151.5 -54.5t50.5 -154.5q0 -79 -29 -131t-85 -75l119 -285h-87l-108 269q-5 -1 -10 -1h-119v-268h-82zM275 629h-112v-289h112q60 0 92.5 37t32.5 111q0 141 -125 141zM287 835l53 67h76v-2l-94 -113h-71l-91 113v2h78z" />
<glyph unicode="&#x159;" horiz-adv-x="295" d="M66 0zM66 0v487h68l7 -105q20 63 57 92t85 24v-81q-67 8 -102 -38.5t-36 -142.5v-236h-79zM199 622l53 67h76v-2l-94 -113h-71l-91 113v2h78z" />
<glyph unicode="&#x15a;" horiz-adv-x="469" d="M11 0zM419 550l-68 -29q-18 68 -53 95.5t-78 27.5q-45 0 -75 -25.5t-30 -81.5q0 -45 25.5 -75.5t76.5 -53.5l42 -19q42 -19 72.5 -39.5t51 -45t30.5 -55t10 -69.5q0 -94 -52 -143t-143 -49q-82 0 -136 39.5t-81 127.5l68 34q38 -134 149 -134q57 0 86.5 31t29.5 88 q0 49 -25.5 80.5t-87.5 58.5l-41 18q-72 32 -112.5 82t-40.5 120q0 37 12 69.5t35.5 57t58.5 38.5t82 14q75 0 125.5 -40t68.5 -122zM341 892l-89 -109h-64v4l59 111h94v-6z" />
<glyph unicode="&#x15b;" horiz-adv-x="358" d="M13 0zM179 50q41 0 60.5 19.5t19.5 53.5q0 29 -17.5 48.5t-53.5 33.5l-34 13q-63 24 -92.5 58.5t-29.5 88.5q0 57 36.5 96.5t108.5 39.5q56 0 93 -25.5t59 -84.5l-65 -33q-11 35 -33 57t-55 22q-31 0 -52 -15.5t-21 -50.5q0 -26 15.5 -45t57.5 -35l37 -14q54 -20 87 -55 t33 -94q0 -27 -9 -52t-27.5 -44.5t-48 -31.5t-70.5 -12q-37 0 -64.5 9.5t-47 26t-32 38.5t-21.5 47l65 32q27 -91 101 -91zM294 683l-89 -109h-64v4l59 111h94v-6z" />
<glyph unicode="&#x15c;" horiz-adv-x="469" d="M11 0zM419 550l-68 -29q-18 68 -53 95.5t-78 27.5q-45 0 -75 -25.5t-30 -81.5q0 -45 25.5 -75.5t76.5 -53.5l42 -19q42 -19 72.5 -39.5t51 -45t30.5 -55t10 -69.5q0 -94 -52 -143t-143 -49q-82 0 -136 39.5t-81 127.5l68 34q38 -134 149 -134q57 0 86.5 31t29.5 88 q0 49 -25.5 80.5t-87.5 58.5l-41 18q-72 32 -112.5 82t-40.5 120q0 37 12 69.5t35.5 57t58.5 38.5t82 14q75 0 125.5 -40t68.5 -122zM223 853l-50 -70h-76v3l92 112h71l93 -112v-3h-79z" />
<glyph unicode="&#x15d;" horiz-adv-x="358" d="M13 0zM179 50q41 0 60.5 19.5t19.5 53.5q0 29 -17.5 48.5t-53.5 33.5l-34 13q-63 24 -92.5 58.5t-29.5 88.5q0 57 36.5 96.5t108.5 39.5q56 0 93 -25.5t59 -84.5l-65 -33q-11 35 -33 57t-55 22q-31 0 -52 -15.5t-21 -50.5q0 -26 15.5 -45t57.5 -35l37 -14q54 -20 87 -55 t33 -94q0 -27 -9 -52t-27.5 -44.5t-48 -31.5t-70.5 -12q-37 0 -64.5 9.5t-47 26t-32 38.5t-21.5 47l65 32q27 -91 101 -91zM176 644l-50 -70h-76v3l92 112h71l93 -112v-3h-79z" />
<glyph unicode="&#x15e;" horiz-adv-x="469" d="M212 -240q-30 0 -56.5 14t-43.5 48l45 31q19 -43 55 -43q19 0 30 11t11 29t-10.5 30t-27.5 12q-5 0 -9 -0.5t-9 -1.5l-13 15l15 84q-69 7 -116 46.5t-72 119.5l68 34q38 -134 149 -134q57 0 86.5 31t29.5 88q0 49 -25.5 80.5t-87.5 58.5l-41 18q-72 32 -112.5 82 t-40.5 120q0 37 12 69.5t35.5 57t58.5 38.5t82 14q75 0 125.5 -40t68.5 -122l-68 -29q-18 68 -53 95.5t-78 27.5q-45 0 -75 -25.5t-30 -81.5q0 -45 25.5 -75.5t76.5 -53.5l42 -19q42 -19 72.5 -39.5t51 -45t30.5 -55t10 -69.5q0 -88 -46.5 -136.5t-127.5 -54.5l-12 -56h3 q28 0 49 -20.5t21 -60.5q0 -48 -28.5 -70t-69.5 -22z" />
<glyph unicode="&#x15f;" horiz-adv-x="358" d="M171 -235q-30 0 -56.5 13.5t-43.5 48.5l45 30q18 -43 55 -43q19 0 30 11.5t11 29.5t-10.5 30t-27.5 12q-5 0 -9 -0.5t-9 -1.5l-13 15l14 79q-32 3 -55 13t-40.5 26t-29 37t-19.5 44l65 32q27 -91 101 -91q41 0 60.5 19.5t19.5 53.5q0 29 -17.5 48.5t-53.5 33.5l-34 13 q-63 24 -92 58.5t-29 88.5q0 57 36 96.5t108 39.5q56 0 93 -25.5t59 -84.5l-65 -33q-11 35 -33 57t-55 22q-31 0 -52 -15.5t-21 -50.5q0 -26 15.5 -45.5t57.5 -34.5l37 -14q54 -20 86.5 -55t32.5 -94q0 -24 -7 -47.5t-22.5 -42t-39.5 -31.5t-57 -17l-10 -52h3q28 0 49 -20.5 t21 -60.5q0 -48 -28.5 -70t-69.5 -22z" />
<glyph unicode="&#x160;" horiz-adv-x="469" d="M11 0zM419 550l-68 -29q-18 68 -53 95.5t-78 27.5q-45 0 -75 -25.5t-30 -81.5q0 -45 25.5 -75.5t76.5 -53.5l42 -19q42 -19 72.5 -39.5t51 -45t30.5 -55t10 -69.5q0 -94 -52 -143t-143 -49q-82 0 -136 39.5t-81 127.5l68 34q38 -134 149 -134q57 0 86.5 31t29.5 88 q0 49 -25.5 80.5t-87.5 58.5l-41 18q-72 32 -112.5 82t-40.5 120q0 37 12 69.5t35.5 57t58.5 38.5t82 14q75 0 125.5 -40t68.5 -122zM225 831l53 67h76v-2l-94 -113h-71l-91 113v2h78z" />
<glyph unicode="&#x161;" horiz-adv-x="358" d="M13 0zM179 50q41 0 60.5 19.5t19.5 53.5q0 29 -17.5 48.5t-53.5 33.5l-34 13q-63 24 -92.5 58.5t-29.5 88.5q0 57 36.5 96.5t108.5 39.5q56 0 93 -25.5t59 -84.5l-65 -33q-11 35 -33 57t-55 22q-31 0 -52 -15.5t-21 -50.5q0 -26 15.5 -45t57.5 -35l37 -14q54 -20 87 -55 t33 -94q0 -27 -9 -52t-27.5 -44.5t-48 -31.5t-70.5 -12q-37 0 -64.5 9.5t-47 26t-32 38.5t-21.5 47l65 32q27 -91 101 -91zM178 622l53 67h76v-2l-94 -113h-71l-91 113v2h78z" />
<glyph unicode="&#x162;" horiz-adv-x="443" d="M12 0zM12 700h419v-72h-168v-628h-82v628h-169v72zM271 -132q0 -55 -22.5 -95t-62.5 -59l-24 33q25 14 42 37t18 52q-21 -3 -36 9.5t-15 39.5q0 25 13.5 37.5t36.5 12.5q50 0 50 -67z" />
<glyph unicode="&#x163;" horiz-adv-x="286" d="M18 0zM268 6q-12 -9 -30.5 -13.5t-36.5 -4.5q-54 0 -88.5 34.5t-34.5 115.5v284h-60v65h60v143h79v-143h104v-65h-104v-278q0 -46 14.5 -64t35.5 -18q11 0 23 3t21 9zM223 -132q0 -55 -22.5 -95t-62.5 -59l-24 33q25 14 42 37t18 52q-21 -3 -36 9.5t-15 39.5 q0 25 13.5 37.5t36.5 12.5q50 0 50 -67z" />
<glyph unicode="&#x164;" horiz-adv-x="443" d="M12 0zM12 700h419v-72h-168v-628h-82v628h-169v72zM223 835l53 67h76v-2l-94 -113h-71l-91 113v2h78z" />
<glyph unicode="&#x165;" horiz-adv-x="286" d="M257 555h-55l6 194h71zM268 6q-12 -9 -30.5 -13.5t-36.5 -4.5q-54 0 -88.5 34.5t-34.5 115.5v284h-60v65h60v143h79v-143h104v-65h-104v-278q0 -46 14.5 -64t35.5 -18q11 0 23 3t21 9z" />
<glyph unicode="&#x166;" horiz-adv-x="444" d="M12 700h420v-72h-168v-249h132v-56h-132v-323h-82v323h-133v56h133v249h-170v72z" />
<glyph unicode="&#x167;" horiz-adv-x="281" d="M273 6q-12 -10 -30.5 -14t-36.5 -4q-57 0 -92 34.5t-35 115.5v133h-61v58h61v93h-61v65h61v143h77v-143h105v-65h-105v-93h105v-58h-105v-127q0 -46 15.5 -64t38.5 -18q25 0 46 13z" />
<glyph unicode="&#x168;" horiz-adv-x="571" d="M67 0zM422 228v472h82v-469q0 -121 -57.5 -182t-160.5 -61q-105 0 -162 61t-57 182v469h82v-472q0 -89 37 -128.5t100 -39.5t99.5 39.5t36.5 128.5zM355 897h54q2 -29 -4 -48t-16 -30.5t-23 -16.5t-26 -5q-16 0 -30 6.5t-26 14t-22.5 14t-20.5 6.5q-14 0 -18 -11t-4 -26 h-55q-1 28 4.5 47.5t15.5 30.5t22.5 16t24.5 5q17 0 31.5 -6.5t26.5 -14t22.5 -14t21.5 -6.5q14 0 18 11t4 27z" />
<glyph unicode="&#x169;" horiz-adv-x="476" d="M61 0zM410 0h-68l-5 87q-21 -53 -56.5 -76t-77.5 -23q-73 0 -107.5 49.5t-34.5 139.5v310h79v-300q0 -132 86 -132q47 0 75 46t30 135v251h79v-487zM304 683h54q2 -29 -4 -48t-16 -30.5t-23 -16.5t-26 -5q-16 0 -30 6.5t-26 14t-22.5 14t-20.5 6.5q-14 0 -18 -11t-4 -26 h-55q-1 28 4.5 47.5t15.5 30.5t22.5 16t24.5 5q17 0 31.5 -6.5t26.5 -14t22.5 -14t21.5 -6.5q14 0 18 11t4 27z" />
<glyph unicode="&#x16a;" horiz-adv-x="571" d="M67 0zM422 228v472h82v-469q0 -121 -57.5 -182t-160.5 -61q-105 0 -162 61t-57 182v469h82v-472q0 -89 37 -128.5t100 -39.5t99.5 39.5t36.5 128.5zM385 873v-58h-197v58h197z" />
<glyph unicode="&#x16b;" horiz-adv-x="476" d="M61 0zM410 0h-68l-5 87q-21 -53 -56.5 -76t-77.5 -23q-73 0 -107.5 49.5t-34.5 139.5v310h79v-300q0 -132 86 -132q47 0 75 46t30 135v251h79v-487zM334 659v-58h-197v58h197z" />
<glyph unicode="&#x16c;" horiz-adv-x="571" d="M67 0zM422 228v472h82v-469q0 -121 -57.5 -182t-160.5 -61q-105 0 -162 61t-57 182v469h82v-472q0 -89 37 -128.5t100 -39.5t99.5 39.5t36.5 128.5zM344 903h55q0 -69 -29.5 -95t-82.5 -26q-54 0 -83 26t-29 95h54q0 -38 14.5 -52.5t42.5 -14.5q29 0 43.5 14.5t14.5 52.5 z" />
<glyph unicode="&#x16d;" horiz-adv-x="476" d="M61 0zM410 0h-68l-5 87q-21 -53 -56.5 -76t-77.5 -23q-73 0 -107.5 49.5t-34.5 139.5v310h79v-300q0 -132 86 -132q47 0 75 46t30 135v251h79v-487zM293 689h55q0 -69 -29.5 -95t-82.5 -26q-54 0 -83 26t-29 95h54q0 -38 14.5 -52.5t42.5 -14.5q29 0 43.5 14.5t14.5 52.5 z" />
<glyph unicode="&#x16e;" horiz-adv-x="571" d="M67 0zM422 228v472h82v-469q0 -121 -57.5 -182t-160.5 -61q-105 0 -162 61t-57 182v469h82v-472q0 -89 37 -128.5t100 -39.5t99.5 39.5t36.5 128.5zM204 856q0 43 23.5 67t60.5 24q35 0 58 -24t23 -67q0 -42 -23 -66.5t-59 -24.5t-59.5 24.5t-23.5 66.5zM246 856 q0 -23 11 -38t30 -15q17 0 29 15t12 38q0 24 -11.5 38t-28.5 14q-20 0 -31 -14t-11 -38z" />
<glyph unicode="&#x16f;" horiz-adv-x="476" d="M61 0zM410 0h-68l-5 87q-21 -53 -56.5 -76t-77.5 -23q-73 0 -107.5 49.5t-34.5 139.5v310h79v-300q0 -132 86 -132q47 0 75 46t30 135v251h79v-487zM153 642q0 43 23.5 67t60.5 24q35 0 58 -24t23 -67q0 -42 -23 -66.5t-59 -24.5t-59.5 24.5t-23.5 66.5zM195 642 q0 -23 11 -38t30 -15q17 0 29 15t12 38q0 24 -11.5 38t-28.5 14q-20 0 -31 -14t-11 -38z" />
<glyph unicode="&#x170;" horiz-adv-x="571" d="M67 0zM422 228v472h82v-469q0 -121 -57.5 -182t-160.5 -61q-105 0 -162 61t-57 182v469h82v-472q0 -89 37 -128.5t100 -39.5t99.5 39.5t36.5 128.5zM474 897l-96 -109h-60v4l60 111h96v-6zM330 903v-6l-96 -109h-60v4l60 111h96z" />
<glyph unicode="&#x171;" horiz-adv-x="476" d="M61 0zM410 0h-68l-5 87q-21 -53 -56.5 -76t-77.5 -23q-73 0 -107.5 49.5t-34.5 139.5v310h79v-300q0 -132 86 -132q47 0 75 46t30 135v251h79v-487zM423 683l-96 -109h-60v4l60 111h96v-6zM279 689v-6l-96 -109h-60v4l60 111h96z" />
<glyph unicode="&#x172;" horiz-adv-x="571" d="M342 -211q-18 0 -35.5 5t-31.5 17t-22.5 32t-8.5 51q0 30 8.5 53.5t22.5 40.5q-100 4 -154 64.5t-54 178.5v469h82v-472q0 -89 37 -128.5t100 -39.5t99.5 39.5t36.5 128.5v472h82v-469q0 -101 -40.5 -160t-115.5 -76q-25 -14 -37.5 -38.5t-12.5 -52.5q0 -32 15 -44 t35 -12q26 0 46 17l26 -49q-18 -14 -36.5 -20.5t-41.5 -6.5z" />
<glyph unicode="&#x173;" horiz-adv-x="477" d="M446 -184q-18 -14 -36.5 -20.5t-41.5 -6.5q-18 0 -35.5 5t-31.5 17t-22.5 32t-8.5 51q0 48 20.5 80t49.5 48l-3 65q-21 -53 -56.5 -76t-77.5 -23q-73 0 -107.5 49.5t-34.5 139.5v310h80v-300q0 -132 85 -132q47 0 75 46t30 135v251h79v-487h-10q-19 -2 -33 -11 t-23.5 -22.5t-14.5 -30t-5 -32.5q0 -32 15 -44t35 -12q26 0 46 17z" />
<glyph unicode="&#x174;" horiz-adv-x="699" d="M7 0zM306 698h90l105 -563l114 565h77l-148 -700h-89l-106 566l-104 -566h-89l-149 700h82l112 -569zM349 857l-50 -70h-76v3l92 112h71l93 -112v-3h-79z" />
<glyph unicode="&#x175;" horiz-adv-x="566" d="M7 0zM241 483h88l76 -384l77 388h76l-112 -487h-88l-75 378l-75 -378h-87l-114 487h81l77 -387zM282 644l-50 -70h-76v3l92 112h71l93 -112v-3h-79z" />
<glyph unicode="&#x176;" horiz-adv-x="477" d="M8 0zM197 280l-189 420h93l139 -340l141 340h88l-190 -419v-281h-82v280zM238 858l-50 -70h-76v3l92 112h71l93 -112v-3h-79z" />
<glyph unicode="&#x177;" horiz-adv-x="396" d="M0 0zM144 -65l14 53l-151 499h84l108 -392l109 392h80l-175 -579q-23 -72 -58 -98t-80 -26q-21 0 -37.5 3t-37.5 12l22 68q30 -11 50 -11q28 0 44.5 17t27.5 62zM197 644l-50 -70h-76v3l92 112h71l93 -112v-3h-79z" />
<glyph unicode="&#x178;" horiz-adv-x="477" d="M8 0zM197 280l-189 420h93l139 -340l141 340h88l-190 -419v-281h-82v280zM263 851q0 54 49 54q50 0 50 -54q0 -55 -50 -55q-49 0 -49 55zM123 851q0 26 13 40t36 14q51 0 51 -54q0 -55 -51 -55q-23 0 -36 14.5t-13 40.5z" />
<glyph unicode="&#x179;" horiz-adv-x="442" d="M17 0zM17 0v64l315 565l-298 -2v73h387v-64l-315 -565l318 2v-73h-407zM338 896l-89 -109h-64v4l59 111h94v-6z" />
<glyph unicode="&#x17a;" horiz-adv-x="368" d="M27 0zM27 0v63l220 357h-216v67h303v-63l-221 -358h227v-66h-313zM301 683l-89 -109h-64v4l59 111h94v-6z" />
<glyph unicode="&#x17b;" horiz-adv-x="442" d="M17 0zM17 0v64l315 565l-298 -2v73h387v-64l-315 -565l318 2v-73h-407zM170 849q0 26 13.5 40t37.5 14q50 0 50 -54q0 -55 -50 -55q-24 0 -37.5 14.5t-13.5 40.5z" />
<glyph unicode="&#x17c;" horiz-adv-x="368" d="M27 0zM27 0v63l220 357h-216v67h303v-63l-221 -358h227v-66h-313zM133 636q0 26 13.5 40t37.5 14q50 0 50 -54q0 -55 -50 -55q-24 0 -37.5 14.5t-13.5 40.5z" />
<glyph unicode="&#x17d;" horiz-adv-x="442" d="M17 0zM17 0v64l315 565l-298 -2v73h387v-64l-315 -565l318 2v-73h-407zM222 835l53 67h76v-2l-94 -113h-71l-91 113v2h78z" />
<glyph unicode="&#x17e;" horiz-adv-x="368" d="M27 0zM27 0v63l220 357h-216v67h303v-63l-221 -358h227v-66h-313zM185 622l53 67h76v-2l-94 -113h-71l-91 113v2h78z" />
<glyph unicode="&#x192;" horiz-adv-x="295" d="M-15 -215q-16 0 -32.5 2.5t-30.5 9.5l21 70q10 -5 18.5 -8t21.5 -3q12 0 22 5t17.5 17t13.5 32t9 51l41 349h-64l9 62h63l9 77q8 82 41.5 126t96.5 44q20 0 40 -4.5t34 -11.5l-22 -70q-9 6 -20 10.5t-24 4.5q-11 0 -22 -5t-20.5 -17t-17 -32t-10.5 -50l-7 -72h102 l-10 -62h-102l-38 -356q-9 -88 -46 -128.5t-93 -40.5z" />
<glyph unicode="&#x218;" horiz-adv-x="469" d="M11 0zM419 550l-68 -29q-18 68 -53 95.5t-78 27.5q-45 0 -75 -25.5t-30 -81.5q0 -45 25.5 -75.5t76.5 -53.5l42 -19q42 -19 72.5 -39.5t51 -45t30.5 -55t10 -69.5q0 -94 -52 -143t-143 -49q-82 0 -136 39.5t-81 127.5l68 34q38 -134 149 -134q57 0 86.5 31t29.5 88 q0 49 -25.5 80.5t-87.5 58.5l-41 18q-72 32 -112.5 82t-40.5 120q0 37 12 69.5t35.5 57t58.5 38.5t82 14q75 0 125.5 -40t68.5 -122zM272 -137q0 -55 -22.5 -95t-62.5 -59l-24 33q25 14 42 37t18 52q-21 -3 -36 9.5t-15 39.5q0 25 13.5 37.5t36.5 12.5q50 0 50 -67z" />
<glyph unicode="&#x219;" horiz-adv-x="358" d="M13 0zM179 50q41 0 60.5 19.5t19.5 53.5q0 29 -17.5 48.5t-53.5 33.5l-34 13q-63 24 -92.5 58.5t-29.5 88.5q0 57 36.5 96.5t108.5 39.5q56 0 93 -25.5t59 -84.5l-65 -33q-11 35 -33 57t-55 22q-31 0 -52 -15.5t-21 -50.5q0 -26 15.5 -45t57.5 -35l37 -14q54 -20 87 -55 t33 -94q0 -27 -9 -52t-27.5 -44.5t-48 -31.5t-70.5 -12q-37 0 -64.5 9.5t-47 26t-32 38.5t-21.5 47l65 32q27 -91 101 -91zM230 -132q0 -55 -22.5 -95t-62.5 -59l-24 33q25 14 42 37t18 52q-21 -3 -36 9.5t-15 39.5q0 25 13.5 37.5t36.5 12.5q50 0 50 -67z" />
<glyph unicode="&#x237;" horiz-adv-x="214" d="M67 -44v531h79v-542q0 -84 -33 -122t-89 -38q-18 0 -35.5 2.5t-37.5 10.5l21 73q11 -5 20 -8t22 -3q25 0 39 20t14 76z" />
<glyph unicode="&#x2c6;" horiz-adv-x="454" d="M225 644l-50 -70h-76v3l92 112h71l93 -112v-3h-79z" />
<glyph unicode="&#x2c7;" horiz-adv-x="454" d="M226 622l53 67h76v-2l-94 -113h-71l-91 113v2h78z" />
<glyph unicode="&#x2d8;" horiz-adv-x="454" d="M284 689h55q0 -69 -29.5 -95t-82.5 -26q-54 0 -83 26t-29 95h54q0 -38 14.5 -52.5t42.5 -14.5q29 0 43.5 14.5t14.5 52.5z" />
<glyph unicode="&#x2d9;" horiz-adv-x="454" d="M178 636q0 26 13.5 40t37.5 14q50 0 50 -54q0 -55 -50 -55q-24 0 -37.5 14.5t-13.5 40.5z" />
<glyph unicode="&#x2da;" horiz-adv-x="454" d="M146 642q0 43 23.5 67t60.5 24q35 0 58 -24t23 -67q0 -42 -23 -66.5t-59 -24.5t-59.5 24.5t-23.5 66.5zM188 642q0 -23 11 -38t30 -15q17 0 29 15t12 38q0 24 -11.5 38t-28.5 14q-20 0 -31 -14t-11 -38z" />
<glyph unicode="&#x2db;" horiz-adv-x="454" d="M237 -211q-18 0 -36 5t-31.5 17t-22 32t-8.5 51q0 35 11.5 61.5t30 44.5t41 27t44.5 8l3 -35q-19 -2 -33 -11t-23.5 -22.5t-14.5 -30t-5 -32.5q0 -32 15 -44t35 -12q26 0 46 17l25 -49q-18 -14 -36 -20.5t-41 -6.5z" />
<glyph unicode="&#x2dc;" horiz-adv-x="454" d="M300 683h54q2 -29 -4 -48t-16 -30.5t-23 -16.5t-26 -5q-16 0 -30 6.5t-26 14t-22.5 14t-20.5 6.5q-14 0 -18 -11t-4 -26h-55q-1 28 4.5 47.5t15.5 30.5t22.5 16t24.5 5q17 0 31.5 -6.5t26.5 -14t22.5 -14t21.5 -6.5q14 0 18 11t4 27z" />
<glyph unicode="&#x2dd;" horiz-adv-x="454" d="M419 683l-96 -109h-60v4l60 111h96v-6zM275 689v-6l-96 -109h-60v4l60 111h96z" />
<glyph unicode="&#x1e80;" horiz-adv-x="699" d="M7 0zM306 698h90l105 -563l114 565h77l-148 -700h-89l-106 566l-104 -566h-89l-149 700h82l112 -569zM325 789l-90 109v6h96l58 -111v-4h-64z" />
<glyph unicode="&#x1e81;" horiz-adv-x="566" d="M7 0zM241 483h88l76 -384l77 388h76l-112 -487h-88l-75 378l-75 -378h-87l-114 487h81l77 -387zM257 576l-90 109v6h96l58 -111v-4h-64z" />
<glyph unicode="&#x1e82;" horiz-adv-x="699" d="M7 0zM306 698h90l105 -563l114 565h77l-148 -700h-89l-106 566l-104 -566h-89l-149 700h82l112 -569zM467 896l-89 -109h-64v4l59 111h94v-6z" />
<glyph unicode="&#x1e83;" horiz-adv-x="566" d="M7 0zM241 483h88l76 -384l77 388h76l-112 -487h-88l-75 378l-75 -378h-87l-114 487h81l77 -387zM399 683l-89 -109h-64v4l59 111h94v-6z" />
<glyph unicode="&#x1e84;" horiz-adv-x="699" d="M7 0zM306 698h90l105 -563l114 565h77l-148 -700h-89l-106 566l-104 -566h-89l-149 700h82l112 -569zM374 850q0 54 49 54q50 0 50 -54q0 -55 -50 -55q-49 0 -49 55zM234 850q0 26 13 40t36 14q51 0 51 -54q0 -55 -51 -55q-23 0 -36 14.5t-13 40.5z" />
<glyph unicode="&#x1e85;" horiz-adv-x="566" d="M7 0zM241 483h88l76 -384l77 388h76l-112 -487h-88l-75 378l-75 -378h-87l-114 487h81l77 -387zM306 637q0 54 49 54q50 0 50 -54q0 -55 -50 -55q-49 0 -49 55zM166 637q0 26 13 40t36 14q51 0 51 -54q0 -55 -51 -55q-23 0 -36 14.5t-13 40.5z" />
<glyph unicode="&#x2000;" horiz-adv-x="473" />
<glyph unicode="&#x2001;" horiz-adv-x="947" />
<glyph unicode="&#x2002;" horiz-adv-x="375" />
<glyph unicode="&#x2003;" horiz-adv-x="750" />
<glyph unicode="&#x2004;" horiz-adv-x="250" />
<glyph unicode="&#x2005;" horiz-adv-x="188" />
<glyph unicode="&#x2006;" horiz-adv-x="125" />
<glyph unicode="&#x2007;" horiz-adv-x="469" />
<glyph unicode="&#x2008;" horiz-adv-x="178" />
<glyph unicode="&#x2009;" horiz-adv-x="150" />
<glyph unicode="&#x200a;" horiz-adv-x="75" />
<glyph unicode="&#x200b;" horiz-adv-x="0" />
<glyph unicode="&#x2010;" horiz-adv-x="337" d="M298 289v-69h-259v69h259z" />
<glyph unicode="&#x2011;" horiz-adv-x="337" d="M298 289v-69h-259v69h259z" />
<glyph unicode="&#x2012;" horiz-adv-x="444" d="M406 289v-69h-368v69h368z" />
<glyph unicode="&#x2013;" horiz-adv-x="444" d="M406 289v-69h-368v69h368z" />
<glyph unicode="&#x2014;" horiz-adv-x="594" d="M556 289v-69h-518v69h518z" />
<glyph unicode="&#x2015;" horiz-adv-x="817" d="M779 289v-69h-741v69h741z" />
<glyph unicode="&#x2018;" horiz-adv-x="178" d="M121 734l22 -36q-28 -16 -43.5 -40t-17.5 -51q23 2 38 -11t15 -42q0 -27 -13.5 -40.5t-36.5 -13.5q-26 0 -39.5 17t-13.5 55q0 54 22 97.5t67 64.5z" />
<glyph unicode="&#x2019;" horiz-adv-x="178" d="M55 488l-22 36q28 16 43.5 40t17.5 51q-23 -2 -38 11t-15 42q0 27 13.5 40.5t36.5 13.5q26 0 39.5 -17t13.5 -55q0 -54 -22 -97.5t-67 -64.5z" />
<glyph unicode="&#x201a;" horiz-adv-x="177" d="M54 -126l-22 36q28 15 43 39t17 50q-22 -2 -37 11t-15 41q0 26 13.5 39.5t35.5 13.5q26 0 39.5 -16.5t13.5 -54.5q0 -53 -22 -95.5t-66 -63.5z" />
<glyph unicode="&#x201c;" horiz-adv-x="314" d="M121 734l22 -36q-28 -16 -43.5 -40t-17.5 -51q23 2 38 -11t15 -42q0 -27 -13.5 -40.5t-36.5 -13.5q-26 0 -39.5 17t-13.5 55q0 54 22 97.5t67 64.5zM257 734l22 -36q-28 -16 -43.5 -40t-17.5 -51q23 2 38 -11t15 -42q0 -27 -13.5 -40.5t-36.5 -13.5q-26 0 -39.5 17 t-13.5 55q0 54 22 97.5t67 64.5z" />
<glyph unicode="&#x201d;" horiz-adv-x="314" d="M53 487l-22 36q28 16 43.5 40t17.5 51q-23 -2 -38 11t-15 42q0 27 13.5 40.5t36.5 13.5q26 0 39.5 -17t13.5 -55q0 -54 -22 -97.5t-67 -64.5zM190 487l-22 36q28 16 43.5 40t17.5 51q-23 -2 -38 11t-15 42q0 27 13.5 40.5t36.5 13.5q26 0 39.5 -17t13.5 -55 q0 -54 -22 -97.5t-67 -64.5z" />
<glyph unicode="&#x201e;" horiz-adv-x="312" d="M54 -127l-22 36q28 15 43 39t17 50q-22 -2 -37 11t-15 41q0 26 13.5 39.5t35.5 13.5q26 0 39.5 -16.5t13.5 -54.5q0 -53 -22 -95.5t-66 -63.5zM189 -127l-22 36q28 15 43 39t17 50q-22 -2 -37 11t-15 41q0 26 13.5 39.5t35.5 13.5q26 0 39.5 -16.5t13.5 -54.5 q0 -53 -22 -95.5t-66 -63.5z" />
<glyph unicode="&#x2020;" horiz-adv-x="237" d="M201 532h-49l-2 -233h-65v233h-51v57h50l-1 119h71l-2 -119h49v-57z" />
<glyph unicode="&#x2021;" horiz-adv-x="237" d="M34 476h52v63h-52v58h51l-2 111h71l-3 -111h50v-58h-50v-63h50v-59h-50l3 -118h-71l1 118h-50v59z" />
<glyph unicode="&#x2022;" horiz-adv-x="327" d="M41 327q0 58 32 95.5t91 37.5q57 0 90 -37.5t33 -95.5q0 -59 -33 -96t-90 -37q-59 0 -91 37t-32 96z" />
<glyph unicode="&#x2026;" horiz-adv-x="538" d="M447 -5q-24 0 -37.5 14.5t-13.5 40.5q0 27 13.5 41t37.5 14q50 0 50 -55q0 -26 -12.5 -40.5t-37.5 -14.5zM269 -5q-24 0 -37.5 14.5t-13.5 40.5q0 27 13.5 41t37.5 14q51 0 51 -55q0 -26 -13 -40.5t-38 -14.5zM91 -5q-24 0 -37.5 14.5t-13.5 40.5q0 27 13.5 41t37.5 14 q51 0 51 -55q0 -26 -13 -40.5t-38 -14.5z" />
<glyph unicode="&#x202f;" horiz-adv-x="189" />
<glyph unicode="&#x2030;" horiz-adv-x="1113" d="M31 0zM492 205q0 112 32 162.5t101 50.5q68 0 99 -50.5t31 -162.5t-31 -162.5t-99 -50.5q-69 0 -101 51.5t-32 161.5zM693 205q0 45 -4.5 75.5t-13.5 48.5t-21.5 26t-28.5 8q-34 0 -51.5 -34.5t-17.5 -122.5q0 -46 4.5 -76.5t13 -49t21.5 -26.5t30 -8q16 0 28.5 8 t21.5 26.5t13.5 49t4.5 75.5zM31 498q0 112 32 162.5t101 50.5q68 0 99 -50.5t31 -162.5t-31 -162.5t-99 -50.5q-69 0 -101 51.5t-32 161.5zM232 498q0 45 -4.5 75.5t-13.5 48.5t-21.5 26t-28.5 8q-34 0 -51.5 -34.5t-17.5 -122.5q0 -46 4.5 -76.5t13 -49t21.5 -26.5t30 -8 q16 0 28.5 8t21.5 26.5t13.5 49t4.5 75.5zM813 205q0 112 32 162.5t101 50.5q68 0 99 -50.5t31 -162.5t-31 -162.5t-99 -50.5q-69 0 -101 51.5t-32 161.5zM1014 205q0 45 -4.5 75.5t-13.5 48.5t-21.5 26t-28.5 8q-34 0 -51.5 -34.5t-17.5 -122.5q0 -46 4.5 -76.5t13 -49 t21.5 -26.5t30 -8q16 0 28.5 8t21.5 26.5t13.5 49t4.5 75.5zM557 700l-255 -700h-72l254 700h73z" />
<glyph unicode="&#x2039;" horiz-adv-x="318" d="M184 0l-144 241v3l144 243h85l-145 -242l147 -245h-87z" />
<glyph unicode="&#x203a;" horiz-adv-x="318" d="M129 486l144 -241v-3l-144 -243h-85l145 242l-147 245h87z" />
<glyph unicode="&#x2044;" horiz-adv-x="394" d="M359 700l-255 -700h-72l254 700h73z" />
<glyph unicode="&#x205f;" horiz-adv-x="236" />
<glyph unicode="&#x2070;" horiz-adv-x="326" d="M31 286zM31 499q0 112 32 162.5t101 50.5q68 0 99 -50.5t31 -162.5t-31 -162.5t-99 -50.5q-69 0 -101 51.5t-32 161.5zM232 499q0 45 -4.5 75.5t-13.5 48.5t-21.5 26t-28.5 8q-34 0 -51.5 -34.5t-17.5 -122.5q0 -46 4.5 -76.5t13 -49t21.5 -26.5t30 -8q16 0 28.5 8 t21.5 26.5t13.5 49t4.5 75.5z" />
<glyph unicode="&#x2074;" horiz-adv-x="302" d="M16 294zM16 394v46l97 264h61l-94 -253h106v164h61v-164h42v-57h-42v-100h-61v100h-170z" />
<glyph unicode="&#x2075;" horiz-adv-x="282" d="M11 286zM92 649l-7 -114q13 11 30 16t34 5q45 0 76 -30t31 -99q0 -63 -31 -102t-94 -39q-42 0 -74 19.5t-46 66.5l49 23q9 -31 27.5 -43.5t41.5 -12.5q32 0 48 23.5t16 63.5q0 79 -63 79q-37 0 -61 -32l-42 20l14 211h198v-55h-147z" />
<glyph unicode="&#x2076;" horiz-adv-x="307" d="M31 286zM165 286q-64 0 -99 50t-35 162q0 110 34.5 162t101.5 52q42 0 69 -17.5t41 -56.5l-46 -26q-19 47 -60 47q-18 0 -32.5 -8t-24 -26.5t-15 -50t-5.5 -78.5v-14q9 32 31 51t54 19q45 0 73 -32.5t28 -95.5q0 -62 -28.5 -100t-86.5 -38zM104 418q0 -35 15 -57.5 t43 -22.5q26 0 41.5 20t15.5 62q0 81 -55 81q-28 0 -44 -22.5t-16 -60.5z" />
<glyph unicode="&#x2077;" horiz-adv-x="244" d="M12 294zM135 294h-69q0 56 8 108t22 98t34 83.5t43 64.5l-161 -2v58h224v-53q-49 -53 -75 -139.5t-26 -217.5z" />
<glyph unicode="&#x2078;" horiz-adv-x="303" d="M31 286zM152 286q-57 0 -89 32.5t-32 87.5q0 39 16 65.5t42 37.5q-21 14 -34 37.5t-13 53.5q0 53 29.5 82.5t80.5 29.5t80 -29.5t29 -82.5q0 -30 -13 -53.5t-33 -37.5q25 -11 41 -37.5t16 -65.5q0 -55 -31.5 -87.5t-88.5 -32.5zM204 597q0 26 -13.5 44t-37.5 18 q-26 0 -39.5 -18t-13.5 -44t13 -44t39 -18q25 0 38.5 18t13.5 44zM211 409q0 30 -15.5 50.5t-43.5 20.5q-29 0 -44 -20.5t-15 -50.5q0 -32 15 -52t44 -20t44 20t15 52z" />
<glyph unicode="&#x2079;" horiz-adv-x="305" d="M26 286zM142 712q64 0 98 -50.5t34 -161.5q0 -110 -34 -162t-101 -52q-40 0 -68.5 15.5t-42.5 52.5l42 32q22 -48 65 -48q18 0 32.5 8t24 27t15 50t5.5 78v6q0 6 -1 7q-8 -33 -29.5 -52t-53.5 -19q-47 0 -74.5 33.5t-27.5 96.5q0 62 29 100.5t87 38.5zM202 578 q0 36 -16 58.5t-42 22.5t-41.5 -20t-15.5 -62q0 -39 14.5 -61t41.5 -22q26 0 42.5 23t16.5 61z" />
<glyph unicode="&#x207a;" horiz-adv-x="237" d="M26 356zM144 356h-50v94h-68v49h68v95h50v-95h67v-49h-67v-94z" />
<glyph unicode="&#x207b;" horiz-adv-x="237" d="M26 448zM211 501v-53h-185v53h185z" />
<glyph unicode="&#x207c;" horiz-adv-x="237" d="M26 404zM211 545v-55h-185v55h185zM211 458v-54h-185v54h185z" />
<glyph unicode="&#x207d;" horiz-adv-x="164" d="M18 231zM151 284l-16 -53q-59 14 -88 72t-29 172q0 115 29 173t88 72l16 -53q-20 -6 -34.5 -18t-24.5 -34t-15 -56.5t-5 -83.5t5 -82.5t15 -56t24.5 -34.5t34.5 -18z" />
<glyph unicode="&#x207e;" horiz-adv-x="164" d="M13 231zM28 231l-15 53q19 6 34 18t24.5 34.5t14.5 56t5 82.5t-5 83.5t-14.5 56.5t-24.5 34t-34 18l16 53q59 -14 88 -72t29 -173q0 -114 -29.5 -172t-88.5 -72z" />
<glyph unicode="&#x2080;" horiz-adv-x="326" d="M31 205q0 112 32 162.5t101 50.5q68 0 99 -50.5t31 -162.5t-31 -162.5t-99 -50.5q-69 0 -101 51.5t-32 161.5zM232 205q0 45 -4.5 75.5t-13.5 48.5t-21.5 26t-28.5 8q-34 0 -51.5 -34.5t-17.5 -122.5q0 -46 4.5 -76.5t13 -49t21.5 -26.5t30 -8q16 0 28.5 8t21.5 26.5 t13.5 49t4.5 75.5z" />
<glyph unicode="&#x2081;" horiz-adv-x="180" d="M133 0h-63v327l-37 -32l-26 52l84 65h42v-412z" />
<glyph unicode="&#x2082;" horiz-adv-x="266" d="M20 0v49l115 163q41 59 41 95q0 55 -49 55q-24 0 -41 -14t-30 -46l-47 21q17 52 48.5 73.5t74.5 21.5q51 0 79 -26.5t28 -75.5q0 -31 -13.5 -62t-44.5 -75l-86 -124l156 2v-57h-231z" />
<glyph unicode="&#x2083;" horiz-adv-x="279" d="M132 -8q-44 0 -74.5 20t-45.5 66l50 24q10 -32 28 -44.5t39 -12.5q29 0 45 18.5t16 54.5q0 33 -15.5 50t-44.5 17h-30v53h29q23 0 38 17.5t15 47.5q0 29 -14.5 44.5t-40.5 15.5q-48 0 -63 -55l-48 21q25 89 119 89q55 0 82 -28t27 -76q0 -33 -13 -58t-36 -42 q26 -11 41.5 -36t15.5 -63q0 -54 -30 -88.5t-90 -34.5z" />
<glyph unicode="&#x2084;" horiz-adv-x="301" d="M16 100v46l97 264h61l-94 -253h106v164h61v-164h42v-57h-42v-100h-61v100h-170z" />
<glyph unicode="&#x2085;" horiz-adv-x="282" d="M92 355l-7 -114q13 11 30 16t34 5q45 0 76 -30t31 -99q0 -63 -31 -102t-94 -39q-42 0 -74 19.5t-46 66.5l49 23q9 -31 27.5 -43.5t41.5 -12.5q32 0 48 23.5t16 63.5q0 79 -63 79q-37 0 -61 -32l-42 20l14 211h198v-55h-147z" />
<glyph unicode="&#x2086;" horiz-adv-x="307" d="M165 -8q-64 0 -99 50t-35 162q0 110 34.5 162t101.5 52q42 0 69 -17.5t41 -56.5l-46 -26q-19 47 -60 47q-18 0 -32.5 -8t-24 -26.5t-15 -50t-5.5 -78.5v-14q9 32 31 51t54 19q45 0 73 -32.5t28 -95.5q0 -62 -28.5 -100t-86.5 -38zM104 124q0 -35 15 -57.5t43 -22.5 q26 0 41.5 20t15.5 62q0 81 -55 81q-28 0 -44 -22.5t-16 -60.5z" />
<glyph unicode="&#x2087;" horiz-adv-x="244" d="M135 0h-69q0 56 8 108t22 98t34 83.5t43 64.5l-161 -2v58h224v-53q-49 -53 -75 -139.5t-26 -217.5z" />
<glyph unicode="&#x2088;" horiz-adv-x="303" d="M152 -8q-57 0 -89 32.5t-32 87.5q0 39 16 65.5t42 37.5q-21 14 -34 37.5t-13 53.5q0 53 29.5 82.5t80.5 29.5t80 -29.5t29 -82.5q0 -30 -13 -53.5t-33 -37.5q25 -11 41 -37.5t16 -65.5q0 -55 -31.5 -87.5t-88.5 -32.5zM204 303q0 26 -13.5 44t-37.5 18q-26 0 -39.5 -18 t-13.5 -44t13 -44t39 -18q25 0 38.5 18t13.5 44zM211 115q0 30 -15.5 50.5t-43.5 20.5q-29 0 -44 -20.5t-15 -50.5q0 -32 15 -52t44 -20t44 20t15 52z" />
<glyph unicode="&#x2089;" horiz-adv-x="305" d="M142 418q64 0 98 -50.5t34 -161.5q0 -110 -34 -162t-101 -52q-40 0 -68.5 15.5t-42.5 52.5l42 32q22 -48 65 -48q18 0 32.5 8t24 27t15 50t5.5 78v6q0 6 -1 7q-8 -33 -29.5 -52t-53.5 -19q-47 0 -74.5 33.5t-27.5 96.5q0 62 29 100.5t87 38.5zM202 284q0 36 -16 58.5 t-42 22.5t-41.5 -20t-15.5 -62q0 -39 14.5 -61t41.5 -22q26 0 42.5 23t16.5 61z" />
<glyph unicode="&#x208a;" horiz-adv-x="237" d="M144 62h-50v94h-68v49h68v95h50v-95h67v-49h-67v-94z" />
<glyph unicode="&#x208b;" horiz-adv-x="237" d="M211 207v-53h-185v53h185z" />
<glyph unicode="&#x208c;" horiz-adv-x="237" d="M211 251v-55h-185v55h185zM211 164v-54h-185v54h185z" />
<glyph unicode="&#x208d;" horiz-adv-x="164" d="M151 -10l-16 -53q-59 14 -88 72t-29 172q0 115 29 173t88 72l16 -53q-20 -6 -34.5 -18t-24.5 -34t-15 -56.5t-5 -83.5t5 -82.5t15 -56t24.5 -34.5t34.5 -18z" />
<glyph unicode="&#x208e;" horiz-adv-x="164" d="M28 -63l-15 53q19 6 34 18t24.5 34.5t14.5 56t5 82.5t-5 83.5t-14.5 56.5t-24.5 34t-34 18l16 53q59 -14 88 -72t29 -173q0 -114 -29.5 -172t-88.5 -72z" />
<glyph unicode="&#x20ac;" horiz-adv-x="521" d="M503 153q-25 -89 -78.5 -127t-132.5 -38q-97 0 -151.5 61t-69.5 194h-66v66h62q-2 14 -1.5 31t0.5 26h-61v65h63q12 147 71 214t161 67q37 0 68 -8t56 -27.5t43.5 -52.5t30.5 -82l-73 -28q-17 73 -49.5 101t-80.5 28q-30 0 -55 -10.5t-43.5 -35.5t-30.5 -65.5t-16 -100.5 h221l-13 -65h-211v-25q0 -17 1 -32h200l-14 -66h-181q12 -103 48 -145t93 -42q48 0 85 30t52 100z" />
<glyph unicode="&#x2122;" horiz-adv-x="525" d="M18 700h193v-45h-72v-249h-47v249h-74v45zM239 406v294h53l74 -233l76 233h52v-294h-46l2 196l-65 -196h-39l-63 193l2 -193h-46z" />
<glyph unicode="&#x2153;" horiz-adv-x="640" d="M7 0zM487 -8q-44 0 -74.5 20t-45.5 66l50 24q10 -32 28 -44.5t39 -12.5q29 0 45 18.5t16 54.5q0 33 -15.5 50t-44.5 17h-30v53h29q23 0 38 17.5t15 47.5q0 29 -14.5 44.5t-40.5 15.5q-48 0 -63 -55l-48 21q25 89 119 89q55 0 82 -28t27 -76q0 -33 -13 -58t-36 -42 q26 -11 41.5 -36t15.5 -63q0 -54 -30 -88.5t-90 -34.5zM133 293h-63v327l-37 -32l-26 52l84 65h42v-412zM435 700l-255 -700h-72l254 700h73z" />
<glyph unicode="&#x2154;" horiz-adv-x="733" d="M9 0zM580 -8q-44 0 -74.5 20t-45.5 66l50 24q10 -32 28 -44.5t39 -12.5q29 0 45 18.5t16 54.5q0 33 -15.5 50t-44.5 17h-30v53h29q23 0 38 17.5t15 47.5q0 29 -14.5 44.5t-40.5 15.5q-48 0 -63 -55l-48 21q25 89 119 89q55 0 82 -28t27 -76q0 -33 -13 -58t-36 -42 q26 -11 41.5 -36t15.5 -63q0 -54 -30 -88.5t-90 -34.5zM20 293v49l115 163q41 59 41 95q0 55 -49 55q-24 0 -41 -14t-30 -46l-47 21q17 52 48.5 73.5t74.5 21.5q51 0 79 -26.5t28 -75.5q0 -31 -13.5 -62t-44.5 -75l-86 -124l156 2v-57h-231zM529 700l-255 -700h-72l254 700 h73z" />
<glyph unicode="&#x2155;" horiz-adv-x="636" d="M7 0zM133 293h-63v327l-37 -32l-26 52l84 65h42v-412zM450 355l-7 -114q13 11 30 16t34 5q45 0 76 -30t31 -99q0 -63 -31 -102t-94 -39q-42 0 -74 19.5t-46 66.5l49 23q9 -31 27.5 -43.5t41.5 -12.5q32 0 48 23.5t16 63.5q0 79 -63 79q-37 0 -61 -32l-42 20l14 211h198 v-55h-147zM435 700l-255 -700h-72l254 700h73z" />
<glyph unicode="&#x2156;" horiz-adv-x="728" d="M9 0zM20 293v49l115 163q41 59 41 95q0 55 -49 55q-24 0 -41 -14t-30 -46l-47 21q17 52 48.5 73.5t74.5 21.5q51 0 79 -26.5t28 -75.5q0 -31 -13.5 -62t-44.5 -75l-86 -124l156 2v-57h-231zM542 355l-7 -114q13 11 30 16t34 5q45 0 76 -30t31 -99q0 -63 -31 -102t-94 -39 q-42 0 -74 19.5t-46 66.5l49 23q9 -31 27.5 -43.5t41.5 -12.5q32 0 48 23.5t16 63.5q0 79 -63 79q-37 0 -61 -32l-42 20l14 211h198v-55h-147zM529 700l-255 -700h-72l254 700h73z" />
<glyph unicode="&#x2157;" horiz-adv-x="724" d="M12 0zM132 285q-44 0 -74.5 20t-45.5 66l50 24q10 -32 28 -44.5t39 -12.5q29 0 45 18.5t16 54.5q0 33 -15.5 50t-44.5 17h-30v53h29q23 0 38 17.5t15 47.5q0 29 -14.5 44.5t-40.5 15.5q-48 0 -63 -55l-48 21q25 89 119 89q55 0 82 -28t27 -76q0 -33 -13 -58t-36 -42 q26 -11 41.5 -36t15.5 -63q0 -54 -30 -88.5t-90 -34.5zM539 355l-7 -114q13 11 30 16t34 5q45 0 76 -30t31 -99q0 -63 -31 -102t-94 -39q-42 0 -74 19.5t-46 66.5l49 23q9 -31 27.5 -43.5t41.5 -12.5q32 0 48 23.5t16 63.5q0 79 -63 79q-37 0 -61 -32l-42 20l14 211h198v-55 h-147zM524 700l-255 -700h-72l254 700h73z" />
<glyph unicode="&#x2158;" horiz-adv-x="747" d="M16 0zM561 355l-7 -114q13 11 30 16t34 5q45 0 76 -30t31 -99q0 -63 -31 -102t-94 -39q-42 0 -74 19.5t-46 66.5l49 23q9 -31 27.5 -43.5t41.5 -12.5q32 0 48 23.5t16 63.5q0 79 -63 79q-37 0 -61 -32l-42 20l14 211h198v-55h-147zM547 700l-255 -700h-72l254 700h73z M16 393v46l97 264h61l-94 -253h106v164h61v-164h42v-57h-42v-100h-61v100h-170z" />
<glyph unicode="&#x2159;" horiz-adv-x="663" d="M7 0zM133 293h-63v327l-37 -32l-26 52l84 65h42v-412zM517 -8q-64 0 -99 50t-35 162q0 110 34.5 162t101.5 52q42 0 69 -17.5t41 -56.5l-46 -26q-19 47 -60 47q-18 0 -32.5 -8t-24 -26.5t-15 -50t-5.5 -78.5v-14q9 32 31 51t54 19q45 0 73 -32.5t28 -95.5 q0 -62 -28.5 -100t-86.5 -38zM456 124q0 -35 15 -57.5t43 -22.5q26 0 41.5 20t15.5 62q0 81 -55 81q-28 0 -44 -22.5t-16 -60.5zM435 700l-255 -700h-72l254 700h73z" />
<glyph unicode="&#x215a;" horiz-adv-x="752" d="M11 0zM92 648l-7 -114q13 11 30 16t34 5q45 0 76 -30t31 -99q0 -63 -31 -102t-94 -39q-42 0 -74 19.5t-46 66.5l49 23q9 -31 27.5 -43.5t41.5 -12.5q32 0 48 23.5t16 63.5q0 79 -63 79q-37 0 -61 -32l-42 20l14 211h198v-55h-147zM606 -8q-64 0 -99 50t-35 162 q0 110 34.5 162t101.5 52q42 0 69 -17.5t41 -56.5l-46 -26q-19 47 -60 47q-18 0 -32.5 -8t-24 -26.5t-15 -50t-5.5 -78.5v-14q9 32 31 51t54 19q45 0 73 -32.5t28 -95.5q0 -62 -28.5 -100t-86.5 -38zM545 124q0 -35 15 -57.5t43 -22.5q26 0 41.5 20t15.5 62q0 81 -55 81 q-28 0 -44 -22.5t-16 -60.5zM524 700l-255 -700h-72l254 700h73z" />
<glyph unicode="&#x215b;" horiz-adv-x="658" d="M7 0zM133 293h-63v327l-37 -32l-26 52l84 65h42v-412zM506 -8q-57 0 -89 32.5t-32 87.5q0 39 16 65.5t42 37.5q-21 14 -34 37.5t-13 53.5q0 53 29.5 82.5t80.5 29.5t80 -29.5t29 -82.5q0 -30 -13 -53.5t-33 -37.5q25 -11 41 -37.5t16 -65.5q0 -55 -31.5 -87.5 t-88.5 -32.5zM558 303q0 26 -13.5 44t-37.5 18q-26 0 -39.5 -18t-13.5 -44t13 -44t39 -18q25 0 38.5 18t13.5 44zM565 115q0 30 -15.5 50.5t-43.5 20.5q-29 0 -44 -20.5t-15 -50.5q0 -32 15 -52t44 -20t44 20t15 52zM435 700l-255 -700h-72l254 700h73z" />
<glyph unicode="&#x215c;" horiz-adv-x="746" d="M12 0zM132 285q-44 0 -74.5 20t-45.5 66l50 24q10 -32 28 -44.5t39 -12.5q29 0 45 18.5t16 54.5q0 33 -15.5 50t-44.5 17h-30v53h29q23 0 38 17.5t15 47.5q0 29 -14.5 44.5t-40.5 15.5q-48 0 -63 -55l-48 21q25 89 119 89q55 0 82 -28t27 -76q0 -33 -13 -58t-36 -42 q26 -11 41.5 -36t15.5 -63q0 -54 -30 -88.5t-90 -34.5zM595 -8q-57 0 -89 32.5t-32 87.5q0 39 16 65.5t42 37.5q-21 14 -34 37.5t-13 53.5q0 53 29.5 82.5t80.5 29.5t80 -29.5t29 -82.5q0 -30 -13 -53.5t-33 -37.5q25 -11 41 -37.5t16 -65.5q0 -55 -31.5 -87.5t-88.5 -32.5z M647 303q0 26 -13.5 44t-37.5 18q-26 0 -39.5 -18t-13.5 -44t13 -44t39 -18q25 0 38.5 18t13.5 44zM654 115q0 30 -15.5 50.5t-43.5 20.5q-29 0 -44 -20.5t-15 -50.5q0 -32 15 -52t44 -20t44 20t15 52zM524 700l-255 -700h-72l254 700h73z" />
<glyph unicode="&#x215d;" horiz-adv-x="746" d="M11 0zM595 -8q-57 0 -89 32.5t-32 87.5q0 39 16 65.5t42 37.5q-21 14 -34 37.5t-13 53.5q0 53 29.5 82.5t80.5 29.5t80 -29.5t29 -82.5q0 -30 -13 -53.5t-33 -37.5q25 -11 41 -37.5t16 -65.5q0 -55 -31.5 -87.5t-88.5 -32.5zM647 303q0 26 -13.5 44t-37.5 18 q-26 0 -39.5 -18t-13.5 -44t13 -44t39 -18q25 0 38.5 18t13.5 44zM654 115q0 30 -15.5 50.5t-43.5 20.5q-29 0 -44 -20.5t-15 -50.5q0 -32 15 -52t44 -20t44 20t15 52zM92 648l-7 -114q13 11 30 16t34 5q45 0 76 -30t31 -99q0 -63 -31 -102t-94 -39q-42 0 -74 19.5t-46 66.5 l49 23q9 -31 27.5 -43.5t41.5 -12.5q32 0 48 23.5t16 63.5q0 79 -63 79q-37 0 -61 -32l-42 20l14 211h198v-55h-147zM524 700l-255 -700h-72l254 700h73z" />
<glyph unicode="&#x215e;" horiz-adv-x="693" d="M12 0zM541 -8q-57 0 -89 32.5t-32 87.5q0 39 16 65.5t42 37.5q-21 14 -34 37.5t-13 53.5q0 53 29.5 82.5t80.5 29.5t80 -29.5t29 -82.5q0 -30 -13 -53.5t-33 -37.5q25 -11 41 -37.5t16 -65.5q0 -55 -31.5 -87.5t-88.5 -32.5zM593 303q0 26 -13.5 44t-37.5 18 q-26 0 -39.5 -18t-13.5 -44t13 -44t39 -18q25 0 38.5 18t13.5 44zM600 115q0 30 -15.5 50.5t-43.5 20.5q-29 0 -44 -20.5t-15 -50.5q0 -32 15 -52t44 -20t44 20t15 52zM135 293h-69q0 56 8 108t22 98t34 83.5t43 64.5l-161 -2v58h224v-53q-49 -53 -75 -139.5t-26 -217.5z M471 700l-255 -700h-72l254 700h73z" />
<glyph unicode="&#x215f;" horiz-adv-x="627" d="M7 0zM133 293h-63v327l-37 -32l-26 52l84 65h42v-412zM435 700l-255 -700h-72l254 700h73z" />
<glyph unicode="&#x2212;" horiz-adv-x="383" d="M344 343v-65h-304v65h304z" />
<glyph unicode="&#x2248;" horiz-adv-x="383" d="M262 396q16 0 39.5 6t42.5 23v-70q-16 -13 -40.5 -19.5t-46.5 -6.5q-20 0 -36.5 5.5t-32 11.5t-31 11.5t-33.5 5.5q-17 0 -40.5 -5.5t-43.5 -22.5v70q17 14 40.5 20t44.5 6t38 -5.5t33 -12t32 -12t34 -5.5zM262 248q16 0 39.5 6t42.5 23v-70q-16 -14 -40.5 -20.5 t-46.5 -6.5q-20 0 -36.5 5.5t-32 12t-31 12t-33.5 5.5q-17 0 -40.5 -5.5t-43.5 -22.5v70q17 13 40.5 19t44.5 6t38 -5.5t33 -11.5t32 -11.5t34 -5.5z" />
<glyph unicode="&#x2260;" horiz-adv-x="383" d="M40 346v69h180l47 87h60l-48 -87h65v-69h-102l-40 -73h142v-69h-179l-46 -85h-61l47 85h-65v69h102l40 73h-142z" />
<glyph unicode="&#x2264;" horiz-adv-x="446" d="M323 523l37 -57l-177 -133l178 -133l-38 -60l-232 172v40zM78 0v68h290v-68h-290z" />
<glyph unicode="&#x2265;" horiz-adv-x="446" d="M129 140l-37 58l176 133l-177 133l39 59l231 -170v-39zM368 68v-68h-290v68h290z" />
<glyph unicode="&#x25fc;" horiz-adv-x="485" d="M0 485h485v-485h-485v485z" />
<glyph unicode="&#xf6c3;" horiz-adv-x="454" d="M276 -132q0 -55 -22.5 -95t-62.5 -59l-24 33q25 14 42 37t18 52q-21 -3 -36 9.5t-15 39.5q0 25 13.5 37.5t36.5 12.5q50 0 50 -67z" />
<glyph horiz-adv-x="354" d="M204 -65v831h71v-831h-71zM79 -65v831h72v-831h-72z" />
<glyph horiz-adv-x="178" d="M121 488q-45 21 -67 64.5t-22 97.5q0 38 13.5 55t39.5 17q23 0 36.5 -13.5t13.5 -40.5q0 -29 -15 -42t-38 -11q2 -27 17.5 -51t43.5 -40z" />
<glyph horiz-adv-x="314" d="M120 487q-45 21 -67 64.5t-22 97.5q0 38 13.5 55t39.5 17q23 0 36.5 -13.5t13.5 -40.5q0 -29 -15 -42t-38 -11q2 -27 17.5 -51t43.5 -40zM257 487q-45 21 -67 64.5t-22 97.5q0 38 13.5 55t39.5 17q23 0 36.5 -13.5t13.5 -40.5q0 -29 -15 -42t-38 -11q2 -27 17.5 -51 t43.5 -40z" />
<glyph horiz-adv-x="466" d="M41 0zM321 242q0 101 -29 145.5t-75 44.5q-50 0 -73.5 -46t-23.5 -143q0 -98 23.5 -143.5t73.5 -45.5q45 0 74.5 44.5t29.5 143.5zM194 -12q-73 0 -113 65.5t-40 190.5t42 190t119 65q88 0 126 -94l7 82h64v-487h-65l-7 82q-21 -48 -53 -71t-80 -23zM365 -211 q-18 0 -36 5t-31.5 17t-22 32t-8.5 51q0 35 11.5 61.5t30 44.5t41 27t44.5 8l3 -35q-19 -2 -33 -11t-23.5 -22.5t-14.5 -30t-5 -32.5q0 -32 15 -44t35 -12q26 0 46 17l25 -49q-18 -14 -36 -20.5t-41 -6.5z" />
<glyph horiz-adv-x="465" d="M321 242q0 101 -29 145.5t-75 44.5q-50 0 -73.5 -46t-23.5 -143q0 -98 23.5 -143.5t73.5 -45.5q45 0 74.5 44.5t29.5 143.5zM194 -12q-73 0 -113 65.5t-40 190.5t42 190t119 65q88 0 126 -94l7 82h64v-487h-65l-7 82q-21 -48 -53 -71t-80 -23z" />
<glyph horiz-adv-x="465" d="M41 0zM321 242q0 101 -29 145.5t-75 44.5q-50 0 -73.5 -46t-23.5 -143q0 -98 23.5 -143.5t73.5 -45.5q45 0 74.5 44.5t29.5 143.5zM194 -12q-73 0 -113 65.5t-40 190.5t42 190t119 65q88 0 126 -94l7 82h64v-487h-65l-7 82q-21 -48 -53 -71t-80 -23zM193 576l-90 109v6 h96l58 -111v-4h-64z" />
<glyph horiz-adv-x="465" d="M41 0zM321 242q0 101 -29 145.5t-75 44.5q-50 0 -73.5 -46t-23.5 -143q0 -98 23.5 -143.5t73.5 -45.5q45 0 74.5 44.5t29.5 143.5zM194 -12q-73 0 -113 65.5t-40 190.5t42 190t119 65q88 0 126 -94l7 82h64v-487h-65l-7 82q-21 -48 -53 -71t-80 -23zM333 683l-89 -109 h-64v4l59 111h94v-6z" />
<glyph horiz-adv-x="465" d="M41 0zM216 644l-50 -70h-76v3l92 112h71l93 -112v-3h-79zM321 242q0 101 -29 145.5t-75 44.5q-50 0 -73.5 -46t-23.5 -143q0 -98 23.5 -143.5t73.5 -45.5q45 0 74.5 44.5t29.5 143.5zM194 -12q-73 0 -113 65.5t-40 190.5t42 190t119 65q88 0 126 -94l7 82h64v-487h-65 l-7 82q-21 -48 -53 -71t-80 -23z" />
<glyph horiz-adv-x="465" d="M41 0zM237 637q0 54 49 54q50 0 50 -54q0 -55 -50 -55q-49 0 -49 55zM97 637q0 26 13 40t36 14q51 0 51 -54q0 -55 -51 -55q-23 0 -36 14.5t-13 40.5zM321 242q0 101 -29 145.5t-75 44.5q-50 0 -73.5 -46t-23.5 -143q0 -98 23.5 -143.5t73.5 -45.5q45 0 74.5 44.5 t29.5 143.5zM194 -12q-73 0 -113 65.5t-40 190.5t42 190t119 65q88 0 126 -94l7 82h64v-487h-65l-7 82q-21 -48 -53 -71t-80 -23z" />
<glyph horiz-adv-x="465" d="M41 0zM321 242q0 101 -29 145.5t-75 44.5q-50 0 -73.5 -46t-23.5 -143q0 -98 23.5 -143.5t73.5 -45.5q45 0 74.5 44.5t29.5 143.5zM194 -12q-73 0 -113 65.5t-40 190.5t42 190t119 65q88 0 126 -94l7 82h64v-487h-65l-7 82q-21 -48 -53 -71t-80 -23zM285 683h54 q2 -29 -4 -48t-16 -30.5t-23 -16.5t-26 -5q-16 0 -30 6.5t-26 14t-22.5 14t-20.5 6.5q-14 0 -18 -11t-4 -26h-55q-1 28 4.5 47.5t15.5 30.5t22.5 16t24.5 5q17 0 31.5 -6.5t26.5 -14t22.5 -14t21.5 -6.5q14 0 18 11t4 27z" />
<glyph horiz-adv-x="465" d="M41 0zM321 242q0 101 -29 145.5t-75 44.5q-50 0 -73.5 -46t-23.5 -143q0 -98 23.5 -143.5t73.5 -45.5q45 0 74.5 44.5t29.5 143.5zM194 -12q-73 0 -113 65.5t-40 190.5t42 190t119 65q88 0 126 -94l7 82h64v-487h-65l-7 82q-21 -48 -53 -71t-80 -23zM134 642 q0 43 23.5 67t60.5 24q35 0 58 -24t23 -67q0 -42 -23 -66.5t-59 -24.5t-59.5 24.5t-23.5 66.5zM176 642q0 -23 11 -38t30 -15q17 0 29 15t12 38q0 24 -11.5 38t-28.5 14q-20 0 -31 -14t-11 -38z" />
<glyph horiz-adv-x="465" d="M41 0zM321 242q0 101 -29 145.5t-75 44.5q-50 0 -73.5 -46t-23.5 -143q0 -98 23.5 -143.5t73.5 -45.5q45 0 74.5 44.5t29.5 143.5zM194 -12q-73 0 -113 65.5t-40 190.5t42 190t119 65q88 0 126 -94l7 82h64v-487h-65l-7 82q-21 -48 -53 -71t-80 -23zM317 659v-58h-197v58 h197z" />
<glyph horiz-adv-x="465" d="M41 0zM321 242q0 101 -29 145.5t-75 44.5q-50 0 -73.5 -46t-23.5 -143q0 -98 23.5 -143.5t73.5 -45.5q45 0 74.5 44.5t29.5 143.5zM194 -12q-73 0 -113 65.5t-40 190.5t42 190t119 65q88 0 126 -94l7 82h64v-487h-65l-7 82q-21 -48 -53 -71t-80 -23zM274 689h55 q0 -69 -29.5 -95t-82.5 -26q-54 0 -83 26t-29 95h54q0 -38 14.5 -52.5t42.5 -14.5q29 0 43.5 14.5t14.5 52.5z" />
<glyph horiz-adv-x="464" d="M210 -215q-72 0 -113.5 32.5t-64.5 92.5l67 32q14 -45 40.5 -68t64.5 -23q115 0 115 154v81q-23 -47 -55 -67t-70 -20q-68 0 -100.5 48t-32.5 136v304h79v-294q0 -129 77 -129q47 0 73.5 47t28.5 136v240h79v-482q0 -56 -13.5 -97.5t-38.5 -68.5t-59.5 -40.5t-76.5 -13.5 z" />
<glyph horiz-adv-x="466" d="M32 0zM210 -215q-72 0 -113.5 32.5t-64.5 92.5l67 32q14 -45 40.5 -68t64.5 -23q115 0 115 154v81q-23 -47 -55 -67t-70 -20q-68 0 -100.5 48t-32.5 136v304h79v-294q0 -129 77 -129q47 0 73.5 47t28.5 136v240h79v-482q0 -56 -13.5 -97.5t-38.5 -68.5t-59.5 -40.5 t-76.5 -13.5zM326 683l-89 -109h-64v4l59 111h94v-6z" />
<glyph horiz-adv-x="466" d="M32 0zM233 644l-50 -70h-76v3l92 112h71l93 -112v-3h-79zM210 -215q-72 0 -113.5 32.5t-64.5 92.5l67 32q14 -45 40.5 -68t64.5 -23q115 0 115 154v81q-23 -47 -55 -67t-70 -20q-68 0 -100.5 48t-32.5 136v304h79v-294q0 -129 77 -129q47 0 73.5 47t28.5 136v240h79v-482 q0 -56 -13.5 -97.5t-38.5 -68.5t-59.5 -40.5t-76.5 -13.5z" />
<glyph horiz-adv-x="466" d="M32 0zM255 637q0 54 49 54q50 0 50 -54q0 -55 -50 -55q-49 0 -49 55zM115 637q0 26 13 40t36 14q51 0 51 -54q0 -55 -51 -55q-23 0 -36 14.5t-13 40.5zM210 -215q-72 0 -113.5 32.5t-64.5 92.5l67 32q14 -45 40.5 -68t64.5 -23q115 0 115 154v81q-23 -47 -55 -67t-70 -20 q-68 0 -100.5 48t-32.5 136v304h79v-294q0 -129 77 -129q47 0 73.5 47t28.5 136v240h79v-482q0 -56 -13.5 -97.5t-38.5 -68.5t-59.5 -40.5t-76.5 -13.5z" />
<glyph horiz-adv-x="300" d="M157 348q-60 0 -93.5 43t-33.5 140q0 94 33.5 137.5t96.5 43.5q86 0 112 -79l-46 -29q-11 26 -27 41.5t-39 15.5q-37 0 -54 -29t-17 -102q0 -71 17 -100t54 -29q26 0 41.5 13t26.5 46l46 -24q-29 -88 -117 -88z" />
<glyph horiz-adv-x="337" d="M228 531q0 69 -20 99t-50 30q-35 0 -51.5 -31.5t-16.5 -98.5q0 -66 17 -97.5t52 -31.5q30 0 49.5 31t19.5 99zM234 359l-4 58q-12 -34 -35.5 -51.5t-54.5 -17.5q-52 0 -81 46t-29 136q0 91 30.5 136.5t85.5 45.5q29 0 51.5 -16.5t34.5 -50.5l4 56h50v-342h-52z" />
<glyph horiz-adv-x="454" d="M250 483h-54l5 218h71z" />
<glyph horiz-adv-x="180" d="M43 0l13 508h61l11 -508h-85zM86 705q24 0 37.5 -14.5t13.5 -40.5q0 -27 -13.5 -41t-37.5 -14q-51 0 -51 55q0 26 13 40.5t38 14.5z" />
<glyph horiz-adv-x="383" d="M223 512l3 -154h-31q-55 0 -86.5 -38.5t-31.5 -114.5q0 -72 29.5 -107.5t85.5 -35.5q48 0 79.5 25.5t45.5 83.5l64 -26q-10 -42 -28.5 -71.5t-43.5 -47.5t-56 -26t-65 -8q-92 0 -140 56t-48 154q0 93 39.5 146t111.5 64l4 100h68zM190 709q24 0 37 -14.5t13 -40.5 q0 -55 -50 -55q-51 0 -51 55q0 26 13 40.5t38 14.5z" />
<glyph horiz-adv-x="288" d="M251 289v-69h-212v69h212z" />
<glyph horiz-adv-x="524" d="M486 289v-69h-447v69h447z" />
<glyph horiz-adv-x="562" d="M299 283v67h209v-60q0 -156 -56.5 -229t-155.5 -73q-119 0 -179.5 87.5t-60.5 275.5q0 98 15 166.5t45.5 112t76 63t105.5 19.5q37 0 69 -8.5t58 -28t46 -51.5t32 -80l-71 -31q-11 37 -24.5 62t-30 39t-36.5 20t-44 6q-38 0 -68 -13t-50 -45.5t-30.5 -88.5t-10.5 -142 q0 -84 10.5 -141t30.5 -91.5t49.5 -49t67.5 -14.5q30 0 55 12t43 39t27.5 70.5t9.5 106.5h-132z" />
<glyph horiz-adv-x="502" d="M81 0v700h84v-700h-84zM398 0l-214 340v6l211 354h89l-212 -347l224 -353h-98z" />
<glyph horiz-adv-x="409" d="M66 0v700h80v-700h-80zM308 0l-151 235v7l150 245h87l-152 -239l160 -248h-94z" />
<glyph horiz-adv-x="617" d="M45 8zM315 8q-62 0 -112 24t-85 68t-54 107.5t-19 142.5q0 80 19 143.5t54 107.5t85 67t112 23q61 0 108.5 -21.5t80.5 -62t50 -98t17 -129.5q0 -88 -34 -139t-93 -51q-26 0 -45 13.5t-27 43.5q-16 -32 -39.5 -48.5t-56.5 -16.5q-37 0 -61.5 24.5t-24.5 68.5 q0 49 34.5 82t100.5 33h38q0 52 -19 72t-43 20q-45 0 -63 -53l-45 24q10 30 36 52.5t76 22.5q111 0 111 -134v-99q0 -33 9.5 -49.5t32.5 -16.5q31 0 52 37.5t21 111.5q0 69 -16 121t-44.5 86.5t-68.5 52t-87 17.5q-50 0 -92.5 -19.5t-73 -58t-47.5 -95.5t-17 -132 q0 -76 18 -133t49 -95.5t73 -58t91 -19.5q56 0 99 19.5t75 64.5l29 -23q-70 -97 -204 -97zM285 228q35 0 56.5 29.5t21.5 82.5v7h-33q-45 0 -67 -19.5t-22 -49.5q0 -23 12 -36.5t32 -13.5z" />
<glyph horiz-adv-x="540" d="M56 350q0 96 12.5 165t39 112.5t66.5 64t96 20.5q55 0 95.5 -20.5t66.5 -64t39 -112.5t13 -165t-13 -164.5t-39 -112.5t-66.5 -64.5t-95.5 -20.5q-111 0 -162.5 86.5t-51.5 275.5zM403 349q0 84 -8.5 140.5t-25.5 91t-42 49t-57 14.5t-57 -15t-42 -49.5t-25.5 -90.5 t-8.5 -138q0 -85 8.5 -141.5t25.5 -91t42 -49t57 -14.5t57 14.5t42 48.5t25.5 90.5t8.5 140.5z" />
<glyph horiz-adv-x="273" d="M192 0h-81v589l-68 -59l-35 64l130 106h54v-700z" />
<glyph horiz-adv-x="431" d="M29 0v66l197 285q39 57 58 102t19 83q0 55 -25 81.5t-69 26.5q-48 0 -81 -26.5t-55 -89.5l-62 29q30 86 81.5 120.5t121.5 34.5q81 0 125.5 -43.5t44.5 -122.5q0 -48 -21 -100t-69 -124l-174 -254l288 3v-71h-379z" />
<glyph horiz-adv-x="456" d="M211 54q54 0 85.5 37t31.5 108q0 65 -29 97.5t-83 32.5h-52v73h50q43 0 72 34t29 92q0 54 -27.5 85t-78.5 31q-93 0 -119 -107l-66 30q20 75 70.5 110t123.5 35q88 0 132 -46t44 -127q0 -57 -22.5 -100.5t-61.5 -70.5q45 -17 72 -60t27 -111q0 -44 -11.5 -82.5t-36 -67 t-61.5 -44.5t-88 -16q-71 0 -121.5 33.5t-70.5 108.5l67 31q14 -57 48.5 -81.5t75.5 -24.5z" />
<glyph horiz-adv-x="487" d="M24 184v58l171 458h78l-167 -443h207v318h80v-318h76v-73h-76v-184h-80v184h-289z" />
<glyph horiz-adv-x="461" d="M213 -13q-34 0 -65 7.5t-57 25t-45.5 44.5t-29.5 66l66 30q14 -57 49.5 -81.5t79.5 -24.5q62 0 93 46t31 123q0 78 -31.5 115t-91.5 37q-35 0 -64.5 -15t-53.5 -42l-53 23l25 359h316v-71h-249l-14 -226q24 22 53.5 32t61.5 10q38 0 71 -12t57 -38.5t38 -68t14 -100.5 q0 -52 -12.5 -96t-37 -75.5t-62.5 -49.5t-89 -18z" />
<glyph horiz-adv-x="506" d="M271 -13q-50 0 -90 20.5t-68 64t-42.5 112t-14.5 164.5t14.5 165t42.5 113.5t68.5 65t93.5 20.5q66 0 110.5 -27.5t68.5 -93.5l-62 -37q-20 48 -47.5 69.5t-65.5 21.5q-32 0 -58.5 -14t-45.5 -49t-29.5 -94t-10.5 -148v-25q15 58 55.5 91t96.5 33q77 0 125 -55.5 t48 -162.5q0 -53 -12 -96t-35.5 -73.5t-59 -47.5t-82.5 -17zM268 55q51 0 82 38t31 120q0 78 -28 118t-81 40q-55 0 -87.5 -45t-32.5 -117q0 -69 30 -111.5t86 -42.5z" />
<glyph horiz-adv-x="387" d="M110 0q0 95 13 187t36 174.5t56 151.5t74 117l-272 -1v71h362v-74q-88 -79 -136.5 -239.5t-49.5 -386.5h-83z" />
<glyph horiz-adv-x="503" d="M251 -12q-45 0 -81.5 14.5t-61.5 41t-38.5 64t-13.5 82.5q0 68 28.5 114.5t71.5 63.5q-37 23 -59.5 63.5t-22.5 94.5q0 87 48 136.5t129 49.5q82 0 130 -49.5t48 -136.5q0 -54 -23 -94.5t-59 -63.5q43 -17 71.5 -63.5t28.5 -114.5q0 -45 -13.5 -82.5t-39 -64t-61.5 -41 t-82 -14.5zM353 523q0 25 -6.5 47t-19.5 38.5t-32 26t-43 9.5t-43 -9.5t-32 -26t-20 -38.5t-7 -47t6.5 -47t19.5 -38.5t32 -26t43 -9.5t43 9.5t32 26t20 38.5t7 47zM251 55q57 0 87 39t30 101q0 58 -31 97t-86 39q-54 0 -85 -38.5t-31 -97.5q0 -62 30 -101t86 -39z" />
<glyph horiz-adv-x="504" d="M235 645q-49 0 -80.5 -38.5t-31.5 -121.5q0 -77 29 -119t82 -42t85 45.5t32 119.5q0 69 -31.5 112.5t-84.5 43.5zM235 712q51 0 91 -20.5t67 -64t41 -112t14 -163.5q0 -96 -14.5 -165t-42 -113t-68 -65t-92.5 -21q-66 0 -111 27t-69 93l62 38q20 -48 47.5 -69.5 t66.5 -21.5q32 0 58 14.5t45 49.5t29 93.5t10 147.5v24q-16 -60 -55.5 -94t-93.5 -34q-82 0 -128.5 57.5t-46.5 163.5q0 52 12 95.5t36 74.5t59.5 48t82.5 17z" />
<glyph d="M266 612q96 0 145.5 -73.5t49.5 -239.5q0 -163 -50.5 -237t-144.5 -74q-47 0 -83 17.5t-60 55.5t-36.5 97t-12.5 142t12.5 142.5t36.5 97t60 55t83 17.5zM266 545q-27 0 -48.5 -12t-35.5 -40t-21.5 -75.5t-7.5 -117.5t7.5 -117t21.5 -75.5t35.5 -40.5t48.5 -12 q29 0 51 12t36.5 40.5t22 75.5t7.5 117q0 69 -7.5 116t-22 75.5t-36.5 41t-51 12.5z" />
<glyph d="M451 0h-368v71h145v418l-64 -59l-33 64l124 106h51v-529h145v-71z" />
<glyph d="M94 0v60l175 225q51 65 72.5 105t21.5 75q0 42 -25.5 60.5t-63.5 18.5t-66.5 -23t-45.5 -74l-62 29q23 71 70 103.5t113 32.5q76 0 117.5 -38.5t41.5 -104.5q0 -23 -7 -46.5t-21 -49.5t-35 -55.5t-48 -65.5l-142 -184l267 2v-70h-362z" />
<glyph d="M264 -46q54 0 85.5 37t31.5 108q0 65 -29 97.5t-83 32.5h-52v73h50q43 0 72 34t29 92q0 54 -27.5 85t-78.5 31q-93 0 -119 -107l-66 30q20 75 70.5 110t123.5 35q88 0 132 -46t44 -127q0 -57 -22.5 -100.5t-61.5 -70.5q45 -17 72 -60t27 -111q0 -44 -11.5 -82.5t-36 -67 t-61.5 -44.5t-88 -16q-71 0 -121.5 33.5t-70.5 108.5l67 31q14 -57 48.5 -81.5t75.5 -24.5z" />
<glyph d="M45 84v58l171 458h78l-167 -443h207v318h80v-318h76v-73h-76v-184h-80v184h-289z" />
<glyph d="M266 -113q-34 0 -65 7.5t-57 25t-45.5 44.5t-29.5 66l66 30q14 -57 49.5 -81.5t79.5 -24.5q62 0 93 46t31 123q0 78 -31.5 115t-91.5 37q-35 0 -64.5 -15t-53.5 -42l-53 23l25 359h316v-71h-249l-14 -226q24 22 53.5 32t61.5 10q38 0 71 -12t57 -38.5t38 -68t14 -100.5 q0 -52 -12.5 -96t-37 -75.5t-62.5 -49.5t-89 -18z" />
<glyph d="M281 -13q-50 0 -90 20.5t-68 64t-42.5 112t-14.5 164.5t14.5 165t42.5 113.5t68.5 65t93.5 20.5q66 0 110.5 -27.5t68.5 -93.5l-62 -37q-20 48 -47.5 69.5t-65.5 21.5q-32 0 -58.5 -14t-45.5 -49t-29.5 -94t-10.5 -148v-25q15 58 55.5 91t96.5 33q77 0 125 -55.5 t48 -162.5q0 -53 -12 -96t-35.5 -73.5t-59 -47.5t-82.5 -17zM278 55q51 0 82 38t31 120q0 78 -28 118t-81 40q-55 0 -87.5 -45t-32.5 -117q0 -69 30 -111.5t86 -42.5z" />
<glyph d="M180 -100q0 95 13 187t36 174.5t56 151.5t74 117l-272 -1v71h362v-74q-88 -79 -136.5 -239.5t-49.5 -386.5h-83z" />
<glyph d="M267 -12q-45 0 -81.5 14.5t-61.5 41t-38.5 64t-13.5 82.5q0 68 28.5 114.5t71.5 63.5q-37 23 -59.5 63.5t-22.5 94.5q0 87 48 136.5t129 49.5q82 0 130 -49.5t48 -136.5q0 -54 -23 -94.5t-59 -63.5q43 -17 71.5 -63.5t28.5 -114.5q0 -45 -13.5 -82.5t-39 -64t-61.5 -41 t-82 -14.5zM369 523q0 25 -6.5 47t-19.5 38.5t-32 26t-43 9.5t-43 -9.5t-32 -26t-20 -38.5t-7 -47t6.5 -47t19.5 -38.5t32 -26t43 -9.5t43 9.5t32 26t20 38.5t7 47zM267 55q57 0 87 39t30 101q0 58 -31 97t-86 39q-54 0 -85 -38.5t-31 -97.5q0 -62 30 -101t86 -39z" />
<glyph d="M256 545q-49 0 -80.5 -38.5t-31.5 -121.5q0 -77 29 -119t82 -42t85 45.5t32 119.5q0 69 -31.5 112.5t-84.5 43.5zM256 612q51 0 91 -20.5t67 -64t41 -112t14 -163.5q0 -96 -14.5 -165t-42 -113t-68 -65t-92.5 -21q-66 0 -111 27t-69 93l62 38q20 -48 47.5 -69.5 t66.5 -21.5q32 0 58 14.5t45 49.5t29 93.5t10 147.5v24q-16 -60 -55.5 -94t-93.5 -34q-82 0 -128.5 57.5t-46.5 163.5q0 52 12 95.5t36 74.5t59.5 48t82.5 17z" />
<glyph horiz-adv-x="469" d="M233 612q96 0 145.5 -73.5t49.5 -239.5q0 -163 -50.5 -237t-144.5 -74q-47 0 -83 17.5t-60 55.5t-36.5 97t-12.5 142t12.5 142.5t36.5 97t60 55t83 17.5zM233 545q-27 0 -48.5 -12t-35.5 -40t-21.5 -75.5t-7.5 -117.5t7.5 -117t21.5 -75.5t35.5 -40.5t48.5 -12 q29 0 51 12t36.5 40.5t22 75.5t7.5 117q0 69 -7.5 116t-22 75.5t-36.5 41t-51 12.5z" />
<glyph horiz-adv-x="248" d="M182 0h-78v489l-64 -59l-33 64l124 106h51v-600z" />
<glyph horiz-adv-x="412" d="M29 0v60l170 225q24 32 41 57.5t27.5 46.5t15.5 39t5 35q0 43 -24 62t-60 19q-37 0 -63.5 -23t-43.5 -74l-62 29q23 71 68 103.5t110 32.5q74 0 114 -37.5t40 -103.5q0 -47 -26 -98t-80 -121l-142 -184l262 2v-70h-352z" />
<glyph horiz-adv-x="438" d="M202 -47q54 0 85 37t31 107q0 66 -28.5 99t-82.5 33h-52v73h49q44 0 72.5 33t28.5 93q0 57 -27 87t-77 30q-91 0 -118 -106l-65 28q19 68 65.5 106.5t124.5 38.5q83 0 129 -46t46 -131q0 -58 -22 -99.5t-60 -67.5q44 -15 70 -58.5t26 -112.5q0 -44 -11.5 -82.5t-35.5 -67 t-60.5 -44.5t-86.5 -16q-32 0 -62 7.5t-54.5 25t-43.5 44.5t-29 66l66 30q14 -56 45.5 -81.5t76.5 -25.5z" />
<glyph horiz-adv-x="470" d="M28 84v55l163 461h77l-161 -446h197v321h78v-321h70v-70h-70v-184h-78v184h-276z" />
<glyph horiz-adv-x="440" d="M204 -113q-70 0 -120.5 35t-69.5 107l67 31q14 -58 47.5 -82.5t75.5 -24.5q60 0 90.5 46.5t30.5 123.5q0 78 -30 115t-84 37q-35 0 -63 -15t-50 -42l-55 23l26 359h308v-71h-240l-14 -226q20 19 48.5 30.5t64.5 11.5q34 0 64.5 -12t53 -38.5t36 -68t13.5 -100.5 q0 -52 -12.5 -96t-37 -75.5t-62 -49.5t-87.5 -18z" />
<glyph horiz-adv-x="466" d="M247 -12q-48 0 -86.5 20.5t-65 64t-40.5 112t-14 163.5q0 96 14 165t41.5 113.5t67.5 65t92 20.5q125 0 169 -122l-62 -36q-20 49 -46 70t-65 21q-29 0 -53.5 -14t-42 -49t-27 -94t-9.5 -148v-20q12 56 51 87.5t90 31.5q79 0 123.5 -57t44.5 -161q0 -52 -11.5 -95 t-34.5 -73.5t-57 -47.5t-79 -17zM245 55q48 0 77 38t29 120q0 75 -25.5 116.5t-79.5 41.5q-51 0 -80.5 -45t-29.5 -117q0 -69 29 -111.5t80 -42.5z" />
<glyph horiz-adv-x="370" d="M110 -100q0 78 9.5 163t29.5 168t52.5 159.5t77.5 139.5l-259 -1v71h346v-74q-38 -34 -70.5 -93t-55.5 -139.5t-36.5 -179.5t-13.5 -214h-80z" />
<glyph horiz-adv-x="457" d="M229 -12q-44 0 -79 15t-59 41.5t-37 63.5t-13 82q0 68 27.5 114.5t69.5 63.5q-35 23 -57 64t-22 95q0 84 45.5 134.5t124.5 50.5q78 0 123.5 -50.5t45.5 -134.5q0 -54 -22.5 -95t-57.5 -64q43 -17 70.5 -63.5t27.5 -114.5q0 -45 -13 -82t-37 -63.5t-58.5 -41.5t-78.5 -15 zM325 524q0 54 -25 87.5t-71 33.5q-47 0 -71.5 -33.5t-24.5 -87.5q0 -53 24.5 -87.5t71.5 -34.5q46 0 71 34.5t25 87.5zM229 55q54 0 82 38.5t28 99.5q0 60 -29 99t-81 39t-81.5 -39t-29.5 -99q0 -61 28.5 -99.5t82.5 -38.5z" />
<glyph horiz-adv-x="466" d="M220 545q-49 0 -77.5 -39t-28.5 -120q0 -75 27 -116.5t78 -41.5t81 45t30 117q0 69 -29 112t-81 43zM220 611q49 0 87.5 -20.5t64 -64t39 -112t13.5 -163.5q0 -96 -14 -165t-41 -113.5t-67 -65t-92 -20.5q-64 0 -106 31.5t-64 89.5l63 37q20 -49 45.5 -70t65.5 -21 q29 0 53 14.5t41.5 49.5t27.5 93.5t10 147.5v20q-13 -56 -52 -87.5t-90 -31.5q-35 0 -65.5 14t-53.5 42t-36 68.5t-13 93.5q0 52 12 95t35.5 73.5t58 47.5t78.5 17z" />
<glyph horiz-adv-x="326" d="M31 0zM31 5q0 112 32 162.5t101 50.5q68 0 99 -50.5t31 -162.5t-31 -162.5t-99 -50.5q-69 0 -101 51.5t-32 161.5zM232 5q0 45 -4.5 75.5t-13.5 48.5t-21.5 26t-28.5 8q-34 0 -51.5 -34.5t-17.5 -122.5q0 -46 4.5 -76.5t13 -49t21.5 -26.5t30 -8q16 0 28.5 8t21.5 26.5 t13.5 49t4.5 75.5z" />
<glyph horiz-adv-x="180" d="M7 0zM133 -200h-63v327l-37 -32l-26 52l84 65h42v-412z" />
<glyph horiz-adv-x="266" d="M9 0zM20 -200v49l115 163q41 59 41 95q0 55 -49 55q-24 0 -41 -14t-30 -46l-47 21q17 52 48.5 73.5t74.5 21.5q51 0 79 -26.5t28 -75.5q0 -31 -13.5 -62t-44.5 -75l-86 -124l156 2v-57h-231z" />
<glyph horiz-adv-x="279" d="M12 0zM132 -208q-44 0 -74.5 20t-45.5 66l50 24q10 -32 28 -44.5t39 -12.5q29 0 45 18.5t16 54.5q0 33 -15.5 50t-44.5 17h-30v53h29q23 0 38 17.5t15 47.5q0 29 -14.5 44.5t-40.5 15.5q-48 0 -63 -55l-48 21q25 89 119 89q55 0 82 -28t27 -76q0 -33 -13 -58t-36 -42 q26 -11 41.5 -36t15.5 -63q0 -54 -30 -88.5t-90 -34.5z" />
<glyph horiz-adv-x="302" d="M16 0zM16 -100v46l97 264h61l-94 -253h106v164h61v-164h42v-57h-42v-100h-61v100h-170z" />
<glyph horiz-adv-x="282" d="M11 0zM92 155l-7 -114q13 11 30 16t34 5q45 0 76 -30t31 -99q0 -63 -31 -102t-94 -39q-42 0 -74 19.5t-46 66.5l49 23q9 -31 27.5 -43.5t41.5 -12.5q32 0 48 23.5t16 63.5q0 79 -63 79q-37 0 -61 -32l-42 20l14 211h198v-55h-147z" />
<glyph horiz-adv-x="307" d="M31 0zM165 -208q-64 0 -99 50t-35 162q0 110 34.5 162t101.5 52q42 0 69 -17.5t41 -56.5l-46 -26q-19 47 -60 47q-18 0 -32.5 -8t-24 -26.5t-15 -50t-5.5 -78.5v-14q9 32 31 51t54 19q45 0 73 -32.5t28 -95.5q0 -62 -28.5 -100t-86.5 -38zM104 -76q0 -35 15 -57.5 t43 -22.5q26 0 41.5 20t15.5 62q0 81 -55 81q-28 0 -44 -22.5t-16 -60.5z" />
<glyph horiz-adv-x="244" d="M12 0zM135 -200h-69q0 56 8 108t22 98t34 83.5t43 64.5l-161 -2v58h224v-53q-49 -53 -75 -139.5t-26 -217.5z" />
<glyph horiz-adv-x="303" d="M31 0zM152 -208q-57 0 -89 32.5t-32 87.5q0 39 16 65.5t42 37.5q-21 14 -34 37.5t-13 53.5q0 53 29.5 82.5t80.5 29.5t80 -29.5t29 -82.5q0 -30 -13 -53.5t-33 -37.5q25 -11 41 -37.5t16 -65.5q0 -55 -31.5 -87.5t-88.5 -32.5zM204 103q0 26 -13.5 44t-37.5 18 q-26 0 -39.5 -18t-13.5 -44t13 -44t39 -18q25 0 38.5 18t13.5 44zM211 -85q0 30 -15.5 50.5t-43.5 20.5q-29 0 -44 -20.5t-15 -50.5q0 -32 15 -52t44 -20t44 20t15 52z" />
<glyph horiz-adv-x="305" d="M26 0zM142 218q64 0 98 -50.5t34 -161.5q0 -110 -34 -162t-101 -52q-40 0 -68.5 15.5t-42.5 52.5l42 32q22 -48 65 -48q18 0 32.5 8t24 27t15 50t5.5 78v6q0 6 -1 7q-8 -33 -29.5 -52t-53.5 -19q-47 0 -74.5 33.5t-27.5 96.5q0 62 29 100.5t87 38.5zM202 84 q0 36 -16 58.5t-42 22.5t-41.5 -20t-15.5 -62q0 -39 14.5 -61t41.5 -22q26 0 42.5 23t16.5 61z" />
<glyph horiz-adv-x="237" d="M26 0zM144 -138h-50v94h-68v49h68v95h50v-95h67v-49h-67v-94z" />
<glyph horiz-adv-x="237" d="M26 0zM211 7v-53h-185v53h185z" />
<glyph horiz-adv-x="237" d="M26 0zM211 51v-55h-185v55h185zM211 -36v-54h-185v54h185z" />
<glyph horiz-adv-x="164" d="M18 0zM151 -210l-16 -53q-59 14 -88 72t-29 172q0 115 29 173t88 72l16 -53q-20 -6 -34.5 -18t-24.5 -34t-15 -56.5t-5 -83.5t5 -82.5t15 -56t24.5 -34.5t34.5 -18z" />
<glyph horiz-adv-x="164" d="M13 0zM28 -263l-15 53q19 6 34 18t24.5 34.5t14.5 56t5 82.5t-5 83.5t-14.5 56.5t-24.5 34t-34 18l16 53q59 -14 88 -72t29 -173q0 -114 -29.5 -172t-88.5 -72z" />
<glyph horiz-adv-x="214" d="M54 637q0 27 14 41t38 14q25 0 39 -14t14 -41t-14 -42t-39 -15q-24 0 -38 15t-14 42zM67 487h79v-487h-79v487z" />
<glyph horiz-adv-x="409" d="M66 0zM271 -132q0 -55 -22.5 -95t-62.5 -59l-24 33q25 14 42 37t18 52q-21 -3 -36 9.5t-15 39.5q0 25 13.5 37.5t36.5 12.5q50 0 50 -67zM66 0v700h80v-700h-80zM308 0l-151 235v7l150 245h87l-152 -239l160 -248h-94z" />
<glyph horiz-adv-x="563" d="M56 0zM299 283v67h209v-60q0 -156 -56.5 -229t-155.5 -73q-119 0 -179.5 87.5t-60.5 275.5q0 98 15 166.5t45.5 112t76 63t105.5 19.5q37 0 69 -8.5t58 -28t46 -51.5t32 -80l-71 -31q-11 37 -24.5 62t-30 39t-36.5 20t-44 6q-38 0 -68 -13t-50 -45.5t-30.5 -88.5 t-10.5 -142q0 -84 10.5 -141t30.5 -91.5t49.5 -49t67.5 -14.5q30 0 55 12t43 39t27.5 70.5t9.5 106.5h-132zM351 903h55q0 -69 -29.5 -95t-82.5 -26q-54 0 -83 26t-29 95h54q0 -38 14.5 -52.5t42.5 -14.5q29 0 43.5 14.5t14.5 52.5z" />
<glyph horiz-adv-x="563" d="M56 0zM299 283v67h209v-60q0 -156 -56.5 -229t-155.5 -73q-119 0 -179.5 87.5t-60.5 275.5q0 98 15 166.5t45.5 112t76 63t105.5 19.5q37 0 69 -8.5t58 -28t46 -51.5t32 -80l-71 -31q-11 37 -24.5 62t-30 39t-36.5 20t-44 6q-38 0 -68 -13t-50 -45.5t-30.5 -88.5 t-10.5 -142q0 -84 10.5 -141t30.5 -91.5t49.5 -49t67.5 -14.5q30 0 55 12t43 39t27.5 70.5t9.5 106.5h-132zM293 858l-50 -70h-76v3l92 112h71l93 -112v-3h-79z" />
<glyph horiz-adv-x="562" d="M56 0zM299 283v67h209v-60q0 -156 -56.5 -229t-155.5 -73q-119 0 -179.5 87.5t-60.5 275.5q0 98 15 166.5t45.5 112t76 63t105.5 19.5q37 0 69 -8.5t58 -28t46 -51.5t32 -80l-71 -31q-11 37 -24.5 62t-30 39t-36.5 20t-44 6q-38 0 -68 -13t-50 -45.5t-30.5 -88.5 t-10.5 -142q0 -84 10.5 -141t30.5 -91.5t49.5 -49t67.5 -14.5q30 0 55 12t43 39t27.5 70.5t9.5 106.5h-132zM346 -132q0 -55 -22.5 -95t-62.5 -59l-24 33q25 14 42 37t18 52q-21 -3 -36 9.5t-15 39.5q0 25 13.5 37.5t36.5 12.5q50 0 50 -67z" />
<glyph horiz-adv-x="563" d="M56 0zM299 283v67h209v-60q0 -156 -56.5 -229t-155.5 -73q-119 0 -179.5 87.5t-60.5 275.5q0 98 15 166.5t45.5 112t76 63t105.5 19.5q37 0 69 -8.5t58 -28t46 -51.5t32 -80l-71 -31q-11 37 -24.5 62t-30 39t-36.5 20t-44 6q-38 0 -68 -13t-50 -45.5t-30.5 -88.5 t-10.5 -142q0 -84 10.5 -141t30.5 -91.5t49.5 -49t67.5 -14.5q30 0 55 12t43 39t27.5 70.5t9.5 106.5h-132zM243 850q0 26 13.5 40t37.5 14q50 0 50 -54q0 -55 -50 -55q-24 0 -37.5 14.5t-13.5 40.5z" />
<glyph horiz-adv-x="501" d="M81 0zM320 -132q0 -55 -22.5 -95t-62.5 -59l-24 33q25 14 42 37t18 52q-21 -3 -36 9.5t-15 39.5q0 25 13.5 37.5t36.5 12.5q50 0 50 -67zM81 0v700h84v-700h-84zM398 0l-214 340v6l211 354h89l-212 -347l224 -353h-98z" />
<glyph horiz-adv-x="337" d="M39 315zM298 384v-69h-259v69h259z" />
<glyph horiz-adv-x="444" d="M38 315zM406 384v-69h-368v69h368z" />
<glyph horiz-adv-x="594" d="M38 315zM556 384v-69h-518v69h518z" />
<glyph horiz-adv-x="444" d="M38 315zM406 384v-69h-368v69h368z" />
<glyph horiz-adv-x="214" d="M146 700v-700h-79v700h79z" />
<glyph horiz-adv-x="482" d="M266 422h-102v-422h-79v422h-66v65h66v70q0 42 10 73t28 50.5t42 29t51 9.5q38 0 68 -19l-20 -69q-23 12 -45 12q-23 0 -39 -18.5t-16 -68.5v-69h102v-65zM421 700v-700h-79v700h79z" />
<glyph horiz-adv-x="482" d="M0 0z" />
</font>
</defs>
</svg>
