<?xml version="1.0" standalone="no"?>
<!DOCTYPE svg PUBLIC "-//W3C//DTD SVG 1.1//EN" "http://www.w3.org/Graphics/SVG/1.1/DTD/svg11.dtd" >
<svg xmlns="http://www.w3.org/2000/svg">
<metadata></metadata>
<defs>
<font id="honeywell_cond_weblight" horiz-adv-x="451" >
<font-face units-per-em="1000" ascent="780" descent="-220" />
<missing-glyph horiz-adv-x="169" />
<glyph unicode="fi" horiz-adv-x="444" d="M252 454h-122v-454h-29v454h-72v24h72v97q0 37 8 62.5t21.5 41t31.5 22.5t39 7q14 0 30.5 -4t31.5 -14l-12 -24q-13 8 -25 11.5t-25 3.5q-35 0 -53 -25t-18 -85v-93h122v-24zM352 580q-12 0 -19.5 8t-7.5 22t7.5 22t19.5 8q28 0 28 -30q0 -14 -7.5 -22t-20.5 -8zM338 478 h29v-478h-29v478z" />
<glyph unicode="fl" horiz-adv-x="443" d="M252 454h-122v-454h-29v454h-72v24h72v97q0 37 8 62.5t21.5 41t31.5 22.5t39 7q14 0 30.5 -4t31.5 -14l-12 -24q-13 8 -25 11.5t-25 3.5q-35 0 -53 -25t-18 -85v-93h122v-24zM360 91q0 -36 14 -51t39 -15h27v-25h-30q-38 0 -58.5 21.5t-20.5 70.5v608h29v-609z" />
<glyph horiz-adv-x="131" />
<glyph horiz-adv-x="131" />
<glyph unicode="&#xd;" horiz-adv-x="131" />
<glyph unicode=" "  horiz-adv-x="169" />
<glyph unicode="&#x09;" horiz-adv-x="169" />
<glyph unicode="&#xa0;" horiz-adv-x="169" />
<glyph unicode="!" horiz-adv-x="154" d="M94 700l-5 -530h-23l-5 530h33zM77 -6q-12 0 -19.5 8t-7.5 22t7.5 22t19.5 8q27 0 27 -30q0 -14 -7 -22t-20 -8z" />
<glyph unicode="&#x22;" horiz-adv-x="204" d="M129 548l-3 162h30l-3 -162h-24zM75 548h-24l-2 162h29z" />
<glyph unicode="#" horiz-adv-x="537" d="M327 252l48 203h-162l-49 -203h163zM266 0l55 228h-163l-54 -228h-29l54 228h-87l7 24h86l49 203h-95l7 24h94l51 221h29l-51 -221h162l52 221h29l-52 -221h89l-8 -24h-87l-48 -203h95l-7 -24h-94l-55 -228h-29z" />
<glyph unicode="$" horiz-adv-x="425" d="M80 523q0 -59 28 -93t79 -52l17 -6v282q-64 -2 -94 -36.5t-30 -94.5zM356 182q0 55 -27 90.5t-94 58.5l-9 3v-297q68 2 99 40t31 105zM204 -62v74q-30 1 -57 8.5t-49.5 24.5t-40.5 44.5t-31 68.5l25 12q22 -73 61.5 -102t91.5 -31v304l-17 6q-66 23 -100.5 64.5 t-34.5 108.5q0 70 36.5 113.5t115.5 45.5v87h22v-87q54 -2 94 -30.5t60 -98.5l-25 -11q-19 62 -53 87t-76 27v-287l9 -3q78 -26 113.5 -68t35.5 -112q0 -84 -40.5 -126t-117.5 -44v-75h-22z" />
<glyph unicode="%" horiz-adv-x="754" d="M37 0zM477 204q0 114 30 162t89 48q58 0 88 -48t30 -162t-30 -162.5t-88 -48.5q-59 0 -89 48.5t-30 162.5zM689 204q0 52 -6.5 88.5t-18.5 58.5t-29 32t-39 10t-39.5 -9.5t-29.5 -32t-18.5 -58.5t-6.5 -88q0 -54 6.5 -90.5t18.5 -59t29.5 -32t39.5 -9.5t39 9.5t29 32 t18.5 58.5t6.5 90zM37 497q0 114 30 162t89 48q58 0 88 -48t30 -162t-30 -162.5t-88 -48.5q-59 0 -89 48.5t-30 162.5zM249 497q0 52 -6.5 88.5t-18.5 58.5t-29 32t-39 10t-39.5 -9.5t-29.5 -32t-18.5 -58.5t-6.5 -88q0 -54 6.5 -90.5t18.5 -59t29.5 -32t39.5 -9.5t39 9.5 t29 32t18.5 58.5t6.5 90zM512 701l-247 -701h-28l247 701h28z" />
<glyph unicode="&#x26;" horiz-adv-x="523" d="M496 -11q-30 24 -59 48.5t-55 49.5q-35 -50 -79.5 -73.5t-95.5 -23.5q-36 0 -67 11.5t-54.5 34t-36.5 56t-13 77.5q0 65 27.5 112t84.5 92q-26 50 -40.5 97t-14.5 91q0 66 31.5 107.5t95.5 41.5q56 0 83.5 -33.5t27.5 -87.5q0 -33 -8 -60.5t-26 -53t-46.5 -51.5 t-68.5 -57q34 -58 83 -118t112 -120q31 57 48.5 141.5t17.5 200.5h27q0 -123 -19.5 -212t-54.5 -149q27 -26 56 -50.5t60 -48.5zM120 561q0 -39 13 -82t37 -89q33 25 58.5 47.5t42 45.5t25 48t8.5 55q0 49 -23 74t-61 25q-51 0 -75.5 -33.5t-24.5 -90.5zM208 15q45 0 84 22 t70 68q-64 62 -115 123.5t-86 121.5q-52 -41 -74.5 -82.5t-22.5 -95.5q0 -38 11 -67.5t30.5 -49.5t45.5 -30t57 -10z" />
<glyph unicode="'" horiz-adv-x="125" d="M51 548l-2 162h29l-3 -162h-24z" />
<glyph unicode="(" horiz-adv-x="263" d="M210 -47l-9 -24q-71 20 -111.5 120.5t-40.5 272.5t40.5 273t111.5 120l9 -24q-62 -20 -97 -112t-35 -257t35 -257t97 -112z" />
<glyph unicode=")" horiz-adv-x="263" d="M47 -47q62 20 97 112t35 257t-35 257t-97 112l9 24q71 -19 111.5 -120t40.5 -273t-40.5 -272.5t-111.5 -120.5z" />
<glyph unicode="*" horiz-adv-x="290" d="M69 384l-20 14l79 130l-106 45l8 24l104 -47l-3 160h28l-3 -160l105 47l8 -24l-106 -45l79 -130l-20 -14l-77 129z" />
<glyph unicode="+" horiz-adv-x="368" d="M197 122h-26v171h-131v25h131v178h26v-178h131v-25h-131v-171z" />
<glyph unicode="," horiz-adv-x="155" d="M56 -102l-10 14q20 13 30 36.5t11 49.5q-14 -6 -25.5 1.5t-11.5 24.5q0 14 8 22t19 8q14 0 22 -9.5t8 -33.5q0 -36 -13 -67t-38 -46z" />
<glyph unicode="-" horiz-adv-x="306" d="M266 256v-26h-226v26h226z" />
<glyph unicode="." horiz-adv-x="155" d="M77 -6q-12 0 -19.5 8t-7.5 22t7.5 22t19.5 8q27 0 27 -30q0 -14 -7 -22t-20 -8z" />
<glyph unicode="/" horiz-adv-x="346" d="M334 701l-291 -701h-30l290 701h31z" />
<glyph unicode="0" horiz-adv-x="535" d="M70 0zM70 350q0 98 13 166.5t37.5 111.5t61.5 62.5t85 19.5t85 -19.5t62 -62.5t38 -111.5t13 -166.5t-13 -166.5t-38 -111.5t-62 -62.5t-85 -19.5t-85 19.5t-61.5 63t-37.5 111.5t-13 166zM435 350q0 93 -11.5 157t-33 103.5t-53 56.5t-70.5 17t-70 -17t-52.5 -56.5 t-33 -103.5t-11.5 -157q0 -94 11.5 -158t33 -103t52.5 -56t70 -17t70.5 17t53 56t33 103t11.5 158z" />
<glyph unicode="1" horiz-adv-x="535" d="M455 0h-374v26h172v626l-73 -79l-17 21l100 106h20v-674h172v-26z" />
<glyph unicode="2" horiz-adv-x="535" d="M84 0zM93 0v25l209 307q47 69 68.5 121t21.5 99q0 64 -32 98t-92 34q-53 0 -94.5 -29t-64.5 -105l-25 11q14 42 33 71t42.5 46t51 24.5t58.5 7.5q78 0 116 -42.5t38 -111.5q0 -24 -5 -49.5t-16 -54t-29.5 -61.5t-45.5 -73l-201 -293l326 1v-26h-359z" />
<glyph unicode="3" horiz-adv-x="535" d="M87 0zM265 16q79 0 116.5 49t37.5 129q0 32 -7.5 61.5t-24 51.5t-43 35t-63.5 13h-68v27h67q25 0 47.5 10.5t39 30.5t26 48.5t9.5 65.5q0 69 -33.5 108t-99.5 39q-115 0 -150 -125l-25 12q21 71 63.5 105t114.5 34q82 0 121 -47t39 -123q0 -62 -24.5 -106t-72.5 -64 q55 -13 84.5 -58.5t29.5 -116.5q0 -96 -45.5 -150.5t-137.5 -54.5q-66 0 -111.5 32t-67.5 102l26 12q18 -66 57.5 -93t94.5 -27z" />
<glyph unicode="4" horiz-adv-x="535" d="M61 0zM61 196v24l186 480h30l-186 -478h267v362h29v-362h88v-26h-88v-196h-29v196h-297z" />
<glyph unicode="5" horiz-adv-x="535" d="M83 0zM264 -10q-66 0 -112.5 31t-68.5 103l26 12q19 -66 58.5 -93t95.5 -27q42 0 72.5 16t49.5 44t28 65.5t9 80.5q0 184 -151 184q-47 0 -80.5 -19t-65.5 -55l-20 8l28 360h291v-26h-266l-22 -302q27 33 65.5 47t76.5 14q78 0 126 -50.5t48 -159.5q0 -51 -11.5 -94 t-35 -73.5t-59 -48t-82.5 -17.5z" />
<glyph unicode="6" horiz-adv-x="535" d="M80 0zM283 -10q-44 0 -81 18.5t-64 60.5t-42.5 109t-15.5 164t14.5 166.5t41 114.5t64.5 66t85 21q59 0 98 -28.5t62 -96.5l-25 -12q-20 61 -52.5 86t-81.5 25q-39 0 -71 -18.5t-55.5 -59.5t-36.5 -106.5t-13 -159.5q0 -23 1 -49t5 -58q0 45 11.5 82t33.5 63.5t53 41.5 t71 15q75 0 122.5 -54.5t47.5 -164.5q0 -105 -43.5 -165.5t-128.5 -60.5zM281 16q66 0 105 50.5t39 148.5q0 91 -38 142.5t-107 51.5t-110.5 -54t-41.5 -150q0 -33 9 -66.5t27.5 -60.5t47.5 -44.5t69 -17.5z" />
<glyph unicode="7" horiz-adv-x="535" d="M98 0zM189 0q-1 96 13.5 194t42 188t67 165.5t87.5 126.5h-301v26h339v-25q-48 -43 -88.5 -113.5t-69 -159.5t-44 -192t-15.5 -210h-31z" />
<glyph unicode="8" horiz-adv-x="535" d="M87 0zM268 -10q-85 0 -133 53.5t-48 146.5q0 75 35 124t88 63q-45 15 -73.5 56t-28.5 107q0 81 42.5 125.5t117.5 44.5t118 -44.5t43 -125.5q0 -66 -29.5 -106.5t-75.5 -56.5q54 -14 89.5 -62.5t35.5 -124.5q0 -93 -48 -146.5t-133 -53.5zM400 539q0 66 -33.5 105.5 t-98.5 39.5q-63 0 -97 -39.5t-34 -105.5q0 -68 34.5 -108.5t96.5 -40.5t97 40.5t35 108.5zM268 16q73 0 112 48t39 127q0 76 -39.5 124t-111.5 48q-35 0 -63 -13t-47.5 -36t-30 -54.5t-10.5 -68.5q0 -79 39.5 -127t111.5 -48z" />
<glyph unicode="9" horiz-adv-x="535" d="M80 0zM254 684q-66 0 -105 -50.5t-39 -148.5q0 -92 38 -143.5t107 -51.5t110.5 54t41.5 151q0 33 -9 66.5t-28 60.5t-47.5 44.5t-68.5 17.5zM253 710q44 0 81 -18.5t64 -60.5t42.5 -109t15.5 -164t-14.5 -166.5t-41 -114.5t-64.5 -66t-85 -21q-59 0 -98 28.5t-62 96.5 l25 12q20 -61 52.5 -86t81.5 -25q39 0 71 18.5t55.5 59.5t36.5 106.5t13 159.5q0 23 -1 49t-5 58q0 -45 -11.5 -82.5t-33.5 -64t-53 -41.5t-71 -15q-76 0 -123.5 54.5t-47.5 165.5q0 105 44 165.5t129 60.5z" />
<glyph unicode=":" horiz-adv-x="155" d="M50 0zM77 -6q-12 0 -19.5 8t-7.5 22t7.5 22t19.5 8q27 0 27 -30q0 -14 -7 -22t-20 -8zM77 390q-12 0 -19.5 8t-7.5 22t7.5 22t19.5 8q27 0 27 -30q0 -14 -7 -22t-20 -8z" />
<glyph unicode=";" horiz-adv-x="156" d="M46 0zM56 -102l-10 14q20 13 30 36.5t11 49.5q-14 -6 -25.5 1.5t-11.5 24.5q0 14 8 22t19 8q14 0 22 -9.5t8 -33.5q0 -36 -13 -67t-38 -46zM77 390q-12 0 -19.5 8t-7.5 22t7.5 22t19.5 8q27 0 27 -30q0 -14 -7 -22t-20 -8z" />
<glyph unicode="&#x3c;" horiz-adv-x="331" d="M250 495l14 -19l-171 -165l172 -163l-15 -21l-186 177v15z" />
<glyph unicode="=" horiz-adv-x="368" d="M328 377v-26h-288v26h288zM328 267v-25h-288v25h288z" />
<glyph unicode="&#x3e;" horiz-adv-x="331" d="M80 127l-14 19l171 164l-171 164l14 21l186 -177v-15z" />
<glyph unicode="?" horiz-adv-x="377" d="M163 170l-1 131h14q75 0 114 52.5t39 142.5q0 89 -41 138t-112 49q-24 0 -47 -6.5t-43 -22t-36 -40.5t-27 -62l-26 10q12 42 31 70.5t42.5 45.5t50.5 24.5t56 7.5q85 0 133 -56.5t48 -156.5q0 -49 -11.5 -88.5t-33 -68t-52.5 -44.5t-71 -17l-1 -109h-26zM175 -6 q-12 0 -19.5 8t-7.5 22t7.5 22t19.5 8q27 0 27 -30q0 -14 -7 -22t-20 -8z" />
<glyph unicode="@" horiz-adv-x="613" d="M314 -93q-60 0 -108 24t-81.5 67.5t-51 105.5t-17.5 138t17.5 138t51 106t81.5 67.5t108 23.5q58 0 103.5 -21.5t76.5 -61t47.5 -95t16.5 -123.5q0 -85 -27 -135t-79 -50q-32 0 -49 21.5t-17 66.5q-11 -52 -37.5 -75.5t-64.5 -23.5q-40 0 -63.5 24t-23.5 67q0 51 33 79 t86 28h66q0 70 -20.5 95.5t-59.5 25.5q-32 0 -50.5 -13.5t-32.5 -41.5l-17 11q28 64 102 64q51 0 75.5 -32t24.5 -105v-90q0 -83 51 -83q42 0 62.5 44.5t20.5 121.5q0 66 -15.5 119t-44.5 89.5t-70.5 56.5t-93.5 20q-55 0 -99 -22t-75 -63.5t-47.5 -100.5t-16.5 -132 q0 -74 17 -132.5t48 -100t75 -63.5t98 -22q120 0 183 91l13 -11q-33 -48 -82.5 -72.5t-113.5 -24.5zM288 100q45 0 68 40t26 106v14h-62q-46 0 -73.5 -22.5t-27.5 -66.5q0 -33 18.5 -52t50.5 -19z" />
<glyph unicode="A" horiz-adv-x="447" d="M223 664l-127 -466h255zM404 0l-47 171h-267l-47 -171h-31l193 700h37l193 -700h-31z" />
<glyph unicode="B" horiz-adv-x="497" d="M90 0v700h183q43 0 73.5 -13t50.5 -36.5t29.5 -55.5t9.5 -71q0 -61 -26.5 -104.5t-72.5 -58.5q31 -6 52.5 -22.5t35.5 -39t20.5 -50t6.5 -54.5q0 -98 -44 -146.5t-144 -48.5h-174zM273 674h-153v-301h165q29 0 51.5 12t38 32.5t23.5 47t8 56.5q0 75 -35 114t-98 39z M284 345h-164v-319h145q81 0 119 39.5t38 128.5q0 67 -34.5 109t-103.5 42z" />
<glyph unicode="C" horiz-adv-x="521" d="M287 -10q-53 0 -95 19.5t-71 62.5t-44.5 111.5t-15.5 166.5q0 99 15.5 167.5t44.5 111t71 62t95 19.5q33 0 62 -7.5t53 -25.5t43 -47.5t32 -73.5l-27 -12q-11 40 -27.5 67t-37.5 43t-45.5 22.5t-52.5 6.5q-44 0 -80 -17t-61.5 -56t-39.5 -102.5t-14 -156.5q0 -94 14 -158 t39.5 -103t61.5 -56t80 -17q58 0 103 33t69 113l25 -12q-24 -84 -77 -122.5t-120 -38.5z" />
<glyph unicode="D" horiz-adv-x="551" d="M254 0h-164v700h164q56 0 100 -18.5t74 -59t46 -106t16 -158.5q0 -95 -16 -163t-46.5 -111.5t-74.5 -63.5t-99 -20zM252 27q47 0 85.5 17t65.5 56t42 102.5t15 155.5q0 88 -14.5 148.5t-41.5 98t-65 53.5t-85 16h-134v-647h132z" />
<glyph unicode="E" horiz-adv-x="485" d="M90 0v700h358v-27h-328v-309h286v-27h-286v-311h332v-26h-362z" />
<glyph unicode="F" horiz-adv-x="453" d="M90 0v700h346v-27h-316v-316h284v-27h-284v-330h-30z" />
<glyph unicode="G" horiz-adv-x="541" d="M282 -10q-52 0 -93 20t-69.5 63t-43.5 111.5t-15 165.5q0 99 15 167.5t44 111t71 62t95 19.5q33 0 62 -7.5t53 -25.5t43 -47.5t32 -73.5l-27 -12q-12 40 -28.5 67t-37.5 43t-45.5 22.5t-51.5 6.5q-44 0 -80 -16.5t-61.5 -55.5t-39 -103t-13.5 -158q0 -93 13.5 -156.5 t39 -103t61 -56.5t79.5 -17q36 0 66.5 13t53 42.5t35.5 76t16 112.5v25h-160v25h189v-311h-23l-4 152q-15 -81 -61 -121.5t-115 -40.5z" />
<glyph unicode="H" horiz-adv-x="581" d="M461 0v338h-341v-338h-30v700h30v-335h341v335h30v-700h-30z" />
<glyph unicode="I" horiz-adv-x="210" d="M90 0v700h30v-700h-30z" />
<glyph unicode="J" horiz-adv-x="376" d="M302 253q0 -71 -12.5 -121t-35 -81.5t-55 -46t-72.5 -14.5q-32 0 -59 10t-48 31l17 24q17 -19 40.5 -28t49.5 -9q33 0 59.5 13t45.5 40.5t29.5 71.5t10.5 107v450h30v-447z" />
<glyph unicode="K" horiz-adv-x="466" d="M120 217v-217h-30v700h30l-1 -439l287 439h33l-206 -311l223 -389h-34l-207 360z" />
<glyph unicode="L" horiz-adv-x="458" d="M120 27h319v-27h-349v700h30v-673z" />
<glyph unicode="M" horiz-adv-x="697" d="M336 0l-219 647l1 -647h-28v700h37l222 -657l220 657h38v-700h-28l1 647l-219 -647h-25z" />
<glyph unicode="N" horiz-adv-x="576" d="M456 0l-338 648l1 -648h-29v700h33l336 -644l-2 644h29v-700h-30z" />
<glyph unicode="O" horiz-adv-x="570" d="M285 -10q-54 0 -96 19.5t-70.5 62.5t-43 111.5t-14.5 166.5t15 166.5t43.5 111.5t70 62.5t95.5 19.5q55 0 96.5 -19.5t70 -62.5t43 -111.5t14.5 -166.5t-15 -166.5t-43.5 -111.5t-70 -62.5t-95.5 -19.5zM285 683q-45 0 -81 -16.5t-60.5 -55.5t-38 -103t-13.5 -158 q0 -93 13.5 -157t38 -103t60.5 -56t81 -17t81 17t61 56t38 103t13 158q0 93 -13 156.5t-38 102.5t-61 56t-81 17z" />
<glyph unicode="P" horiz-adv-x="500" d="M90 0v700h171q101 0 146.5 -53t45.5 -160q0 -47 -10.5 -86.5t-33.5 -69t-58.5 -46t-85.5 -16.5h-145v-269h-30zM261 674h-141v-379h146q72 0 114 48t42 144q0 99 -39.5 143t-121.5 44z" />
<glyph unicode="Q" horiz-adv-x="570" d="M285 -10q-54 0 -96 19.5t-70.5 62.5t-43 111.5t-14.5 166.5t15 166.5t43.5 111.5t70 62.5t95.5 19.5q55 0 96.5 -19.5t70 -62.5t43 -111.5t14.5 -166.5q0 -135 -27.5 -214.5t-80.5 -114.5l73 -113h-33l-66 101q-37 -19 -90 -19zM285 683q-45 0 -81 -16.5t-60.5 -55.5 t-38 -103t-13.5 -158t13.5 -157.5t38 -102.5t60.5 -56.5t81 -17.5q42 0 76 17l-75 118h33l68 -104q43 31 67 103.5t24 199.5q0 94 -13 157.5t-38 102.5t-61 56t-81 17z" />
<glyph unicode="R" horiz-adv-x="493" d="M261 674h-141v-359h142q80 0 120 46t40 136q0 94 -39 135.5t-122 41.5zM90 0v700h171q101 0 146.5 -50t45.5 -153q0 -71 -28.5 -125t-90.5 -74l123 -298h-32l-120 292q-18 -3 -40 -3h-145v-289h-30z" />
<glyph unicode="S" horiz-adv-x="454" d="M399 563l-26 -12q-11 38 -27.5 63.5t-36.5 41t-43.5 22t-49.5 6.5q-66 0 -102.5 -36t-36.5 -101t33 -102t95 -62l44 -18q42 -17 72 -36t49 -42t28 -51.5t9 -64.5q0 -90 -48.5 -135.5t-136.5 -45.5q-69 0 -119.5 36t-78.5 128l26 13q26 -85 69.5 -118t102.5 -33 q78 0 116.5 40.5t38.5 112.5q0 28 -6.5 51t-22 43t-42 37.5t-65.5 34.5l-45 19q-34 13 -61.5 30.5t-47 40.5t-30 53t-10.5 68q0 35 10.5 65t32 52.5t53.5 35t75 12.5q63 0 110.5 -33t70.5 -115z" />
<glyph unicode="T" horiz-adv-x="425" d="M13 700h399v-27h-184v-673h-30v673h-185v27z" />
<glyph unicode="U" horiz-adv-x="552" d="M449 234v466h30v-466q0 -128 -54.5 -186t-148.5 -58q-96 0 -149 58t-53 186v466h30v-466q0 -59 12 -100t34.5 -67t54.5 -38t71 -12t71 12t54.5 38t35 67t12.5 100z" />
<glyph unicode="V" horiz-adv-x="448" d="M224 36l181 664h31l-194 -700h-37l-193 700h31z" />
<glyph unicode="W" horiz-adv-x="679" d="M322 692h36l131 -645l146 653h30l-160 -700h-33l-132 642l-133 -642h-33l-160 700h31l146 -654z" />
<glyph unicode="X" horiz-adv-x="471" d="M417 0l-182 339l-183 -339h-32l198 365l-180 335h32l166 -310l167 310h30l-180 -335l197 -365h-33z" />
<glyph unicode="Y" horiz-adv-x="449" d="M209 286l-192 414h34l174 -383l173 383h33l-192 -414v-286h-30v286z" />
<glyph unicode="Z" horiz-adv-x="433" d="M26 0v24l345 650l-330 -1v27h363v-24l-346 -650l354 1v-27h-386z" />
<glyph unicode="[" horiz-adv-x="258" d="M82 -65v765h120v-24h-93v-717h100v-24h-127z" />
<glyph unicode="\" horiz-adv-x="349" d="M303 0l-290 700h29l291 -700h-30z" />
<glyph unicode="]" horiz-adv-x="259" d="M44 -65v24h100v717h-93v24h120v-765h-127z" />
<glyph unicode="^" horiz-adv-x="290" d="M133 701h26l109 -298v-1h-27l-95 267l-98 -267h-26v1z" />
<glyph unicode="_" horiz-adv-x="360" d="M361 0v-24h-362v24h362z" />
<glyph unicode="`" d="M219 563l-76 103v4h38l62 -104v-3h-24z" />
<glyph unicode="a" horiz-adv-x="415" d="M173 16q64 0 99.5 54t40.5 149v39h-90q-65 0 -107 -33.5t-42 -100.5q0 -52 26.5 -80t72.5 -28zM318 0l-3 132q-14 -71 -52.5 -106.5t-94.5 -35.5q-54 0 -88.5 34.5t-34.5 97.5q0 40 13.5 70t37 50t55 30t68.5 10h94v17q0 47 -8 78.5t-22.5 50t-35.5 26.5t-48 8 q-40 0 -70.5 -19.5t-46.5 -67.5l-26 12q18 50 53 75.5t92 25.5q72 0 106.5 -42.5t34.5 -143.5v-302h-24z" />
<glyph unicode="b" horiz-adv-x="452" d="M243 -10q-48 0 -86 28t-52 91l-2 -109h-25v700h29v-341q14 66 53 97.5t90 31.5q72 0 111.5 -63.5t39.5 -184.5q0 -120 -40.5 -185t-117.5 -65zM107 234q0 -113 37.5 -165.5t94.5 -52.5q66 0 99 58t33 165q0 109 -32 166t-96 57q-60 0 -98 -56t-38 -172z" />
<glyph unicode="c" horiz-adv-x="401" d="M218 -10q-83 0 -125 60.5t-42 186.5q0 129 42.5 190t126.5 61q55 0 89 -28t54 -85l-26 -13q-18 54 -47 77t-71 23q-69 0 -103.5 -53t-34.5 -172q0 -115 34 -168t103 -53q48 0 78 27t47 85l25 -11q-17 -61 -53.5 -94t-96.5 -33z" />
<glyph unicode="d" horiz-adv-x="452" d="M345 244q0 111 -37 164.5t-94 53.5q-67 0 -100 -58t-33 -165q0 -109 33 -166t98 -57q58 0 95.5 55.5t37.5 172.5zM349 0l-2 120q-14 -66 -52.5 -98t-89.5 -32q-75 0 -114.5 64t-39.5 185q0 120 40.5 184.5t117.5 64.5q49 0 85.5 -29.5t50.5 -89.5v331h29v-700h-25z" />
<glyph unicode="e" horiz-adv-x="408" d="M217 -10q-79 0 -122.5 60.5t-43.5 188.5q0 124 41.5 186.5t120.5 62.5q75 0 113.5 -60.5t38.5 -175.5v-20h-285q2 -112 36.5 -164.5t101.5 -52.5q93 0 125 111l25 -11q-19 -60 -55.5 -92.5t-95.5 -32.5zM212 463q-63 0 -96 -52.5t-35 -154.5h256q-3 207 -125 207z" />
<glyph unicode="f" horiz-adv-x="263" d="M252 454h-122v-454h-29v454h-72v24h72v97q0 37 8 62.5t21.5 41t31.5 22.5t39 7q14 0 30.5 -4t31.5 -14l-12 -24q-13 8 -25 11.5t-25 3.5q-35 0 -53 -25t-18 -85v-93h122v-24z" />
<glyph unicode="g" horiz-adv-x="450" d="M343 247q0 109 -37.5 162t-94.5 53q-66 0 -98 -57.5t-32 -163.5q0 -108 32.5 -165t95.5 -57q59 0 96.5 56t37.5 172zM204 -205q-53 0 -92 24.5t-63 84.5l26 13q20 -54 52.5 -75t75.5 -21q32 0 58 9.5t44 31.5t28 57t10 85v116q-14 -66 -52.5 -96.5t-87.5 -30.5 q-73 0 -112.5 63t-39.5 184q0 119 40.5 183.5t116.5 64.5q48 0 85.5 -30t51.5 -90l2 110h25v-479q0 -54 -12.5 -93t-34.5 -63.5t-53 -36t-68 -11.5z" />
<glyph unicode="h" horiz-adv-x="457" d="M355 300q0 45 -8 76t-22 50t-34.5 27.5t-44.5 8.5q-32 0 -57 -15.5t-42.5 -43t-27.5 -65.5t-12 -83v-255h-29v700h29v-348q14 66 53 101t95 35q63 0 96 -43.5t33 -135.5v-309h-29v300z" />
<glyph unicode="i" horiz-adv-x="185" d="M65 610q0 14 7.5 22t19.5 8q28 0 28 -30q0 -14 -7.5 -22t-20.5 -8q-12 0 -19.5 8t-7.5 22zM78 478h29v-478h-29v478z" />
<glyph unicode="j" horiz-adv-x="185" d="M92 580q-12 0 -19.5 8t-7.5 22t7.5 22t19.5 8q28 0 28 -30q0 -14 -7.5 -22t-20.5 -8zM78 -58v536h29v-547q0 -72 -23.5 -104t-66.5 -32q-30 0 -55 14l11 26q11 -6 21 -9.5t24 -3.5q30 0 45 26.5t15 93.5z" />
<glyph unicode="k" horiz-adv-x="382" d="M107 136v-136h-29v700h29l-1 -526l210 304h34l-148 -208l159 -270h-34l-142 245z" />
<glyph unicode="l" horiz-adv-x="185" d="M102 91q0 -36 14 -51t39 -15h27v-25h-30q-38 0 -58.5 21.5t-20.5 70.5v608h29v-609z" />
<glyph unicode="m" horiz-adv-x="680" d="M327 0v300q0 45 -7 76t-19.5 50t-30 27.5t-39.5 8.5q-55 0 -87 -54t-37 -151v-257h-29v478h25l2 -128q12 68 49 103t86 35q51 0 78.5 -36.5t32.5 -107.5q13 71 50.5 107.5t88.5 36.5q58 0 87.5 -43.5t29.5 -134.5v-310h-29v301q0 45 -7 76t-19.5 49.5t-30 27t-39.5 8.5 q-55 0 -88 -52.5t-38 -143.5v-266h-29z" />
<glyph unicode="n" horiz-adv-x="457" d="M78 478h25l3 -128q13 67 52.5 102.5t95.5 35.5q64 0 97 -43.5t33 -135.5v-309h-29v301q0 45 -8 76t-22 49.5t-34 27t-45 8.5q-32 0 -57 -15.5t-42.5 -43t-27.5 -65.5t-12 -83v-255h-29v478z" />
<glyph unicode="o" horiz-adv-x="435" d="M51 238q0 128 42.5 189t124.5 61t124 -61t42 -189q0 -127 -42.5 -187.5t-123.5 -60.5q-83 0 -125 60t-42 188zM354 237q0 115 -32.5 170t-103.5 55t-104 -55t-33 -170q0 -112 33 -166.5t104 -54.5q70 0 103 54.5t33 166.5z" />
<glyph unicode="p" horiz-adv-x="452" d="M107 234q0 -113 37.5 -165.5t93.5 -52.5q67 0 100 58.5t33 165.5q0 108 -31 165t-94 57q-62 0 -100.5 -56t-38.5 -172zM103 478l3 -123q12 68 52.5 100.5t93.5 32.5q72 0 110.5 -63.5t38.5 -184.5q0 -120 -40.5 -185t-118.5 -65q-47 0 -84 28t-51 88v-292h-29v664h25z " />
<glyph unicode="q" horiz-adv-x="452" d="M209 488q47 0 85.5 -29t52.5 -90l2 109h25v-664h-29v303q-14 -66 -52.5 -96.5t-87.5 -30.5q-75 0 -114.5 63.5t-39.5 185.5q0 120 40.5 184.5t117.5 64.5zM345 245q0 111 -37 164t-94 53q-66 0 -99.5 -58t-33.5 -165q0 -109 33 -166t98 -57q58 0 95.5 56t37.5 173z" />
<glyph unicode="r" horiz-adv-x="255" d="M78 0v478h25l3 -135q12 69 49.5 105t87.5 34v-30q-60 2 -95.5 -49.5t-40.5 -150.5v-252h-29z" />
<glyph unicode="s" horiz-adv-x="363" d="M185 15q49 0 77.5 25.5t28.5 73.5q0 35 -20 62t-74 49l-32 13q-54 22 -85.5 51.5t-31.5 83.5q0 52 33 84t96 32q51 0 84 -24.5t53 -76.5l-25 -13q-17 48 -45 68.5t-67 20.5q-48 0 -74.5 -23t-26.5 -67q0 -38 22.5 -62t74.5 -46l33 -14q64 -27 88.5 -59t24.5 -77 q0 -54 -33.5 -90t-102.5 -36q-60 0 -97.5 29t-58.5 86l26 12q19 -56 53 -79t79 -23z" />
<glyph unicode="t" horiz-adv-x="261" d="M250 8q-15 -10 -31.5 -14t-30.5 -4q-21 0 -39.5 7t-32.5 22.5t-22 41t-8 62.5v331h-70v24h70v148h29v-148h123v-24h-123v-327q0 -60 19 -85t54 -25q13 0 25 3.5t25 11.5z" />
<glyph unicode="u" horiz-adv-x="456" d="M378 0h-25l-2 113q-14 -61 -53.5 -92t-93.5 -31q-131 0 -131 188v300h29v-293q0 -47 8 -79t22 -52t34.5 -29t45.5 -9q33 0 57.5 14.5t41.5 40t26.5 61t11.5 78.5v268h29v-478z" />
<glyph unicode="v" horiz-adv-x="356" d="M12 478h31l136 -446l135 446h30l-150 -478h-32z" />
<glyph unicode="w" horiz-adv-x="533" d="M251 466h32l100 -430l106 442h29l-118 -478h-35l-99 424l-99 -424h-34l-119 478h31l105 -442z" />
<glyph unicode="x" horiz-adv-x="368" d="M315 0l-132 224l-131 -224h-32l147 248l-136 230h33l121 -207l121 207h31l-136 -230l148 -248h-34z" />
<glyph unicode="y" horiz-adv-x="358" d="M150 -48l13 45l-151 481h31l136 -444l136 444h30l-169 -537q-15 -47 -30 -75.5t-31.5 -44t-34 -21t-35.5 -5.5q-17 0 -30.5 2.5t-29.5 10.5l9 26q25 -12 48 -12q15 0 29 4.5t27 18.5t26 39.5t26 67.5z" />
<glyph unicode="z" horiz-adv-x="354" d="M31 0v24l253 429h-246v25h278v-24l-253 -429h257v-25h-289z" />
<glyph unicode="{" horiz-adv-x="265" d="M202 -72q-38 5 -58.5 30.5t-20.5 77.5q0 35 4.5 69.5t4.5 64.5q0 72 -20 105t-71 33h-15v24h15q51 0 71 33t20 105q0 32 -4.5 66t-4.5 69q0 51 20.5 76.5t58.5 31.5l8 -24q-29 -5 -45 -25t-16 -61q0 -29 5 -64.5t5 -70.5q0 -66 -16 -101t-56 -46q40 -12 56 -47t16 -101 q0 -35 -5 -70.5t-5 -64.5q0 -41 16 -61t45 -25z" />
<glyph unicode="|" horiz-adv-x="206" d="M89 -65v831h27v-831h-27z" />
<glyph unicode="}" horiz-adv-x="265" d="M55 -48q29 5 45 25t16 61q0 29 -5 64.5t-5 70.5q0 66 16 101t56 47q-40 11 -56 46t-16 101q0 35 5 70.5t5 64.5q0 41 -16 61t-45 25l8 24q38 -6 58.5 -31.5t20.5 -76.5q0 -35 -4.5 -69t-4.5 -66q0 -72 20 -105t71 -33h15v-24h-15q-51 0 -71 -33t-20 -105q0 -30 4.5 -64.5 t4.5 -69.5q0 -52 -20.5 -77.5t-58.5 -30.5z" />
<glyph unicode="~" horiz-adv-x="373" d="M327 399l24 -4q-3 -32 -10.5 -52.5t-19 -32.5t-25 -16.5t-28.5 -4.5q-26 0 -46.5 13.5t-40.5 29.5q-18 15 -35.5 27t-39.5 12q-10 0 -19.5 -3.5t-18 -12.5t-14.5 -25t-8 -41l-24 4q3 31 11 51.5t19 32.5t25 17t28 5q26 0 46.5 -13t40.5 -30q18 -15 36 -27t39 -12 q10 0 20 3.5t18 12.5t14 25t8 41z" />
<glyph unicode="&#xa1;" horiz-adv-x="163" d="M63 -194l5 530h23l5 -530h-33zM80 512q12 0 19.5 -8t7.5 -22t-7.5 -22t-19.5 -8q-27 0 -27 30q0 14 7 22t20 8z" />
<glyph unicode="&#xa2;" horiz-adv-x="404" d="M363 140q-17 -59 -51.5 -90.5t-88.5 -33.5v-78h-22v78q-75 4 -113.5 61.5t-38.5 174.5q0 118 38.5 176t113.5 63v80h22v-80q51 -1 83.5 -28.5t51.5 -82.5l-24 -12q-18 51 -45.5 73.5t-65.5 24.5v-425q86 3 117 109zM77 252q0 -106 30.5 -156.5t93.5 -54.5v424 q-63 -4 -93.5 -54t-30.5 -159z" />
<glyph unicode="&#xa3;" horiz-adv-x="427" d="M408 68q-13 -22 -27.5 -35t-30 -20.5t-33 -10t-35.5 -2.5h-242v24h15q30 0 42 27.5t10 88.5l-5 184h-62v25h62l-5 173q-2 91 33.5 139.5t110.5 48.5q55 0 94 -30t63 -104l-25 -13q-21 68 -54.5 94.5t-78.5 26.5q-118 0 -114 -161l5 -174h170v-25h-169l4 -182 q2 -52 -6 -80t-23 -38h175q30 0 56.5 11t49.5 51z" />
<glyph unicode="&#xa5;" horiz-adv-x="449" d="M394 263h-155v-263h-30v263h-155v25h154l-28 59h-126v25h115l-152 328h34l174 -385l174 385h32l-152 -328h115v-25h-127l-27 -59h154v-25z" />
<glyph unicode="&#xa6;" horiz-adv-x="206" d="M89 377v389h27v-389h-27zM89 -65v389h27v-389h-27z" />
<glyph unicode="&#xa7;" horiz-adv-x="390" d="M93 354q0 -33 19.5 -61.5t68.5 -43.5l26 -8q20 -6 39.5 -2.5t35.5 16.5t25.5 33.5t9.5 49.5q0 32 -19 59t-70 44l-25 8q-21 7 -41 3t-35.5 -17t-24.5 -33.5t-9 -47.5zM199 -22q-57 0 -96 31.5t-61 89.5l24 12q20 -59 55 -83.5t76 -24.5q58 0 81 28.5t23 73.5 q0 40 -18.5 64.5t-71.5 42.5l-33 11q-54 18 -83 49.5t-29 83.5q0 44 22.5 74.5t59.5 37.5q-29 14 -48.5 45t-19.5 73q0 55 33.5 89.5t89.5 34.5q51 0 82 -24t51 -75l-24 -12q-16 46 -43.5 66t-66.5 20q-42 0 -68.5 -26t-26.5 -72q0 -34 19.5 -63t68.5 -46l36 -12 q37 -12 59.5 -27.5t34 -32.5t15 -34t3.5 -32q0 -48 -21 -79t-59 -40q39 -20 52.5 -49.5t13.5 -66.5q0 -56 -31.5 -91.5t-98.5 -35.5z" />
<glyph unicode="&#xa8;" d="M253 610q0 14 7.5 22t19.5 8q27 0 27 -30q0 -29 -27 -29q-12 0 -19.5 7.5t-7.5 21.5zM146 610q0 14 7.5 22t19.5 8q27 0 27 -30q0 -29 -27 -29q-12 0 -19.5 7.5t-7.5 21.5z" />
<glyph unicode="&#xa9;" horiz-adv-x="616" d="M56 349q0 77 17.5 139t50 105.5t79 67t105.5 23.5t105.5 -23.5t79 -67t50 -105.5t17.5 -139q0 -78 -17.5 -140t-50 -105.5t-79 -67t-105.5 -23.5t-105.5 23.5t-79 67t-50 105.5t-17.5 140zM76 349q0 -74 16 -133t46 -100.5t73 -63.5t97 -22t97 22t73 63.5t46 100.5 t16 133q0 73 -16 132t-46 100.5t-73 63.5t-97 22t-97 -22t-73 -63.5t-46 -100.5t-16 -132zM425 270q-29 -97 -113 -97q-62 0 -95 42t-33 135q0 94 33 137t96 43q79 0 107 -85l-20 -11q-13 41 -35.5 58.5t-51.5 17.5q-52 0 -79 -37t-27 -123q0 -84 27 -120t78 -36 q36 0 58 20.5t35 63.5z" />
<glyph unicode="&#xaa;" horiz-adv-x="300" d="M131 380q45 0 71 40t26 115v11h-64q-48 0 -76 -23.5t-28 -65.5q0 -38 18.5 -57.5t52.5 -19.5zM231 367l-2 87q-10 -47 -37.5 -70.5t-66.5 -23.5q-40 0 -64 24.5t-24 71.5q0 52 34.5 80.5t92.5 28.5h64v9q0 67 -20 90.5t-61 23.5q-34 0 -54 -13.5t-34 -38.5l-17 13 q17 32 44 46.5t64 14.5q51 0 76 -30t25 -103v-210h-20z" />
<glyph unicode="&#xab;" horiz-adv-x="446" d="M192 0l-142 237v3l142 238h33l-144 -239l145 -239h-34zM332 0l-144 238v3l143 237h32l-143 -238l145 -240h-33z" />
<glyph unicode="&#xad;" horiz-adv-x="299" d="M259 256v-26h-220v26h220z" />
<glyph unicode="&#xae;" horiz-adv-x="357" d="M179 352q-65 0 -101 49.5t-36 129.5q0 81 36 130t101 49q64 0 100 -49t36 -130q0 -40 -9.5 -73t-27 -56.5t-42.5 -36.5t-57 -13zM179 365q55 0 88 44.5t33 121.5q0 78 -33 122t-88 44q-57 0 -89.5 -44t-32.5 -122q0 -77 32.5 -121.5t89.5 -44.5zM179 611h-35v-83h39 q32 0 32 41q0 20 -9.5 31t-26.5 11zM129 445v180h50q24 0 37 -15t13 -41q0 -41 -29 -52l28 -72h-16l-26 69h-42v-69h-15z" />
<glyph unicode="&#xaf;" d="M318 626v-23h-171v23h171z" />
<glyph unicode="&#xb0;" horiz-adv-x="343" d="M172 362q-63 0 -97 47.5t-34 125.5t34 126t97 48q62 0 96.5 -48t34.5 -126t-34.5 -125.5t-96.5 -47.5zM172 686q-51 0 -79 -41t-28 -110t28 -109.5t79 -40.5t79 40.5t28 109.5t-28 110t-79 41z" />
<glyph unicode="&#xb1;" horiz-adv-x="368" d="M197 129h-26v167h-131v25h131v175h26v-175h131v-25h-131v-167zM328 25v-25h-288v25h288z" />
<glyph unicode="&#xb2;" horiz-adv-x="262" d="M23 295zM24 295v20l123 173q32 45 42 72.5t10 48.5q0 78 -70 78q-33 0 -53 -18t-34 -53l-19 10q16 41 41 62t67 21q47 0 70 -26.5t23 -69.5q0 -29 -13 -60t-46 -78l-113 -158h188v-22h-216z" />
<glyph unicode="&#xb3;" horiz-adv-x="275" d="M24 288zM131 288q-76 0 -107 74l21 9q14 -32 34.5 -46.5t49.5 -14.5q45 0 66 27t21 72q0 36 -16 62.5t-58 26.5h-43v21h43q28 0 46.5 22.5t18.5 63.5q0 40 -19.5 61.5t-56.5 21.5q-30 0 -48.5 -16t-31.5 -49l-21 9q14 39 38.5 58t65.5 19q51 0 74 -27.5t23 -72.5 q0 -37 -13.5 -62.5t-38.5 -36.5q35 -11 48 -40t13 -61q0 -56 -27.5 -88.5t-81.5 -32.5z" />
<glyph unicode="&#xb4;" d="M302 666l-75 -103h-25v3l62 104h38v-4z" />
<glyph unicode="&#xb6;" horiz-adv-x="473" d="M297 296h59v378h-59v-378zM78 487q0 -95 41.5 -143.5t111.5 -47.5h39v378h-33q-80 0 -119.5 -44t-39.5 -143zM270 0v269h-35q-48 0 -83.5 16.5t-58 46t-33.5 69t-11 86.5q0 107 46 160t146 53h143v-700h-28v269h-59v-269h-27z" />
<glyph unicode="&#xb7;" horiz-adv-x="155" d="M50 306zM77 306q-12 0 -19.5 8t-7.5 22t7.5 22t19.5 8q27 0 27 -30q0 -14 -7 -22t-20 -8z" />
<glyph unicode="&#xb8;" d="M238 -221q-26 0 -45.5 11.5t-33.5 37.5l19 12q11 -22 25 -31t34 -9q58 0 58 53q0 26 -14 37t-31 11q-11 0 -21 -3l-9 8l14 94h22l-13 -83q3 2 7 2h8q22 0 41 -15t19 -51t-21.5 -55t-58.5 -19z" />
<glyph unicode="&#xb9;" horiz-adv-x="146" d="M12 295zM90 295h-24v369l-43 -44l-11 21l62 62h16v-408z" />
<glyph unicode="&#xba;" horiz-adv-x="315" d="M39 534q0 91 30.5 133.5t87.5 42.5q60 0 89 -42.5t29 -133.5q0 -89 -29.5 -131.5t-88.5 -42.5q-57 0 -87.5 42t-30.5 132zM252 534q0 155 -95 155q-94 0 -94 -155q0 -78 22.5 -115.5t71.5 -37.5q48 0 71.5 37.5t23.5 115.5z" />
<glyph unicode="&#xbb;" horiz-adv-x="446" d="M248 480l142 -237v-3l-142 -238h-33l144 239l-145 239h34zM108 480l144 -238v-3l-143 -237h-32l143 238l-145 240h33z" />
<glyph unicode="&#xbc;" horiz-adv-x="606" d="M12 0zM90 293h-24v369l-43 -44l-11 21l62 62h16v-408zM382 701l-247 -701h-28l247 701h28zM341 111v20l107 277h25l-107 -275h148v202h24v-202h50v-22h-50v-111h-24v111h-173z" />
<glyph unicode="&#xbd;" horiz-adv-x="585" d="M12 0zM342 0v20l123 173q32 45 42 72.5t10 48.5q0 78 -70 78q-33 0 -53 -18t-34 -53l-19 10q16 41 41 62t67 21q47 0 70 -26.5t23 -69.5q0 -29 -13 -60t-46 -78l-113 -158h188v-22h-216zM90 293h-24v369l-43 -44l-11 21l62 62h16v-408zM382 701l-247 -701h-28l247 701h28 z" />
<glyph unicode="&#xbe;" horiz-adv-x="705" d="M24 0zM131 286q-76 0 -107 74l21 9q14 -32 34.5 -46.5t49.5 -14.5q45 0 66 27t21 72q0 36 -16 62.5t-58 26.5h-43v21h43q28 0 46.5 22.5t18.5 63.5q0 40 -19.5 61.5t-56.5 21.5q-30 0 -48.5 -16t-31.5 -49l-21 9q14 39 38.5 58t65.5 19q51 0 74 -27.5t23 -72.5 q0 -37 -13.5 -62.5t-38.5 -36.5q35 -11 48 -40t13 -61q0 -56 -27.5 -88.5t-81.5 -32.5zM487 701l-247 -701h-28l247 701h28zM440 111v20l107 277h25l-107 -275h148v202h24v-202h50v-22h-50v-111h-24v111h-173z" />
<glyph unicode="&#xbf;" horiz-adv-x="371" d="M189 336l1 -131h-14q-75 0 -114 -52.5t-39 -142.5q0 -89 41 -138t112 -49q24 0 47 6.5t43 22t36 40.5t27 62l26 -10q-12 -42 -31 -70.5t-42.5 -45.5t-50.5 -24.5t-56 -7.5q-85 0 -133 56.5t-48 156.5q0 49 11.5 88.5t33 68t52.5 44.5t71 17l1 109h26zM177 512 q12 0 19.5 -8t7.5 -22t-7.5 -22t-19.5 -8q-27 0 -27 30q0 14 7 22t20 8z" />
<glyph unicode="&#xc0;" horiz-adv-x="447" d="M12 0zM223 664l-127 -466h255zM404 0l-47 171h-267l-47 -171h-31l193 700h37l193 -700h-31zM215 785l-76 103v4h38l62 -104v-3h-24z" />
<glyph unicode="&#xc1;" horiz-adv-x="447" d="M12 0zM223 664l-127 -466h255zM404 0l-47 171h-267l-47 -171h-31l193 700h37l193 -700h-31zM309 888l-75 -103h-25v3l62 104h38v-4z" />
<glyph unicode="&#xc2;" horiz-adv-x="447" d="M12 0zM223 664l-127 -466h255zM404 0l-47 171h-267l-47 -171h-31l193 700h37l193 -700h-31zM224 871l-69 -86h-31v2l88 105h25l87 -105v-2h-31z" />
<glyph unicode="&#xc3;" horiz-adv-x="447" d="M12 0zM223 664l-127 -466h255zM404 0l-47 171h-267l-47 -171h-31l193 700h37l193 -700h-31zM297 878h22q0 -23 -4.5 -37.5t-12 -23t-16.5 -11.5t-18 -3q-16 0 -27 8.5t-21 19t-20 19t-23 8.5q-11 0 -19.5 -10t-8.5 -41h-22q0 23 5 37.5t12 22.5t15.5 11t17.5 3 q16 0 27.5 -8.5t21.5 -18.5t20 -18.5t24 -8.5q12 0 19 11t8 40z" />
<glyph unicode="&#xc4;" horiz-adv-x="447" d="M12 0zM223 664l-127 -466h255zM404 0l-47 171h-267l-47 -171h-31l193 700h37l193 -700h-31zM251 832q0 14 7.5 22t19.5 8q27 0 27 -30q0 -29 -27 -29q-12 0 -19.5 7.5t-7.5 21.5zM144 832q0 14 7.5 22t19.5 8q27 0 27 -30q0 -29 -27 -29q-12 0 -19.5 7.5t-7.5 21.5z" />
<glyph unicode="&#xc5;" horiz-adv-x="447" d="M12 0zM223 664l-127 -466h255zM404 0l-47 171h-267l-47 -171h-31l193 700h37l193 -700h-31zM154 851q0 35 20 58t52 23q30 0 50 -23t20 -58t-20 -57.5t-51 -22.5t-51 22.5t-20 57.5zM176 851q0 -26 14 -43t35 -17t35 17t14 43q0 27 -14 44t-34 17q-22 0 -36 -17t-14 -44z " />
<glyph unicode="&#xc6;" horiz-adv-x="667" d="M224 668l-129 -470h249zM393 0l-44 171h-260l-46 -171h-31l193 700h423v-26h-376l78 -309h258v-27h-251l80 -311h219v-27h-243z" />
<glyph unicode="&#xc7;" horiz-adv-x="521" d="M282 -221q-26 0 -45.5 11.5t-33.5 37.5l19 12q11 -22 25 -31t34 -9q58 0 58 53q0 26 -14 37t-31 11q-11 0 -21 -3l-9 8l13 84q-51 2 -91 22.5t-67.5 63t-42.5 110.5t-15 164q0 99 15.5 167.5t44.5 111t71 62t95 19.5q33 0 62 -7.5t53 -25.5t43 -47.5t32 -73.5l-27 -12 q-11 40 -27.5 67t-37.5 43t-45.5 22.5t-52.5 6.5q-44 0 -80 -17t-61.5 -56t-39.5 -102.5t-14 -156.5q0 -94 14 -158t39.5 -103t61.5 -56t80 -17q58 0 103 33t69 113l25 -12q-23 -81 -72 -119t-114 -42l-11 -73q3 2 7 2h8q22 0 41 -15t19 -51t-21.5 -55t-58.5 -19z" />
<glyph unicode="&#xc8;" horiz-adv-x="485" d="M90 0zM90 0v700h358v-27h-328v-309h286v-27h-286v-311h332v-26h-362zM263 785l-76 103v4h38l62 -104v-3h-24z" />
<glyph unicode="&#xc9;" horiz-adv-x="485" d="M90 0zM90 0v700h358v-27h-328v-309h286v-27h-286v-311h332v-26h-362zM357 888l-75 -103h-25v3l62 104h38v-4z" />
<glyph unicode="&#xca;" horiz-adv-x="485" d="M90 0zM90 0v700h358v-27h-328v-309h286v-27h-286v-311h332v-26h-362zM272 871l-69 -86h-31v2l88 105h25l87 -105v-2h-31z" />
<glyph unicode="&#xcb;" horiz-adv-x="485" d="M90 0zM90 0v700h358v-27h-328v-309h286v-27h-286v-311h332v-26h-362zM299 832q0 14 7.5 22t19.5 8q27 0 27 -30q0 -29 -27 -29q-12 0 -19.5 7.5t-7.5 21.5zM192 832q0 14 7.5 22t19.5 8q27 0 27 -30q0 -29 -27 -29q-12 0 -19.5 7.5t-7.5 21.5z" />
<glyph unicode="&#xcc;" horiz-adv-x="210" d="M20 0zM90 0v700h30v-700h-30zM96 785l-76 103v4h38l62 -104v-3h-24z" />
<glyph unicode="&#xcd;" horiz-adv-x="210" d="M90 0zM90 0v700h30v-700h-30zM190 888l-75 -103h-25v3l62 104h38v-4z" />
<glyph unicode="&#xce;" horiz-adv-x="210" d="M5 0zM90 0v700h30v-700h-30zM105 871l-69 -86h-31v2l88 105h25l87 -105v-2h-31z" />
<glyph unicode="&#xcf;" horiz-adv-x="210" d="M25 0zM90 0v700h30v-700h-30zM132 832q0 14 7.5 22t19.5 8q27 0 27 -30q0 -29 -27 -29q-12 0 -19.5 7.5t-7.5 21.5zM25 832q0 14 7.5 22t19.5 8q27 0 27 -30q0 -29 -27 -29q-12 0 -19.5 7.5t-7.5 21.5z" />
<glyph unicode="&#xd0;" horiz-adv-x="561" d="M263 0h-164v353h-62v26h62v321h165q56 0 100 -18.5t74 -59t46 -106t16 -158.5q0 -95 -16 -163t-46.5 -111.5t-74.5 -63.5t-100 -20zM129 27h133q47 0 85 17t65 56t42 102.5t15 155.5q0 88 -14.5 148.5t-41.5 98t-65 53.5t-85 16h-134v-295h134v-26h-134v-326z" />
<glyph unicode="&#xd1;" horiz-adv-x="576" d="M90 0zM456 0l-338 648l1 -648h-29v700h33l336 -644l-2 644h29v-700h-30zM362 878h22q0 -23 -4.5 -37.5t-12 -23t-16.5 -11.5t-18 -3q-16 0 -27 8.5t-21 19t-20 19t-23 8.5q-11 0 -19.5 -10t-8.5 -41h-22q0 23 5 37.5t12 22.5t15.5 11t17.5 3q16 0 27.5 -8.5t21.5 -18.5 t20 -18.5t24 -8.5q12 0 19 11t8 40z" />
<glyph unicode="&#xd2;" horiz-adv-x="570" d="M61 0zM285 -10q-54 0 -96 19.5t-70.5 62.5t-43 111.5t-14.5 166.5t15 166.5t43.5 111.5t70 62.5t95.5 19.5q55 0 96.5 -19.5t70 -62.5t43 -111.5t14.5 -166.5t-15 -166.5t-43.5 -111.5t-70 -62.5t-95.5 -19.5zM285 683q-45 0 -81 -16.5t-60.5 -55.5t-38 -103t-13.5 -158 q0 -93 13.5 -157t38 -103t60.5 -56t81 -17t81 17t61 56t38 103t13 158q0 93 -13 156.5t-38 102.5t-61 56t-81 17zM276 786l-76 103v4h38l62 -104v-3h-24z" />
<glyph unicode="&#xd3;" horiz-adv-x="570" d="M61 0zM285 -10q-54 0 -96 19.5t-70.5 62.5t-43 111.5t-14.5 166.5t15 166.5t43.5 111.5t70 62.5t95.5 19.5q55 0 96.5 -19.5t70 -62.5t43 -111.5t14.5 -166.5t-15 -166.5t-43.5 -111.5t-70 -62.5t-95.5 -19.5zM285 683q-45 0 -81 -16.5t-60.5 -55.5t-38 -103t-13.5 -158 q0 -93 13.5 -157t38 -103t60.5 -56t81 -17t81 17t61 56t38 103t13 158q0 93 -13 156.5t-38 102.5t-61 56t-81 17zM370 888l-75 -103h-25v3l62 104h38v-4z" />
<glyph unicode="&#xd4;" horiz-adv-x="570" d="M61 0zM285 -10q-54 0 -96 19.5t-70.5 62.5t-43 111.5t-14.5 166.5t15 166.5t43.5 111.5t70 62.5t95.5 19.5q55 0 96.5 -19.5t70 -62.5t43 -111.5t14.5 -166.5t-15 -166.5t-43.5 -111.5t-70 -62.5t-95.5 -19.5zM285 683q-45 0 -81 -16.5t-60.5 -55.5t-38 -103t-13.5 -158 q0 -93 13.5 -157t38 -103t60.5 -56t81 -17t81 17t61 56t38 103t13 158q0 93 -13 156.5t-38 102.5t-61 56t-81 17zM285 871l-69 -86h-31v2l88 105h25l87 -105v-2h-31z" />
<glyph unicode="&#xd5;" horiz-adv-x="570" d="M61 0zM285 -10q-54 0 -96 19.5t-70.5 62.5t-43 111.5t-14.5 166.5t15 166.5t43.5 111.5t70 62.5t95.5 19.5q55 0 96.5 -19.5t70 -62.5t43 -111.5t14.5 -166.5t-15 -166.5t-43.5 -111.5t-70 -62.5t-95.5 -19.5zM285 683q-45 0 -81 -16.5t-60.5 -55.5t-38 -103t-13.5 -158 q0 -93 13.5 -157t38 -103t60.5 -56t81 -17t81 17t61 56t38 103t13 158q0 93 -13 156.5t-38 102.5t-61 56t-81 17zM358 878h22q0 -23 -4.5 -37.5t-12 -23t-16.5 -11.5t-18 -3q-16 0 -27 8.5t-21 19t-20 19t-23 8.5q-11 0 -19.5 -10t-8.5 -41h-22q0 23 5 37.5t12 22.5t15.5 11 t17.5 3q16 0 27.5 -8.5t21.5 -18.5t20 -18.5t24 -8.5q12 0 19 11t8 40z" />
<glyph unicode="&#xd6;" horiz-adv-x="570" d="M61 0zM285 -10q-54 0 -96 19.5t-70.5 62.5t-43 111.5t-14.5 166.5t15 166.5t43.5 111.5t70 62.5t95.5 19.5q55 0 96.5 -19.5t70 -62.5t43 -111.5t14.5 -166.5t-15 -166.5t-43.5 -111.5t-70 -62.5t-95.5 -19.5zM285 683q-45 0 -81 -16.5t-60.5 -55.5t-38 -103t-13.5 -158 q0 -93 13.5 -157t38 -103t60.5 -56t81 -17t81 17t61 56t38 103t13 158q0 93 -13 156.5t-38 102.5t-61 56t-81 17zM312 832q0 14 7.5 22t19.5 8q27 0 27 -30q0 -29 -27 -29q-12 0 -19.5 7.5t-7.5 21.5zM205 832q0 14 7.5 22t19.5 8q27 0 27 -30q0 -29 -27 -29 q-12 0 -19.5 7.5t-7.5 21.5z" />
<glyph unicode="&#xd7;" horiz-adv-x="342" d="M71 161l-18 16l103 137l-103 137l18 16l100 -134l99 133l19 -15l-102 -137l102 -137l-20 -16l-99 134z" />
<glyph unicode="&#xd8;" horiz-adv-x="571" d="M287 -10q-54 0 -95.5 20t-70.5 65l-49 -75h-29l64 97q-22 44 -33.5 106t-11.5 147q0 98 15 166.5t44 111.5t70.5 62.5t95.5 19.5t95.5 -19.5t70.5 -64.5l49 74h29l-64 -97q43 -85 43 -253q0 -98 -14.5 -166.5t-43 -111.5t-70 -62.5t-95.5 -19.5zM93 350q0 -74 8.5 -128.5 t25.5 -92.5l309 469q-26 46 -63 65.5t-86 19.5q-45 0 -81 -16.5t-61 -55.5t-38.5 -103t-13.5 -158zM287 16q45 0 81 17t60.5 56t37.5 103t13 159q0 143 -33 220l-308 -470q25 -46 62.5 -65.5t86.5 -19.5z" />
<glyph unicode="&#xd9;" horiz-adv-x="552" d="M74 0zM449 234v466h30v-466q0 -128 -54.5 -186t-148.5 -58q-96 0 -149 58t-53 186v466h30v-466q0 -59 12 -100t34.5 -67t54.5 -38t71 -12t71 12t54.5 38t35 67t12.5 100zM268 785l-76 103v4h38l62 -104v-3h-24z" />
<glyph unicode="&#xda;" horiz-adv-x="552" d="M74 0zM449 234v466h30v-466q0 -128 -54.5 -186t-148.5 -58q-96 0 -149 58t-53 186v466h30v-466q0 -59 12 -100t34.5 -67t54.5 -38t71 -12t71 12t54.5 38t35 67t12.5 100zM362 888l-75 -103h-25v3l62 104h38v-4z" />
<glyph unicode="&#xdb;" horiz-adv-x="552" d="M74 0zM449 234v466h30v-466q0 -128 -54.5 -186t-148.5 -58q-96 0 -149 58t-53 186v466h30v-466q0 -59 12 -100t34.5 -67t54.5 -38t71 -12t71 12t54.5 38t35 67t12.5 100zM277 871l-69 -86h-31v2l88 105h25l87 -105v-2h-31z" />
<glyph unicode="&#xdc;" horiz-adv-x="552" d="M74 0zM449 234v466h30v-466q0 -128 -54.5 -186t-148.5 -58q-96 0 -149 58t-53 186v466h30v-466q0 -59 12 -100t34.5 -67t54.5 -38t71 -12t71 12t54.5 38t35 67t12.5 100zM304 832q0 14 7.5 22t19.5 8q27 0 27 -30q0 -29 -27 -29q-12 0 -19.5 7.5t-7.5 21.5zM197 832 q0 14 7.5 22t19.5 8q27 0 27 -30q0 -29 -27 -29q-12 0 -19.5 7.5t-7.5 21.5z" />
<glyph unicode="&#xdd;" horiz-adv-x="449" d="M17 0zM209 286l-192 414h34l174 -383l173 383h33l-192 -414v-286h-30v286zM309 888l-75 -103h-25v3l62 104h38v-4z" />
<glyph unicode="&#xde;" horiz-adv-x="485" d="M120 0h-30v700h30v-149h156q86 0 124.5 -47t38.5 -143q0 -42 -9.5 -77.5t-29 -62t-49.5 -41t-72 -14.5h-159v-166zM274 524h-154v-332h160q60 0 94 42t34 126q0 88 -32.5 126t-101.5 38z" />
<glyph unicode="&#xdf;" horiz-adv-x="455" d="M239 362h-28v26h27q51 0 79 41t28 109q0 67 -31 105t-86 38t-88 -40t-33 -132v-508h-29v509q0 59 13 97.5t34.5 60.5t48.5 30.5t55 8.5q36 0 63.5 -13t46 -35.5t27.5 -53t9 -66.5q0 -60 -21.5 -102t-61.5 -59q59 -14 88.5 -63.5t29.5 -124.5q0 -44 -9.5 -80.5 t-28.5 -62.5t-48.5 -40t-68.5 -14q-14 0 -37 3.5t-49 19.5l11 24q20 -14 39 -17.5t33 -3.5q62 0 95 41.5t33 129.5q0 79 -35.5 125.5t-105.5 46.5z" />
<glyph unicode="&#xe0;" horiz-adv-x="415" d="M45 0zM173 16q64 0 99.5 54t40.5 149v39h-90q-65 0 -107 -33.5t-42 -100.5q0 -52 26.5 -80t72.5 -28zM318 0l-3 132q-14 -71 -52.5 -106.5t-94.5 -35.5q-54 0 -88.5 34.5t-34.5 97.5q0 40 13.5 70t37 50t55 30t68.5 10h94v17q0 47 -8 78.5t-22.5 50t-35.5 26.5t-48 8 q-40 0 -70.5 -19.5t-46.5 -67.5l-26 12q18 50 53 75.5t92 25.5q72 0 106.5 -42.5t34.5 -143.5v-302h-24zM191 564l-76 103v4h38l62 -104v-3h-24z" />
<glyph unicode="&#xe1;" horiz-adv-x="415" d="M45 0zM173 16q64 0 99.5 54t40.5 149v39h-90q-65 0 -107 -33.5t-42 -100.5q0 -52 26.5 -80t72.5 -28zM318 0l-3 132q-14 -71 -52.5 -106.5t-94.5 -35.5q-54 0 -88.5 34.5t-34.5 97.5q0 40 13.5 70t37 50t55 30t68.5 10h94v17q0 47 -8 78.5t-22.5 50t-35.5 26.5t-48 8 q-40 0 -70.5 -19.5t-46.5 -67.5l-26 12q18 50 53 75.5t92 25.5q72 0 106.5 -42.5t34.5 -143.5v-302h-24zM284 666l-75 -103h-25v3l62 104h38v-4z" />
<glyph unicode="&#xe2;" horiz-adv-x="415" d="M45 0zM173 16q64 0 99.5 54t40.5 149v39h-90q-65 0 -107 -33.5t-42 -100.5q0 -52 26.5 -80t72.5 -28zM318 0l-3 132q-14 -71 -52.5 -106.5t-94.5 -35.5q-54 0 -88.5 34.5t-34.5 97.5q0 40 13.5 70t37 50t55 30t68.5 10h94v17q0 47 -8 78.5t-22.5 50t-35.5 26.5t-48 8 q-40 0 -70.5 -19.5t-46.5 -67.5l-26 12q18 50 53 75.5t92 25.5q72 0 106.5 -42.5t34.5 -143.5v-302h-24zM200 649l-69 -86h-31v2l88 105h25l87 -105v-2h-31z" />
<glyph unicode="&#xe3;" horiz-adv-x="415" d="M45 0zM173 16q64 0 99.5 54t40.5 149v39h-90q-65 0 -107 -33.5t-42 -100.5q0 -52 26.5 -80t72.5 -28zM318 0l-3 132q-14 -71 -52.5 -106.5t-94.5 -35.5q-54 0 -88.5 34.5t-34.5 97.5q0 40 13.5 70t37 50t55 30t68.5 10h94v17q0 47 -8 78.5t-22.5 50t-35.5 26.5t-48 8 q-40 0 -70.5 -19.5t-46.5 -67.5l-26 12q18 50 53 75.5t92 25.5q72 0 106.5 -42.5t34.5 -143.5v-302h-24zM273 656h22q0 -23 -4.5 -37.5t-12 -23t-16.5 -11.5t-18 -3q-16 0 -27 8.5t-21 19t-20 19t-23 8.5q-11 0 -19.5 -10t-8.5 -41h-22q0 23 5 37.5t12 22.5t15.5 11t17.5 3 q16 0 27.5 -8.5t21.5 -18.5t20 -18.5t24 -8.5q12 0 19 11t8 40z" />
<glyph unicode="&#xe4;" horiz-adv-x="415" d="M45 0zM173 16q64 0 99.5 54t40.5 149v39h-90q-65 0 -107 -33.5t-42 -100.5q0 -52 26.5 -80t72.5 -28zM318 0l-3 132q-14 -71 -52.5 -106.5t-94.5 -35.5q-54 0 -88.5 34.5t-34.5 97.5q0 40 13.5 70t37 50t55 30t68.5 10h94v17q0 47 -8 78.5t-22.5 50t-35.5 26.5t-48 8 q-40 0 -70.5 -19.5t-46.5 -67.5l-26 12q18 50 53 75.5t92 25.5q72 0 106.5 -42.5t34.5 -143.5v-302h-24zM227 610q0 14 7.5 22t19.5 8q27 0 27 -30q0 -29 -27 -29q-12 0 -19.5 7.5t-7.5 21.5zM120 610q0 14 7.5 22t19.5 8q27 0 27 -30q0 -29 -27 -29q-12 0 -19.5 7.5 t-7.5 21.5z" />
<glyph unicode="&#xe5;" horiz-adv-x="415" d="M45 0zM173 16q64 0 99.5 54t40.5 149v39h-90q-65 0 -107 -33.5t-42 -100.5q0 -52 26.5 -80t72.5 -28zM318 0l-3 132q-14 -71 -52.5 -106.5t-94.5 -35.5q-54 0 -88.5 34.5t-34.5 97.5q0 40 13.5 70t37 50t55 30t68.5 10h94v17q0 47 -8 78.5t-22.5 50t-35.5 26.5t-48 8 q-40 0 -70.5 -19.5t-46.5 -67.5l-26 12q18 50 53 75.5t92 25.5q72 0 106.5 -42.5t34.5 -143.5v-302h-24zM130 629q0 35 20 58t52 23q30 0 50 -23t20 -58t-20 -57.5t-51 -22.5t-51 22.5t-20 57.5zM152 629q0 -26 14 -43t35 -17t35 17t14 43q0 27 -14 44t-34 17q-22 0 -36 -17 t-14 -44z" />
<glyph unicode="&#xe6;" horiz-adv-x="665" d="M473 -10q-62 0 -102 40t-51 125q-12 -81 -52.5 -123t-97.5 -42t-91 33t-34 96q0 76 46 113.5t122 37.5h95v26q0 93 -28.5 130t-85.5 37q-39 0 -67.5 -20t-44.5 -68l-26 12q18 49 51.5 75t87.5 26q60 0 91.5 -32t40.5 -106q31 138 145 138q75 0 112 -59.5t37 -167.5v-15 h-284v-13q1 -112 35.5 -165t101.5 -53q93 0 125 111l25 -11q-19 -60 -55.5 -92.5t-95.5 -32.5zM471 463q-124 0 -133 -193h255q-3 193 -122 193zM174 16q63 0 98.5 55t35.5 162v13h-90q-69 0 -106.5 -31.5t-37.5 -94.5q0 -51 26.5 -77.5t73.5 -26.5z" />
<glyph unicode="&#xe7;" horiz-adv-x="401" d="M213 -221q-26 0 -45 11.5t-33 37.5l19 12q11 -22 25 -31t34 -9q58 0 58 53q0 26 -14 37t-31 11q-11 0 -21 -3l-9 8l13 84q-78 4 -118 64.5t-40 182.5q0 129 42.5 190t126.5 61q55 0 89 -28t54 -85l-26 -13q-18 54 -47 77t-71 23q-69 0 -103.5 -52.5t-34.5 -172.5 q0 -116 34 -168.5t103 -52.5q48 0 78 27t47 85l25 -11q-17 -58 -50.5 -90.5t-87.5 -36.5l-12 -73q5 2 15 2q23 0 42 -15t19 -51t-21.5 -55t-59.5 -19z" />
<glyph unicode="&#xe8;" horiz-adv-x="408" d="M51 0zM217 -10q-79 0 -122.5 60.5t-43.5 188.5q0 124 41.5 186.5t120.5 62.5q75 0 113.5 -60.5t38.5 -175.5v-20h-285q2 -112 36.5 -164.5t101.5 -52.5q93 0 125 111l25 -11q-19 -60 -55.5 -92.5t-95.5 -32.5zM212 463q-63 0 -96 -52.5t-35 -154.5h256q-3 207 -125 207z M204 564l-76 103v4h38l62 -104v-3h-24z" />
<glyph unicode="&#xe9;" horiz-adv-x="408" d="M51 0zM217 -10q-79 0 -122.5 60.5t-43.5 188.5q0 124 41.5 186.5t120.5 62.5q75 0 113.5 -60.5t38.5 -175.5v-20h-285q2 -112 36.5 -164.5t101.5 -52.5q93 0 125 111l25 -11q-19 -60 -55.5 -92.5t-95.5 -32.5zM212 463q-63 0 -96 -52.5t-35 -154.5h256q-3 207 -125 207z M298 666l-75 -103h-25v3l62 104h38v-4z" />
<glyph unicode="&#xea;" horiz-adv-x="408" d="M51 0zM217 -10q-79 0 -122.5 60.5t-43.5 188.5q0 124 41.5 186.5t120.5 62.5q75 0 113.5 -60.5t38.5 -175.5v-20h-285q2 -112 36.5 -164.5t101.5 -52.5q93 0 125 111l25 -11q-19 -60 -55.5 -92.5t-95.5 -32.5zM212 463q-63 0 -96 -52.5t-35 -154.5h256q-3 207 -125 207z M213 649l-69 -86h-31v2l88 105h25l87 -105v-2h-31z" />
<glyph unicode="&#xeb;" horiz-adv-x="408" d="M51 0zM217 -10q-79 0 -122.5 60.5t-43.5 188.5q0 124 41.5 186.5t120.5 62.5q75 0 113.5 -60.5t38.5 -175.5v-20h-285q2 -112 36.5 -164.5t101.5 -52.5q93 0 125 111l25 -11q-19 -60 -55.5 -92.5t-95.5 -32.5zM212 463q-63 0 -96 -52.5t-35 -154.5h256q-3 207 -125 207z M241 610q0 14 7.5 22t19.5 8q27 0 27 -30q0 -29 -27 -29q-12 0 -19.5 7.5t-7.5 21.5zM134 610q0 14 7.5 22t19.5 8q27 0 27 -30q0 -29 -27 -29q-12 0 -19.5 7.5t-7.5 21.5z" />
<glyph unicode="&#xec;" horiz-adv-x="188" d="M9 0zM78 478h29v-478h-29v478zM85 564l-76 103v4h38l62 -104v-3h-24z" />
<glyph unicode="&#xed;" horiz-adv-x="188" d="M78 0zM78 478h29v-478h-29v478zM179 666l-75 -103h-25v3l62 104h38v-4z" />
<glyph unicode="&#xee;" horiz-adv-x="188" d="M0 0zM78 478h29v-478h-29v478zM95 649l-69 -86h-31v2l88 105h25l87 -105v-2h-31z" />
<glyph unicode="&#xef;" horiz-adv-x="188" d="M12 0zM78 478h29v-478h-29v478zM119 610q0 14 7.5 22t19.5 8q27 0 27 -30q0 -29 -27 -29q-12 0 -19.5 7.5t-7.5 21.5zM12 610q0 14 7.5 22t19.5 8q27 0 27 -30q0 -29 -27 -29q-12 0 -19.5 7.5t-7.5 21.5z" />
<glyph unicode="&#xf0;" horiz-adv-x="434" d="M218 -10q-83 0 -125 59.5t-42 187.5t42.5 189t123.5 61q49 0 83 -24.5t49 -76.5q-17 137 -68 216l-65 -53l-11 18l63 52q-22 29 -50.5 51.5t-61.5 38.5l11 22q72 -31 122 -96l72 60l11 -18l-70 -58q41 -64 61 -156t20 -219v-7q0 -127 -42 -187t-123 -60zM354 237 q0 113 -32.5 169t-103.5 56t-104.5 -55t-33.5 -170q0 -113 33.5 -167t104.5 -54q69 0 102.5 54t33.5 167z" />
<glyph unicode="&#xf1;" horiz-adv-x="457" d="M78 0zM78 478h25l3 -128q13 67 52.5 102.5t95.5 35.5q64 0 97 -43.5t33 -135.5v-309h-29v301q0 45 -8 76t-22 49.5t-34 27t-45 8.5q-32 0 -57 -15.5t-42.5 -43t-27.5 -65.5t-12 -83v-255h-29v478zM307 656h22q0 -23 -4.5 -37.5t-12 -23t-16.5 -11.5t-18 -3q-16 0 -27 8.5 t-21 19t-20 19t-23 8.5q-11 0 -19.5 -10t-8.5 -41h-22q0 23 5 37.5t12 22.5t15.5 11t17.5 3q16 0 27.5 -8.5t21.5 -18.5t20 -18.5t24 -8.5q12 0 19 11t8 40z" />
<glyph unicode="&#xf2;" horiz-adv-x="435" d="M51 0zM51 238q0 128 42.5 189t124.5 61t124 -61t42 -189q0 -127 -42.5 -187.5t-123.5 -60.5q-83 0 -125 60t-42 188zM354 237q0 115 -32.5 170t-103.5 55t-104 -55t-33 -170q0 -112 33 -166.5t104 -54.5q70 0 103 54.5t33 166.5zM209 564l-76 103v4h38l62 -104v-3h-24z " />
<glyph unicode="&#xf3;" horiz-adv-x="435" d="M51 0zM51 238q0 128 42.5 189t124.5 61t124 -61t42 -189q0 -127 -42.5 -187.5t-123.5 -60.5q-83 0 -125 60t-42 188zM354 237q0 115 -32.5 170t-103.5 55t-104 -55t-33 -170q0 -112 33 -166.5t104 -54.5q70 0 103 54.5t33 166.5zM303 666l-75 -103h-25v3l62 104h38v-4z " />
<glyph unicode="&#xf4;" horiz-adv-x="435" d="M51 0zM51 238q0 128 42.5 189t124.5 61t124 -61t42 -189q0 -127 -42.5 -187.5t-123.5 -60.5q-83 0 -125 60t-42 188zM354 237q0 115 -32.5 170t-103.5 55t-104 -55t-33 -170q0 -112 33 -166.5t104 -54.5q70 0 103 54.5t33 166.5zM219 649l-69 -86h-31v2l88 105h25 l87 -105v-2h-31z" />
<glyph unicode="&#xf5;" horiz-adv-x="435" d="M51 0zM51 238q0 128 42.5 189t124.5 61t124 -61t42 -189q0 -127 -42.5 -187.5t-123.5 -60.5q-83 0 -125 60t-42 188zM354 237q0 115 -32.5 170t-103.5 55t-104 -55t-33 -170q0 -112 33 -166.5t104 -54.5q70 0 103 54.5t33 166.5zM291 656h22q0 -23 -4.5 -37.5t-12 -23 t-16.5 -11.5t-18 -3q-16 0 -27 8.5t-21 19t-20 19t-23 8.5q-11 0 -19.5 -10t-8.5 -41h-22q0 23 5 37.5t12 22.5t15.5 11t17.5 3q16 0 27.5 -8.5t21.5 -18.5t20 -18.5t24 -8.5q12 0 19 11t8 40z" />
<glyph unicode="&#xf6;" horiz-adv-x="435" d="M51 0zM51 238q0 128 42.5 189t124.5 61t124 -61t42 -189q0 -127 -42.5 -187.5t-123.5 -60.5q-83 0 -125 60t-42 188zM354 237q0 115 -32.5 170t-103.5 55t-104 -55t-33 -170q0 -112 33 -166.5t104 -54.5q70 0 103 54.5t33 166.5zM246 610q0 14 7.5 22t19.5 8q27 0 27 -30 q0 -29 -27 -29q-12 0 -19.5 7.5t-7.5 21.5zM139 610q0 14 7.5 22t19.5 8q27 0 27 -30q0 -29 -27 -29q-12 0 -19.5 7.5t-7.5 21.5z" />
<glyph unicode="&#xf7;" horiz-adv-x="368" d="M158 448q0 14 7.5 22t18.5 8q12 0 19 -8t7 -22t-7 -22t-19 -8q-11 0 -18.5 8t-7.5 22zM328 318v-26h-288v26h288zM158 168q0 14 7.5 22t18.5 8q26 0 26 -30t-26 -30q-11 0 -18.5 8t-7.5 22z" />
<glyph unicode="&#xf8;" horiz-adv-x="437" d="M220 -10q-82 0 -123 59l-35 -49h-27l48 69q-31 62 -31 169q0 128 42.5 189t125.5 61q82 0 122 -61l37 51h28l-52 -72q30 -60 30 -168q0 -127 -42 -187.5t-123 -60.5zM220 463q-72 0 -105 -55.5t-33 -170.5q0 -91 22 -142l221 308q-33 60 -105 60zM220 16q69 0 102 54 t33 167q0 89 -21 142l-220 -307q32 -56 106 -56z" />
<glyph unicode="&#xf9;" horiz-adv-x="456" d="M73 0zM378 0h-25l-2 113q-14 -61 -53.5 -92t-93.5 -31q-131 0 -131 188v300h29v-293q0 -47 8 -79t22 -52t34.5 -29t45.5 -9q33 0 57.5 14.5t41.5 40t26.5 61t11.5 78.5v268h29v-478zM216 564l-76 103v4h38l62 -104v-3h-24z" />
<glyph unicode="&#xfa;" horiz-adv-x="456" d="M73 0zM378 0h-25l-2 113q-14 -61 -53.5 -92t-93.5 -31q-131 0 -131 188v300h29v-293q0 -47 8 -79t22 -52t34.5 -29t45.5 -9q33 0 57.5 14.5t41.5 40t26.5 61t11.5 78.5v268h29v-478zM310 666l-75 -103h-25v3l62 104h38v-4z" />
<glyph unicode="&#xfb;" horiz-adv-x="456" d="M73 0zM378 0h-25l-2 113q-14 -61 -53.5 -92t-93.5 -31q-131 0 -131 188v300h29v-293q0 -47 8 -79t22 -52t34.5 -29t45.5 -9q33 0 57.5 14.5t41.5 40t26.5 61t11.5 78.5v268h29v-478zM225 649l-69 -86h-31v2l88 105h25l87 -105v-2h-31z" />
<glyph unicode="&#xfc;" horiz-adv-x="456" d="M73 0zM378 0h-25l-2 113q-14 -61 -53.5 -92t-93.5 -31q-131 0 -131 188v300h29v-293q0 -47 8 -79t22 -52t34.5 -29t45.5 -9q33 0 57.5 14.5t41.5 40t26.5 61t11.5 78.5v268h29v-478zM253 610q0 14 7.5 22t19.5 8q27 0 27 -30q0 -29 -27 -29q-12 0 -19.5 7.5t-7.5 21.5z M146 610q0 14 7.5 22t19.5 8q27 0 27 -30q0 -29 -27 -29q-12 0 -19.5 7.5t-7.5 21.5z" />
<glyph unicode="&#xfd;" horiz-adv-x="358" d="M0 0zM150 -48l13 45l-151 481h31l136 -444l136 444h30l-169 -537q-15 -47 -30 -75.5t-31.5 -44t-34 -21t-35.5 -5.5q-17 0 -30.5 2.5t-29.5 10.5l9 26q25 -12 48 -12q15 0 29 4.5t27 18.5t26 39.5t26 67.5zM263 666l-75 -103h-25v3l62 104h38v-4z" />
<glyph unicode="&#xfe;" d="M107 234q0 -113 37 -165.5t94 -52.5q67 0 100 58.5t33 165.5q0 108 -31 165t-95 57q-61 0 -99.5 -56t-38.5 -172zM78 -186v886h29v-344q13 69 53 100.5t92 31.5q72 0 110 -63.5t38 -184.5q0 -120 -40 -185t-118 -65q-47 0 -84 27.5t-51 88.5v-292h-29z" />
<glyph unicode="&#xff;" horiz-adv-x="358" d="M0 0zM150 -48l13 45l-151 481h31l136 -444l136 444h30l-169 -537q-15 -47 -30 -75.5t-31.5 -44t-34 -21t-35.5 -5.5q-17 0 -30.5 2.5t-29.5 10.5l9 26q25 -12 48 -12q15 0 29 4.5t27 18.5t26 39.5t26 67.5zM205 610q0 14 7.5 22t19.5 8q27 0 27 -30q0 -29 -27 -29 q-12 0 -19.5 7.5t-7.5 21.5zM98 610q0 14 7.5 22t19.5 8q27 0 27 -30q0 -29 -27 -29q-12 0 -19.5 7.5t-7.5 21.5z" />
<glyph unicode="&#x100;" horiz-adv-x="447" d="M12 0zM223 664l-127 -466h255zM404 0l-47 171h-267l-47 -171h-31l193 700h37l193 -700h-31zM310 848v-23h-171v23h171z" />
<glyph unicode="&#x101;" horiz-adv-x="415" d="M45 0zM173 16q64 0 99.5 54t40.5 149v39h-90q-65 0 -107 -33.5t-42 -100.5q0 -52 26.5 -80t72.5 -28zM318 0l-3 132q-14 -71 -52.5 -106.5t-94.5 -35.5q-54 0 -88.5 34.5t-34.5 97.5q0 40 13.5 70t37 50t55 30t68.5 10h94v17q0 47 -8 78.5t-22.5 50t-35.5 26.5t-48 8 q-40 0 -70.5 -19.5t-46.5 -67.5l-26 12q18 50 53 75.5t92 25.5q72 0 106.5 -42.5t34.5 -143.5v-302h-24zM285 626v-23h-171v23h171z" />
<glyph unicode="&#x102;" horiz-adv-x="447" d="M12 0zM223 664l-127 -466h255zM404 0l-47 171h-267l-47 -171h-31l193 700h37l193 -700h-31zM293 891h21q0 -59 -24 -82t-67 -23t-67 23t-24 82h22q0 -48 17.5 -65.5t51.5 -17.5q33 0 51.5 17.5t18.5 65.5z" />
<glyph unicode="&#x103;" horiz-adv-x="415" d="M45 0zM173 16q64 0 99.5 54t40.5 149v39h-90q-65 0 -107 -33.5t-42 -100.5q0 -52 26.5 -80t72.5 -28zM318 0l-3 132q-14 -71 -52.5 -106.5t-94.5 -35.5q-54 0 -88.5 34.5t-34.5 97.5q0 40 13.5 70t37 50t55 30t68.5 10h94v17q0 47 -8 78.5t-22.5 50t-35.5 26.5t-48 8 q-40 0 -70.5 -19.5t-46.5 -67.5l-26 12q18 50 53 75.5t92 25.5q72 0 106.5 -42.5t34.5 -143.5v-302h-24zM269 669h21q0 -59 -24 -82t-67 -23t-67 23t-24 82h22q0 -48 17.5 -65.5t51.5 -17.5q33 0 51.5 17.5t18.5 65.5z" />
<glyph unicode="&#x104;" horiz-adv-x="447" d="M453 -177q-14 -12 -29 -16.5t-30 -4.5t-28.5 4.5t-24 14.5t-16.5 27t-6 42t7 46t18.5 37t26 26.5t29.5 15.5l-43 156h-267l-47 -171h-31l193 700h37l193 -700h-17q-29 -5 -52.5 -34t-23.5 -74q0 -38 16 -52.5t37 -14.5q14 0 25 3.5t22 13.5zM223 664l-127 -466h255z" />
<glyph unicode="&#x105;" horiz-adv-x="415" d="M369 -177q-14 -12 -29 -16.5t-30 -4.5t-28.5 4.5t-24 14.5t-16.5 27t-6 42t7.5 46t19 37t26.5 26t30 14l-3 119q-14 -71 -52.5 -106.5t-94.5 -35.5q-54 0 -88.5 34.5t-34.5 97.5q0 40 13.5 70t37 50t55 30t68.5 10h94v17q0 47 -8 78.5t-22.5 50t-35.5 26.5t-48 8 q-40 0 -70.5 -19.5t-46.5 -67.5l-26 12q18 50 53 75.5t92 25.5q72 0 106.5 -42.5t34.5 -143.5v-302h-8q-29 -5 -52.5 -34t-23.5 -74q0 -38 16 -52.5t37 -14.5q14 0 25 3.5t22 13.5zM173 16q64 0 99.5 54t40.5 149v39h-90q-65 0 -107 -33.5t-42 -100.5q0 -52 26.5 -80 t72.5 -28z" />
<glyph unicode="&#x106;" horiz-adv-x="521" d="M61 0zM287 -10q-53 0 -95 19.5t-71 62.5t-44.5 111.5t-15.5 166.5q0 99 15.5 167.5t44.5 111t71 62t95 19.5q33 0 62 -7.5t53 -25.5t43 -47.5t32 -73.5l-27 -12q-11 40 -27.5 67t-37.5 43t-45.5 22.5t-52.5 6.5q-44 0 -80 -17t-61.5 -56t-39.5 -102.5t-14 -156.5 q0 -94 14 -158t39.5 -103t61.5 -56t80 -17q58 0 103 33t69 113l25 -12q-24 -84 -77 -122.5t-120 -38.5zM369 888l-75 -103h-25v3l62 104h38v-4z" />
<glyph unicode="&#x107;" horiz-adv-x="401" d="M51 0zM218 -10q-83 0 -125 60.5t-42 186.5q0 129 42.5 190t126.5 61q55 0 89 -28t54 -85l-26 -13q-18 54 -47 77t-71 23q-69 0 -103.5 -53t-34.5 -172q0 -115 34 -168t103 -53q48 0 78 27t47 85l25 -11q-17 -61 -53.5 -94t-96.5 -33zM303 666l-75 -103h-25v3l62 104h38 v-4z" />
<glyph unicode="&#x108;" horiz-adv-x="521" d="M61 0zM287 -10q-53 0 -95 19.5t-71 62.5t-44.5 111.5t-15.5 166.5q0 99 15.5 167.5t44.5 111t71 62t95 19.5q33 0 62 -7.5t53 -25.5t43 -47.5t32 -73.5l-27 -12q-11 40 -27.5 67t-37.5 43t-45.5 22.5t-52.5 6.5q-44 0 -80 -17t-61.5 -56t-39.5 -102.5t-14 -156.5 q0 -94 14 -158t39.5 -103t61.5 -56t80 -17q58 0 103 33t69 113l25 -12q-24 -84 -77 -122.5t-120 -38.5zM285 871l-69 -86h-31v2l88 105h25l87 -105v-2h-31z" />
<glyph unicode="&#x109;" horiz-adv-x="401" d="M51 0zM218 -10q-83 0 -125 60.5t-42 186.5q0 129 42.5 190t126.5 61q55 0 89 -28t54 -85l-26 -13q-18 54 -47 77t-71 23q-69 0 -103.5 -53t-34.5 -172q0 -115 34 -168t103 -53q48 0 78 27t47 85l25 -11q-17 -61 -53.5 -94t-96.5 -33zM219 649l-69 -86h-31v2l88 105h25 l87 -105v-2h-31z" />
<glyph unicode="&#x10a;" horiz-adv-x="521" d="M61 0zM287 -10q-53 0 -95 19.5t-71 62.5t-44.5 111.5t-15.5 166.5q0 99 15.5 167.5t44.5 111t71 62t95 19.5q33 0 62 -7.5t53 -25.5t43 -47.5t32 -73.5l-27 -12q-11 40 -27.5 67t-37.5 43t-45.5 22.5t-52.5 6.5q-44 0 -80 -17t-61.5 -56t-39.5 -102.5t-14 -156.5 q0 -94 14 -158t39.5 -103t61.5 -56t80 -17q58 0 103 33t69 113l25 -12q-24 -84 -77 -122.5t-120 -38.5zM257 832q0 14 7.5 21.5t19.5 7.5q27 0 27 -29q0 -14 -7 -22t-20 -8q-12 0 -19.5 8t-7.5 22z" />
<glyph unicode="&#x10b;" horiz-adv-x="401" d="M51 0zM218 -10q-83 0 -125 60.5t-42 186.5q0 129 42.5 190t126.5 61q55 0 89 -28t54 -85l-26 -13q-18 54 -47 77t-71 23q-69 0 -103.5 -53t-34.5 -172q0 -115 34 -168t103 -53q48 0 78 27t47 85l25 -11q-17 -61 -53.5 -94t-96.5 -33zM191 610q0 14 7.5 21.5t19.5 7.5 q27 0 27 -29q0 -14 -7 -22t-20 -8q-12 0 -19.5 8t-7.5 22z" />
<glyph unicode="&#x10c;" horiz-adv-x="521" d="M61 0zM287 -10q-53 0 -95 19.5t-71 62.5t-44.5 111.5t-15.5 166.5q0 99 15.5 167.5t44.5 111t71 62t95 19.5q33 0 62 -7.5t53 -25.5t43 -47.5t32 -73.5l-27 -12q-11 40 -27.5 67t-37.5 43t-45.5 22.5t-52.5 6.5q-44 0 -80 -17t-61.5 -56t-39.5 -102.5t-14 -156.5 q0 -94 14 -158t39.5 -103t61.5 -56t80 -17q58 0 103 33t69 113l25 -12q-24 -84 -77 -122.5t-120 -38.5zM283 807l70 85h30v-1l-88 -106h-24l-88 106v1h32z" />
<glyph unicode="&#x10d;" horiz-adv-x="401" d="M51 0zM218 -10q-83 0 -125 60.5t-42 186.5q0 129 42.5 190t126.5 61q55 0 89 -28t54 -85l-26 -13q-18 54 -47 77t-71 23q-69 0 -103.5 -53t-34.5 -172q0 -115 34 -168t103 -53q48 0 78 27t47 85l25 -11q-17 -61 -53.5 -94t-96.5 -33zM218 585l70 85h30v-1l-88 -106h-24 l-88 106v1h32z" />
<glyph unicode="&#x10e;" horiz-adv-x="551" d="M90 0zM254 0h-164v700h164q56 0 100 -18.5t74 -59t46 -106t16 -158.5q0 -95 -16 -163t-46.5 -111.5t-74.5 -63.5t-99 -20zM252 27q47 0 85.5 17t65.5 56t42 102.5t15 155.5q0 88 -14.5 148.5t-41.5 98t-65 53.5t-85 16h-134v-647h132zM283 807l70 85h30v-1l-88 -106h-24 l-88 106v1h32z" />
<glyph unicode="&#x10f;" horiz-adv-x="485" d="M51 0zM475 516h-21l5 184h31zM345 244q0 111 -37 164.5t-94 53.5q-67 0 -100 -58t-33 -165q0 -109 33 -166t98 -57q58 0 95.5 55.5t37.5 172.5zM349 0l-2 120q-14 -66 -52.5 -98t-89.5 -32q-75 0 -114.5 64t-39.5 185q0 120 40.5 184.5t117.5 64.5q49 0 85.5 -29.5 t50.5 -89.5v331h29v-700h-25z" />
<glyph unicode="&#x110;" horiz-adv-x="561" d="M263 0h-164v353h-62v26h62v321h165q56 0 100 -18.5t74 -59t46 -106t16 -158.5q0 -95 -16 -163t-46.5 -111.5t-74.5 -63.5t-100 -20zM129 27h133q47 0 85 17t65 56t42 102.5t15 155.5q0 88 -14.5 148.5t-41.5 98t-65 53.5t-85 16h-134v-295h134v-26h-134v-326z" />
<glyph unicode="&#x111;" horiz-adv-x="461" d="M345 244q0 111 -37 164.5t-94 53.5q-67 0 -100 -58t-33 -165q0 -109 32.5 -166t98.5 -57q58 0 95.5 55.5t37.5 172.5zM347 122q-14 -68 -52.5 -100t-89.5 -32q-75 0 -114.5 64t-39.5 185q0 119 40.5 184t117.5 65q49 0 85.5 -29.5t50.5 -92.5v203h-128v22h128v109h29 v-109h63v-22h-63v-569h-25z" />
<glyph unicode="&#x112;" horiz-adv-x="485" d="M90 0zM90 0v700h358v-27h-328v-309h286v-27h-286v-311h332v-26h-362zM358 848v-23h-171v23h171z" />
<glyph unicode="&#x113;" horiz-adv-x="408" d="M51 0zM217 -10q-79 0 -122.5 60.5t-43.5 188.5q0 124 41.5 186.5t120.5 62.5q75 0 113.5 -60.5t38.5 -175.5v-20h-285q2 -112 36.5 -164.5t101.5 -52.5q93 0 125 111l25 -11q-19 -60 -55.5 -92.5t-95.5 -32.5zM212 463q-63 0 -96 -52.5t-35 -154.5h256q-3 207 -125 207z M299 626v-23h-171v23h171z" />
<glyph unicode="&#x114;" horiz-adv-x="485" d="M90 0zM90 0v700h358v-27h-328v-309h286v-27h-286v-311h332v-26h-362zM341 891h21q0 -59 -24 -82t-67 -23t-67 23t-24 82h22q0 -48 17.5 -65.5t51.5 -17.5q33 0 51.5 17.5t18.5 65.5z" />
<glyph unicode="&#x115;" horiz-adv-x="408" d="M51 0zM217 -10q-79 0 -122.5 60.5t-43.5 188.5q0 124 41.5 186.5t120.5 62.5q75 0 113.5 -60.5t38.5 -175.5v-20h-285q2 -112 36.5 -164.5t101.5 -52.5q93 0 125 111l25 -11q-19 -60 -55.5 -92.5t-95.5 -32.5zM212 463q-63 0 -96 -52.5t-35 -154.5h256q-3 207 -125 207z M283 669h21q0 -59 -24 -82t-67 -23t-67 23t-24 82h22q0 -48 17.5 -65.5t51.5 -17.5q33 0 51.5 17.5t18.5 65.5z" />
<glyph unicode="&#x116;" horiz-adv-x="485" d="M90 0zM90 0v700h358v-27h-328v-309h286v-27h-286v-311h332v-26h-362zM245 832q0 14 7.5 21.5t19.5 7.5q27 0 27 -29q0 -14 -7 -22t-20 -8q-12 0 -19.5 8t-7.5 22z" />
<glyph unicode="&#x117;" horiz-adv-x="408" d="M51 0zM217 -10q-79 0 -122.5 60.5t-43.5 188.5q0 124 41.5 186.5t120.5 62.5q75 0 113.5 -60.5t38.5 -175.5v-20h-285q2 -112 36.5 -164.5t101.5 -52.5q93 0 125 111l25 -11q-19 -60 -55.5 -92.5t-95.5 -32.5zM212 463q-63 0 -96 -52.5t-35 -154.5h256q-3 207 -125 207z M186 610q0 14 7.5 21.5t19.5 7.5q27 0 27 -29q0 -14 -7 -22t-20 -8q-12 0 -19.5 8t-7.5 22z" />
<glyph unicode="&#x118;" horiz-adv-x="485" d="M449 -177q-14 -12 -29 -16.5t-30 -4.5t-28.5 4.5t-24 14.5t-16.5 27t-6 42q0 39 16 67t39 43h-280v700h358v-27h-328v-309h286v-27h-286v-311h332v-26h-38q-29 -5 -52.5 -34t-23.5 -74q0 -38 16 -52.5t37 -14.5q14 0 25 3.5t22 13.5z" />
<glyph unicode="&#x119;" horiz-adv-x="409" d="M251 -198q-15 0 -28.5 4.5t-24 14.5t-16.5 27t-6 42q0 34 13 59.5t31 41.5q-79 -2 -124 58t-45 190q0 124 41.5 186.5t120.5 62.5q75 0 113.5 -60.5t38.5 -175.5v-20h-285q2 -112 36.5 -164.5t101.5 -52.5q93 0 125 111l25 -11q-15 -48 -42 -78.5t-68 -41.5 q-24 -11 -41.5 -38t-17.5 -65t16 -52.5t37 -14.5q14 0 25 3.5t22 13.5l11 -19q-14 -12 -29 -16.5t-30 -4.5zM212 463q-63 0 -96 -52.5t-35 -154.5h256q-3 207 -125 207z" />
<glyph unicode="&#x11a;" horiz-adv-x="485" d="M90 0zM90 0v700h358v-27h-328v-309h286v-27h-286v-311h332v-26h-362zM271 807l70 85h30v-1l-88 -106h-24l-88 106v1h32z" />
<glyph unicode="&#x11b;" horiz-adv-x="408" d="M51 0zM217 -10q-79 0 -122.5 60.5t-43.5 188.5q0 124 41.5 186.5t120.5 62.5q75 0 113.5 -60.5t38.5 -175.5v-20h-285q2 -112 36.5 -164.5t101.5 -52.5q93 0 125 111l25 -11q-19 -60 -55.5 -92.5t-95.5 -32.5zM212 463q-63 0 -96 -52.5t-35 -154.5h256q-3 207 -125 207z M212 585l70 85h30v-1l-88 -106h-24l-88 106v1h32z" />
<glyph unicode="&#x11c;" horiz-adv-x="541" d="M61 0zM282 -10q-52 0 -93 20t-69.5 63t-43.5 111.5t-15 165.5q0 99 15 167.5t44 111t71 62t95 19.5q33 0 62 -7.5t53 -25.5t43 -47.5t32 -73.5l-27 -12q-12 40 -28.5 67t-37.5 43t-45.5 22.5t-51.5 6.5q-44 0 -80 -16.5t-61.5 -55.5t-39 -103t-13.5 -158 q0 -93 13.5 -156.5t39 -103t61 -56.5t79.5 -17q36 0 66.5 13t53 42.5t35.5 76t16 112.5v25h-160v25h189v-311h-23l-4 152q-15 -81 -61 -121.5t-115 -40.5zM285 871l-69 -86h-31v2l88 105h25l87 -105v-2h-31z" />
<glyph unicode="&#x11d;" horiz-adv-x="449" d="M49 0zM343 247q0 109 -37.5 162t-94.5 53q-66 0 -98 -57.5t-32 -163.5q0 -108 32.5 -165t95.5 -57q59 0 96.5 56t37.5 172zM204 -205q-53 0 -92 24.5t-63 84.5l26 13q20 -54 52.5 -75t75.5 -21q32 0 58 9.5t44 31.5t28 57t10 85v116q-14 -66 -52.5 -96.5t-87.5 -30.5 q-73 0 -112.5 63t-39.5 184q0 119 40.5 183.5t116.5 64.5q48 0 85.5 -30t51.5 -90l2 110h25v-479q0 -54 -12.5 -93t-34.5 -63.5t-53 -36t-68 -11.5zM210 649l-69 -86h-31v2l88 105h25l87 -105v-2h-31z" />
<glyph unicode="&#x11e;" horiz-adv-x="541" d="M61 0zM282 -10q-52 0 -93 20t-69.5 63t-43.5 111.5t-15 165.5q0 99 15 167.5t44 111t71 62t95 19.5q33 0 62 -7.5t53 -25.5t43 -47.5t32 -73.5l-27 -12q-12 40 -28.5 67t-37.5 43t-45.5 22.5t-51.5 6.5q-44 0 -80 -16.5t-61.5 -55.5t-39 -103t-13.5 -158 q0 -93 13.5 -156.5t39 -103t61 -56.5t79.5 -17q36 0 66.5 13t53 42.5t35.5 76t16 112.5v25h-160v25h189v-311h-23l-4 152q-15 -81 -61 -121.5t-115 -40.5zM354 891h21q0 -59 -24 -82t-67 -23t-67 23t-24 82h22q0 -48 17.5 -65.5t51.5 -17.5q33 0 51.5 17.5t18.5 65.5z" />
<glyph unicode="&#x11f;" horiz-adv-x="449" d="M49 0zM343 247q0 109 -37.5 162t-94.5 53q-66 0 -98 -57.5t-32 -163.5q0 -108 32.5 -165t95.5 -57q59 0 96.5 56t37.5 172zM204 -205q-53 0 -92 24.5t-63 84.5l26 13q20 -54 52.5 -75t75.5 -21q32 0 58 9.5t44 31.5t28 57t10 85v116q-14 -66 -52.5 -96.5t-87.5 -30.5 q-73 0 -112.5 63t-39.5 184q0 119 40.5 183.5t116.5 64.5q48 0 85.5 -30t51.5 -90l2 110h25v-479q0 -54 -12.5 -93t-34.5 -63.5t-53 -36t-68 -11.5zM279 669h21q0 -59 -24 -82t-67 -23t-67 23t-24 82h22q0 -48 17.5 -65.5t51.5 -17.5q33 0 51.5 17.5t18.5 65.5z" />
<glyph unicode="&#x120;" horiz-adv-x="541" d="M61 0zM282 -10q-52 0 -93 20t-69.5 63t-43.5 111.5t-15 165.5q0 99 15 167.5t44 111t71 62t95 19.5q33 0 62 -7.5t53 -25.5t43 -47.5t32 -73.5l-27 -12q-12 40 -28.5 67t-37.5 43t-45.5 22.5t-51.5 6.5q-44 0 -80 -16.5t-61.5 -55.5t-39 -103t-13.5 -158 q0 -93 13.5 -156.5t39 -103t61 -56.5t79.5 -17q36 0 66.5 13t53 42.5t35.5 76t16 112.5v25h-160v25h189v-311h-23l-4 152q-15 -81 -61 -121.5t-115 -40.5zM257 832q0 14 7.5 21.5t19.5 7.5q27 0 27 -29q0 -14 -7 -22t-20 -8q-12 0 -19.5 8t-7.5 22z" />
<glyph unicode="&#x121;" horiz-adv-x="449" d="M49 0zM343 247q0 109 -37.5 162t-94.5 53q-66 0 -98 -57.5t-32 -163.5q0 -108 32.5 -165t95.5 -57q59 0 96.5 56t37.5 172zM204 -205q-53 0 -92 24.5t-63 84.5l26 13q20 -54 52.5 -75t75.5 -21q32 0 58 9.5t44 31.5t28 57t10 85v116q-14 -66 -52.5 -96.5t-87.5 -30.5 q-73 0 -112.5 63t-39.5 184q0 119 40.5 183.5t116.5 64.5q48 0 85.5 -30t51.5 -90l2 110h25v-479q0 -54 -12.5 -93t-34.5 -63.5t-53 -36t-68 -11.5zM183 610q0 14 7.5 21.5t19.5 7.5q27 0 27 -29q0 -14 -7 -22t-20 -8q-12 0 -19.5 8t-7.5 22z" />
<glyph unicode="&#x122;" horiz-adv-x="541" d="M61 0zM282 -10q-52 0 -93 20t-69.5 63t-43.5 111.5t-15 165.5q0 99 15 167.5t44 111t71 62t95 19.5q33 0 62 -7.5t53 -25.5t43 -47.5t32 -73.5l-27 -12q-12 40 -28.5 67t-37.5 43t-45.5 22.5t-51.5 6.5q-44 0 -80 -16.5t-61.5 -55.5t-39 -103t-13.5 -158 q0 -93 13.5 -156.5t39 -103t61 -56.5t79.5 -17q36 0 66.5 13t53 42.5t35.5 76t16 112.5v25h-160v25h189v-311h-23l-4 152q-15 -81 -61 -121.5t-115 -40.5zM310 -113q0 -36 -13 -66t-36 -44l-10 13q18 12 29 35.5t12 49.5q-14 -6 -25.5 1t-11.5 24q0 14 7.5 21t19.5 7 q14 0 21 -9t7 -32z" />
<glyph unicode="&#x123;" horiz-adv-x="449" d="M178 617q0 36 13 66t36 44l10 -13q-18 -12 -29 -35.5t-12 -49.5q14 6 25.5 -1t11.5 -24q0 -14 -7.5 -21t-19.5 -7q-14 0 -21 9t-7 32zM343 247q0 109 -37.5 162t-94.5 53q-66 0 -98 -57.5t-32 -163.5q0 -108 32.5 -165t95.5 -57q59 0 96.5 56t37.5 172zM204 -205 q-53 0 -92 24.5t-63 84.5l26 13q20 -54 52.5 -75t75.5 -21q32 0 58 9.5t44 31.5t28 57t10 85v116q-14 -66 -52.5 -96.5t-87.5 -30.5q-73 0 -112.5 63t-39.5 184q0 119 40.5 183.5t116.5 64.5q48 0 85.5 -30t51.5 -90l2 110h25v-479q0 -54 -12.5 -93t-34.5 -63.5t-53 -36 t-68 -11.5z" />
<glyph unicode="&#x124;" horiz-adv-x="581" d="M90 0zM461 0v338h-341v-338h-30v700h30v-335h341v335h30v-700h-30zM290 870l-69 -86h-31v2l88 105h25l87 -105v-2h-31z" />
<glyph unicode="&#x125;" horiz-adv-x="457" d="M0 0zM355 300q0 45 -8 76t-22 50t-34.5 27.5t-44.5 8.5q-32 0 -57 -15.5t-42.5 -43t-27.5 -65.5t-12 -83v-255h-29v700h29v-348q14 66 53 101t95 35q63 0 96 -43.5t33 -135.5v-309h-29v300zM92 871l-69 -86h-31v2l88 105h25l87 -105v-2h-31z" />
<glyph unicode="&#x126;" horiz-adv-x="586" d="M123 365h341v144h-341v-144zM464 0v338h-341v-338h-30v509h-61v23h61v168h30v-168h341v168h30v-168h61v-23h-61v-509h-30z" />
<glyph unicode="&#x127;" horiz-adv-x="465" d="M115 255v-255h-29v569h-63v22h63v109h29v-109h128v-22h-128v-219q14 69 53.5 103.5t95.5 34.5q63 0 96 -44.5t33 -138.5v-305h-30v297q0 46 -8 77.5t-22 50.5t-34.5 27.5t-44.5 8.5q-32 0 -57 -15t-42.5 -42t-27.5 -65t-12 -84z" />
<glyph unicode="&#x128;" horiz-adv-x="210" d="M8 0zM90 0v700h30v-700h-30zM178 878h22q0 -23 -4.5 -37.5t-12 -23t-16.5 -11.5t-18 -3q-16 0 -27 8.5t-21 19t-20 19t-23 8.5q-11 0 -19.5 -10t-8.5 -41h-22q0 23 5 37.5t12 22.5t15.5 11t17.5 3q16 0 27.5 -8.5t21.5 -18.5t20 -18.5t24 -8.5q12 0 19 11t8 40z" />
<glyph unicode="&#x129;" horiz-adv-x="188" d="M0 0zM78 478h29v-478h-29v478zM168 656h22q0 -23 -4.5 -37.5t-12 -23t-16.5 -11.5t-18 -3q-16 0 -27 8.5t-21 19t-20 19t-23 8.5q-11 0 -19.5 -10t-8.5 -41h-22q0 23 5 37.5t12 22.5t15.5 11t17.5 3q16 0 27.5 -8.5t21.5 -18.5t20 -18.5t24 -8.5q12 0 19 11t8 40z" />
<glyph unicode="&#x12a;" horiz-adv-x="210" d="M20 0zM90 0v700h30v-700h-30zM191 848v-23h-171v23h171z" />
<glyph unicode="&#x12b;" horiz-adv-x="188" d="M8 0zM78 478h29v-478h-29v478zM179 626v-23h-171v23h171z" />
<glyph unicode="&#x12c;" horiz-adv-x="210" d="M13 0zM90 0v700h30v-700h-30zM174 891h21q0 -59 -24 -82t-67 -23t-67 23t-24 82h22q0 -48 17.5 -65.5t51.5 -17.5q33 0 51.5 17.5t18.5 65.5z" />
<glyph unicode="&#x12d;" horiz-adv-x="188" d="M3 0zM78 478h29v-478h-29v478zM164 669h21q0 -59 -24 -82t-67 -23t-67 23t-24 82h22q0 -48 17.5 -65.5t51.5 -17.5q33 0 51.5 17.5t18.5 65.5z" />
<glyph unicode="&#x12e;" horiz-adv-x="210" d="M141 -177q-14 -12 -29 -16.5t-30 -4.5t-28.5 4.5t-24 14.5t-16.5 27t-6 42t7.5 46.5t19 37t26.5 26t30 15.5v685h30v-700h-14q-29 -5 -52.5 -34t-23.5 -74q0 -38 16 -52.5t37 -14.5q14 0 25 3.5t22 13.5z" />
<glyph unicode="&#x12f;" horiz-adv-x="188" d="M65 610q0 14 7.5 22t19.5 8q28 0 28 -30q0 -14 -7.5 -22t-20.5 -8q-12 0 -19.5 8t-7.5 22zM131 -177q-14 -12 -28.5 -16.5t-30.5 -4.5q-29 0 -51.5 19t-22.5 69q0 25 7 45.5t18.5 36t26 25.5t28.5 15v466h29v-478h-10q-30 -5 -53.5 -34t-23.5 -74q0 -38 16.5 -52.5 t37.5 -14.5q14 0 25 3.5t22 13.5z" />
<glyph unicode="&#x130;" horiz-adv-x="210" d="M78 0zM90 0v700h30v-700h-30zM78 832q0 14 7.5 21.5t19.5 7.5q27 0 27 -29q0 -14 -7 -22t-20 -8q-12 0 -19.5 8t-7.5 22z" />
<glyph unicode="&#x131;" horiz-adv-x="185" d="M78 478h29v-478h-29v478z" />
<glyph unicode="&#x132;" horiz-adv-x="581" d="M90 0zM90 0v700h30v-700h-30zM507 253q0 -71 -12.5 -121t-35 -81.5t-55 -46t-72.5 -14.5q-32 0 -59 10t-48 31l17 24q17 -19 40.5 -28t49.5 -9q33 0 59.5 13t45.5 40.5t29.5 71.5t10.5 107v450h30v-447z" />
<glyph unicode="&#x133;" horiz-adv-x="370" d="M65 0zM65 610q0 14 7.5 22t19.5 8q28 0 28 -30q0 -14 -7.5 -22t-20.5 -8q-12 0 -19.5 8t-7.5 22zM78 478h29v-478h-29v478zM275 580q-12 0 -19.5 8t-7.5 22t7.5 22t19.5 8q28 0 28 -30q0 -14 -7.5 -22t-20.5 -8zM261 -58v536h29v-547q0 -72 -23.5 -104t-66.5 -32 q-30 0 -55 14l11 26q11 -6 21 -9.5t24 -3.5q30 0 45 26.5t15 93.5z" />
<glyph unicode="&#x134;" horiz-adv-x="376" d="M20 0zM302 253q0 -71 -12.5 -121t-35 -81.5t-55 -46t-72.5 -14.5q-32 0 -59 10t-48 31l17 24q17 -19 40.5 -28t49.5 -9q33 0 59.5 13t45.5 40.5t29.5 71.5t10.5 107v450h30v-447zM288 871l-69 -86h-31v2l88 105h25l87 -105v-2h-31z" />
<glyph unicode="&#x135;" horiz-adv-x="188" d="M0 0zM78 -58v536h29v-547q0 -72 -23.5 -104t-66.5 -32q-30 0 -55 14l11 26q11 -6 21 -9.5t24 -3.5q30 0 45 26.5t15 93.5zM95 649l-69 -86h-31v2l88 105h25l87 -105v-2h-31z" />
<glyph unicode="&#x136;" horiz-adv-x="466" d="M90 0zM120 217v-217h-30v700h30l-1 -439l287 439h33l-206 -311l223 -389h-34l-207 360zM292 -113q0 -36 -13 -66t-36 -44l-10 13q18 12 29 35.5t12 49.5q-14 -6 -25.5 1t-11.5 24q0 14 7.5 21t19.5 7q14 0 21 -9t7 -32z" />
<glyph unicode="&#x137;" horiz-adv-x="382" d="M78 0zM107 136v-136h-29v700h29l-1 -526l210 304h34l-148 -208l159 -270h-34l-142 245zM228 -113q0 -36 -13 -66t-36 -44l-10 13q18 12 29 35.5t12 49.5q-14 -6 -25.5 1t-11.5 24q0 14 7.5 21t19.5 7q14 0 21 -9t7 -32z" />
<glyph unicode="&#x138;" horiz-adv-x="382" d="M107 136v-136h-29v478h29l-1 -304l210 304h34l-148 -208l159 -270h-34l-142 246z" />
<glyph unicode="&#x139;" horiz-adv-x="458" d="M89 0zM120 27h319v-27h-349v700h30v-673zM189 888l-75 -103h-25v3l62 104h38v-4z" />
<glyph unicode="&#x13a;" horiz-adv-x="185" d="M73 0zM102 91q0 -36 14 -51t39 -15h27v-25h-30q-38 0 -58.5 21.5t-20.5 70.5v608h29v-609zM177 888l-75 -103h-25v3l62 104h38v-4z" />
<glyph unicode="&#x13b;" horiz-adv-x="458" d="M90 0zM120 27h319v-27h-349v700h30v-673zM292 -113q0 -36 -13 -66t-36 -44l-10 13q18 12 29 35.5t12 49.5q-14 -6 -25.5 1t-11.5 24q0 14 7.5 21t19.5 7q14 0 21 -9t7 -32z" />
<glyph unicode="&#x13c;" horiz-adv-x="185" d="M73 0zM102 91q0 -36 14 -51t39 -15h27v-25h-30q-38 0 -58.5 21.5t-20.5 70.5v608h29v-609zM154 -113q0 -36 -13 -66t-36 -44l-10 13q18 12 29 35.5t12 49.5q-14 -6 -25.5 1t-11.5 24q0 14 7.5 21t19.5 7q14 0 21 -9t7 -32z" />
<glyph unicode="&#x13d;" horiz-adv-x="459" d="M90 0zM316 516h-21l5 184h31zM120 27h319v-27h-349v700h30v-673z" />
<glyph unicode="&#x13e;" horiz-adv-x="219" d="M74 0zM204 516h-21l5 184h31zM103 91q0 -36 14 -51t39 -15h27v-25h-30q-38 0 -58.5 21.5t-20.5 70.5v608h29v-609z" />
<glyph unicode="&#x13f;" horiz-adv-x="459" d="M90 0zM120 27h319v-27h-349v700h30v-673zM290 353q0 14 7.5 21.5t19.5 7.5q27 0 27 -29q0 -14 -7 -22t-20 -8q-12 0 -19.5 8t-7.5 22z" />
<glyph unicode="&#x140;" horiz-adv-x="237" d="M74 0zM103 91q0 -36 14 -51t39 -15h27v-25h-30q-38 0 -58.5 21.5t-20.5 70.5v608h29v-609zM177 298q0 14 7.5 21.5t19.5 7.5q27 0 27 -29q0 -14 -7 -22t-20 -8q-12 0 -19.5 8t-7.5 22z" />
<glyph unicode="&#x141;" horiz-adv-x="473" d="M454 0h-349v308l-84 -84v32l84 83v361h30v-340l128 126v-32l-128 -125v-302h319v-27z" />
<glyph unicode="&#x142;" horiz-adv-x="207" d="M198 0h-30q-38 0 -58.5 21.5t-20.5 70.5v221l-81 -103v31l81 105v354h29v-325l89 114v-32l-89 -114v-252q0 -36 14 -51t39 -15h27v-25z" />
<glyph unicode="&#x143;" horiz-adv-x="576" d="M90 0zM456 0l-338 648l1 -648h-29v700h33l336 -644l-2 644h29v-700h-30zM373 888l-75 -103h-25v3l62 104h38v-4z" />
<glyph unicode="&#x144;" horiz-adv-x="457" d="M78 0zM78 478h25l3 -128q13 67 52.5 102.5t95.5 35.5q64 0 97 -43.5t33 -135.5v-309h-29v301q0 45 -8 76t-22 49.5t-34 27t-45 8.5q-32 0 -57 -15.5t-42.5 -43t-27.5 -65.5t-12 -83v-255h-29v478zM319 666l-75 -103h-25v3l62 104h38v-4z" />
<glyph unicode="&#x145;" horiz-adv-x="576" d="M90 0zM456 0l-338 648l1 -648h-29v700h33l336 -644l-2 644h29v-700h-30zM316 -113q0 -36 -13 -66t-36 -44l-10 13q18 12 29 35.5t12 49.5q-14 -6 -25.5 1t-11.5 24q0 14 7.5 21t19.5 7q14 0 21 -9t7 -32z" />
<glyph unicode="&#x146;" horiz-adv-x="457" d="M78 0zM78 478h25l3 -128q13 67 52.5 102.5t95.5 35.5q64 0 97 -43.5t33 -135.5v-309h-29v301q0 45 -8 76t-22 49.5t-34 27t-45 8.5q-32 0 -57 -15.5t-42.5 -43t-27.5 -65.5t-12 -83v-255h-29v478zM259 -113q0 -36 -13 -66t-36 -44l-10 13q18 12 29 35.5t12 49.5 q-14 -6 -25.5 1t-11.5 24q0 14 7.5 21t19.5 7q14 0 21 -9t7 -32z" />
<glyph unicode="&#x147;" horiz-adv-x="576" d="M90 0zM456 0l-338 648l1 -648h-29v700h33l336 -644l-2 644h29v-700h-30zM288 807l70 85h30v-1l-88 -106h-24l-88 106v1h32z" />
<glyph unicode="&#x148;" horiz-adv-x="457" d="M78 0zM78 478h25l3 -128q13 67 52.5 102.5t95.5 35.5q64 0 97 -43.5t33 -135.5v-309h-29v301q0 45 -8 76t-22 49.5t-34 27t-45 8.5q-32 0 -57 -15.5t-42.5 -43t-27.5 -65.5t-12 -83v-255h-29v478zM233 585l70 85h30v-1l-88 -106h-24l-88 106v1h32z" />
<glyph unicode="&#x14a;" horiz-adv-x="576" d="M457 -58v59l-340 649l1 -650h-28v700h32l338 -645l-2 645h28v-765q0 -75 -22 -107.5t-63 -32.5q-14 0 -28 2.5t-29 10.5l7 27q11 -6 21.5 -9t24.5 -3q30 0 45 26.5t15 92.5z" />
<glyph unicode="&#x14b;" horiz-adv-x="457" d="M355 -59v360q0 45 -8 76t-22 49.5t-34 27t-45 8.5q-32 0 -57 -15.5t-42.5 -43t-27.5 -65.5t-12 -83v-255h-29v478h25l3 -127q14 68 53 102.5t95 34.5q64 0 97 -43.5t33 -135.5v-375q0 -74 -22 -106.5t-63 -32.5q-15 0 -29 2t-29 10l9 28q11 -6 21 -9t25 -3q30 0 44.5 26 t14.5 92z" />
<glyph unicode="&#x14c;" horiz-adv-x="570" d="M61 0zM285 -10q-54 0 -96 19.5t-70.5 62.5t-43 111.5t-14.5 166.5t15 166.5t43.5 111.5t70 62.5t95.5 19.5q55 0 96.5 -19.5t70 -62.5t43 -111.5t14.5 -166.5t-15 -166.5t-43.5 -111.5t-70 -62.5t-95.5 -19.5zM285 683q-45 0 -81 -16.5t-60.5 -55.5t-38 -103t-13.5 -158 q0 -93 13.5 -157t38 -103t60.5 -56t81 -17t81 17t61 56t38 103t13 158q0 93 -13 156.5t-38 102.5t-61 56t-81 17zM370 848v-23h-171v23h171z" />
<glyph unicode="&#x14d;" horiz-adv-x="435" d="M51 0zM51 238q0 128 42.5 189t124.5 61t124 -61t42 -189q0 -127 -42.5 -187.5t-123.5 -60.5q-83 0 -125 60t-42 188zM354 237q0 115 -32.5 170t-103.5 55t-104 -55t-33 -170q0 -112 33 -166.5t104 -54.5q70 0 103 54.5t33 166.5zM304 626v-23h-171v23h171z" />
<glyph unicode="&#x14e;" horiz-adv-x="570" d="M61 0zM285 -10q-54 0 -96 19.5t-70.5 62.5t-43 111.5t-14.5 166.5t15 166.5t43.5 111.5t70 62.5t95.5 19.5q55 0 96.5 -19.5t70 -62.5t43 -111.5t14.5 -166.5t-15 -166.5t-43.5 -111.5t-70 -62.5t-95.5 -19.5zM285 683q-45 0 -81 -16.5t-60.5 -55.5t-38 -103t-13.5 -158 q0 -93 13.5 -157t38 -103t60.5 -56t81 -17t81 17t61 56t38 103t13 158q0 93 -13 156.5t-38 102.5t-61 56t-81 17zM354 891h21q0 -59 -24 -82t-67 -23t-67 23t-24 82h22q0 -48 17.5 -65.5t51.5 -17.5q33 0 51.5 17.5t18.5 65.5z" />
<glyph unicode="&#x14f;" horiz-adv-x="435" d="M51 0zM51 238q0 128 42.5 189t124.5 61t124 -61t42 -189q0 -127 -42.5 -187.5t-123.5 -60.5q-83 0 -125 60t-42 188zM354 237q0 115 -32.5 170t-103.5 55t-104 -55t-33 -170q0 -112 33 -166.5t104 -54.5q70 0 103 54.5t33 166.5zM288 669h21q0 -59 -24 -82t-67 -23 t-67 23t-24 82h22q0 -48 17.5 -65.5t51.5 -17.5q33 0 51.5 17.5t18.5 65.5z" />
<glyph unicode="&#x150;" horiz-adv-x="570" d="M61 0zM285 -10q-54 0 -96 19.5t-70.5 62.5t-43 111.5t-14.5 166.5t15 166.5t43.5 111.5t70 62.5t95.5 19.5q55 0 96.5 -19.5t70 -62.5t43 -111.5t14.5 -166.5t-15 -166.5t-43.5 -111.5t-70 -62.5t-95.5 -19.5zM285 683q-45 0 -81 -16.5t-60.5 -55.5t-38 -103t-13.5 -158 q0 -93 13.5 -157t38 -103t60.5 -56t81 -17t81 17t61 56t38 103t13 158q0 93 -13 156.5t-38 102.5t-61 56t-81 17zM412 888l-79 -103h-23v3l62 104h40v-4zM322 892v-4l-78 -103h-23v3l62 104h39z" />
<glyph unicode="&#x151;" horiz-adv-x="435" d="M51 0zM51 238q0 128 42.5 189t124.5 61t124 -61t42 -189q0 -127 -42.5 -187.5t-123.5 -60.5q-83 0 -125 60t-42 188zM354 237q0 115 -32.5 170t-103.5 55t-104 -55t-33 -170q0 -112 33 -166.5t104 -54.5q70 0 103 54.5t33 166.5zM345 666l-79 -103h-23v3l62 104h40v-4z M255 670v-4l-78 -103h-23v3l62 104h39z" />
<glyph unicode="&#x152;" horiz-adv-x="822" d="M299 0q-57 0 -101 20t-74.5 63.5t-46.5 111.5t-16 163q0 93 16 158.5t46 106t74.5 59t101.5 18.5h484v-26h-321v-309h281v-27h-281v-311h329v-27h-492zM299 673q-47 0 -85.5 -16t-65.5 -53t-41.5 -97.5t-14.5 -148.5q0 -92 15 -155.5t42 -102.5t65 -56.5t85 -17.5h133 v647h-133z" />
<glyph unicode="&#x153;" horiz-adv-x="710" d="M519 -10q-59 0 -97.5 37t-52.5 116q-28 -153 -151 -153q-83 0 -125 60t-42 188t42.5 189t124.5 61q123 0 151 -155q14 78 51.5 116.5t95.5 38.5q75 0 113 -60.5t38 -175.5v-20h-284q2 -112 37 -164.5t100 -52.5q93 0 125 111l25 -11q-18 -60 -55 -92.5t-96 -32.5z M515 463q-63 0 -96.5 -52t-35.5 -155h256q-2 207 -124 207zM353 237q0 115 -33 170t-102 55q-71 0 -104 -55t-33 -170q0 -113 33 -167t104 -54q69 0 102 54t33 167z" />
<glyph unicode="&#x154;" horiz-adv-x="493" d="M90 0zM261 674h-141v-359h142q80 0 120 46t40 136q0 94 -39 135.5t-122 41.5zM90 0v700h171q101 0 146.5 -50t45.5 -153q0 -71 -28.5 -125t-90.5 -74l123 -298h-32l-120 292q-18 -3 -40 -3h-145v-289h-30zM358 888l-75 -103h-25v3l62 104h38v-4z" />
<glyph unicode="&#x155;" horiz-adv-x="255" d="M78 0zM78 0v478h25l3 -135q12 69 49.5 105t87.5 34v-30q-60 2 -95.5 -49.5t-40.5 -150.5v-252h-29zM255 666l-75 -103h-25v3l62 104h38v-4z" />
<glyph unicode="&#x156;" horiz-adv-x="493" d="M90 0zM261 674h-141v-359h142q80 0 120 46t40 136q0 94 -39 135.5t-122 41.5zM90 0v700h171q101 0 146.5 -50t45.5 -153q0 -71 -28.5 -125t-90.5 -74l123 -298h-32l-120 292q-18 -3 -40 -3h-145v-289h-30zM286 -113q0 -36 -13 -66t-36 -44l-10 13q18 12 29 35.5t12 49.5 q-14 -6 -25.5 1t-11.5 24q0 14 7.5 21t19.5 7q14 0 21 -9t7 -32z" />
<glyph unicode="&#x157;" horiz-adv-x="255" d="M61 0zM78 0v478h25l3 -135q12 69 49.5 105t87.5 34v-30q-60 2 -95.5 -49.5t-40.5 -150.5v-252h-29zM120 -113q0 -36 -13 -66t-36 -44l-10 13q18 12 29 35.5t12 49.5q-14 -6 -25.5 1t-11.5 24q0 14 7.5 21t19.5 7q14 0 21 -9t7 -32z" />
<glyph unicode="&#x158;" horiz-adv-x="493" d="M90 0zM261 674h-141v-359h142q80 0 120 46t40 136q0 94 -39 135.5t-122 41.5zM90 0v700h171q101 0 146.5 -50t45.5 -153q0 -71 -28.5 -125t-90.5 -74l123 -298h-32l-120 292q-18 -3 -40 -3h-145v-289h-30zM273 807l70 85h30v-1l-88 -106h-24l-88 106v1h32z" />
<glyph unicode="&#x159;" horiz-adv-x="255" d="M69 0zM78 0v478h25l3 -135q12 69 49.5 105t87.5 34v-30q-60 2 -95.5 -49.5t-40.5 -150.5v-252h-29zM169 585l70 85h30v-1l-88 -106h-24l-88 106v1h32z" />
<glyph unicode="&#x15a;" horiz-adv-x="455" d="M24 0zM399 563l-26 -12q-11 38 -27.5 63.5t-36.5 41t-43.5 22t-49.5 6.5q-66 0 -102.5 -36t-36.5 -101t33 -102t95 -62l44 -18q42 -17 72 -36t49 -42t28 -51.5t9 -64.5q0 -90 -48.5 -135.5t-136.5 -45.5q-69 0 -119.5 36t-78.5 128l26 13q26 -85 69.5 -118t102.5 -33 q78 0 116.5 40.5t38.5 112.5q0 28 -6.5 51t-22 43t-42 37.5t-65.5 34.5l-45 19q-34 13 -61.5 30.5t-47 40.5t-30 53t-10.5 68q0 35 10.5 65t32 52.5t53.5 35t75 12.5q63 0 110.5 -33t70.5 -115zM300 887l-75 -103h-25v3l62 104h38v-4z" />
<glyph unicode="&#x15b;" horiz-adv-x="363" d="M27 0zM185 15q49 0 77.5 25.5t28.5 73.5q0 35 -20 62t-74 49l-32 13q-54 22 -85.5 51.5t-31.5 83.5q0 52 33 84t96 32q51 0 84 -24.5t53 -76.5l-25 -13q-17 48 -45 68.5t-67 20.5q-48 0 -74.5 -23t-26.5 -67q0 -38 22.5 -62t74.5 -46l33 -14q64 -27 88.5 -59t24.5 -77 q0 -54 -33.5 -90t-102.5 -36q-60 0 -97.5 29t-58.5 86l26 12q19 -56 53 -79t79 -23zM265 666l-75 -103h-25v3l62 104h38v-4z" />
<glyph unicode="&#x15c;" horiz-adv-x="455" d="M24 0zM399 563l-26 -12q-11 38 -27.5 63.5t-36.5 41t-43.5 22t-49.5 6.5q-66 0 -102.5 -36t-36.5 -101t33 -102t95 -62l44 -18q42 -17 72 -36t49 -42t28 -51.5t9 -64.5q0 -90 -48.5 -135.5t-136.5 -45.5q-69 0 -119.5 36t-78.5 128l26 13q26 -85 69.5 -118t102.5 -33 q78 0 116.5 40.5t38.5 112.5q0 28 -6.5 51t-22 43t-42 37.5t-65.5 34.5l-45 19q-34 13 -61.5 30.5t-47 40.5t-30 53t-10.5 68q0 35 10.5 65t32 52.5t53.5 35t75 12.5q63 0 110.5 -33t70.5 -115zM216 870l-69 -86h-31v2l88 105h25l87 -105v-2h-31z" />
<glyph unicode="&#x15d;" horiz-adv-x="363" d="M27 0zM185 15q49 0 77.5 25.5t28.5 73.5q0 35 -20 62t-74 49l-32 13q-54 22 -85.5 51.5t-31.5 83.5q0 52 33 84t96 32q51 0 84 -24.5t53 -76.5l-25 -13q-17 48 -45 68.5t-67 20.5q-48 0 -74.5 -23t-26.5 -67q0 -38 22.5 -62t74.5 -46l33 -14q64 -27 88.5 -59t24.5 -77 q0 -54 -33.5 -90t-102.5 -36q-60 0 -97.5 29t-58.5 86l26 12q19 -56 53 -79t79 -23zM181 649l-69 -86h-31v2l88 105h25l87 -105v-2h-31z" />
<glyph unicode="&#x15e;" horiz-adv-x="455" d="M216 -221q-26 0 -45 11t-33 38l19 12q11 -23 25 -32t34 -9q29 0 43.5 14t14.5 39q0 26 -14 37.5t-31 11.5q-6 0 -11 -1t-10 -3l-9 8l13 85q-33 1 -61 10.5t-51.5 29t-42.5 50t-33 74.5l26 13q26 -85 69.5 -118t102.5 -33q78 0 116.5 40.5t38.5 112.5q0 28 -6.5 51.5 t-22 44t-41.5 38.5t-66 34l-45 19q-34 13 -61 30.5t-46.5 40t-30 52t-10.5 67.5q0 35 10.5 65t31.5 52.5t53 35t75 12.5q63 0 110.5 -33t70.5 -115l-26 -12q-11 38 -27.5 63.5t-36.5 41t-43.5 22t-49.5 6.5q-66 0 -102.5 -36t-36.5 -101q0 -32 8.5 -56.5t25 -44t40.5 -34.5 t54 -28l44 -18q42 -18 72 -36.5t49 -41.5t28 -51.5t9 -65.5q0 -87 -46 -132.5t-128 -48.5l-12 -74q7 3 15 3q23 0 42 -15.5t19 -50.5q0 -37 -21.5 -55.5t-59.5 -18.5z" />
<glyph unicode="&#x15f;" horiz-adv-x="363" d="M175 -221q-26 0 -45 11.5t-33 37.5l19 12q11 -22 25 -31t34 -9q58 0 58 53q0 26 -14 37t-31 11q-11 0 -21 -3l-9 8l13 84q-55 4 -89.5 32.5t-54.5 82.5l26 12q19 -56 53 -79t79 -23q49 0 77.5 25.5t28.5 73.5q0 35 -20 61.5t-74 49.5l-32 13q-54 22 -85.5 51.5 t-31.5 83.5q0 52 33 84t96 32q51 0 84 -24.5t53 -76.5l-25 -13q-17 48 -45 68.5t-67 20.5q-48 0 -74.5 -23t-26.5 -67q0 -38 22.5 -62.5t74.5 -45.5l33 -14q64 -26 88.5 -58.5t24.5 -77.5q0 -53 -32 -88t-95 -37l-12 -74q5 2 15 2q23 0 42 -15t19 -51t-21.5 -55t-59.5 -19z " />
<glyph unicode="&#x160;" horiz-adv-x="455" d="M24 0zM399 563l-26 -12q-11 38 -27.5 63.5t-36.5 41t-43.5 22t-49.5 6.5q-66 0 -102.5 -36t-36.5 -101t33 -102t95 -62l44 -18q42 -17 72 -36t49 -42t28 -51.5t9 -64.5q0 -90 -48.5 -135.5t-136.5 -45.5q-69 0 -119.5 36t-78.5 128l26 13q26 -85 69.5 -118t102.5 -33 q78 0 116.5 40.5t38.5 112.5q0 28 -6.5 51t-22 43t-42 37.5t-65.5 34.5l-45 19q-34 13 -61.5 30.5t-47 40.5t-30 53t-10.5 68q0 35 10.5 65t32 52.5t53.5 35t75 12.5q63 0 110.5 -33t70.5 -115zM214 806l70 85h30v-1l-88 -106h-24l-88 106v1h32z" />
<glyph unicode="&#x161;" horiz-adv-x="363" d="M27 0zM185 15q49 0 77.5 25.5t28.5 73.5q0 35 -20 62t-74 49l-32 13q-54 22 -85.5 51.5t-31.5 83.5q0 52 33 84t96 32q51 0 84 -24.5t53 -76.5l-25 -13q-17 48 -45 68.5t-67 20.5q-48 0 -74.5 -23t-26.5 -67q0 -38 22.5 -62t74.5 -46l33 -14q64 -27 88.5 -59t24.5 -77 q0 -54 -33.5 -90t-102.5 -36q-60 0 -97.5 29t-58.5 86l26 12q19 -56 53 -79t79 -23zM180 585l70 85h30v-1l-88 -106h-24l-88 106v1h32z" />
<glyph unicode="&#x162;" horiz-adv-x="425" d="M13 0zM13 700h399v-27h-184v-673h-30v673h-185v27zM240 -113q0 -36 -13 -66t-36 -44l-10 13q18 12 29 35.5t12 49.5q-14 -6 -25.5 1t-11.5 24q0 14 7.5 21t19.5 7q14 0 21 -9t7 -32z" />
<glyph unicode="&#x163;" horiz-adv-x="261" d="M16 0zM205 -113q0 -36 -13 -66t-36 -44l-10 13q18 12 29 35.5t12 49.5q-14 -6 -25.5 1t-11.5 24q0 14 7.5 21t19.5 7q14 0 21 -9t7 -32zM250 8q-15 -10 -31.5 -14t-30.5 -4q-21 0 -39.5 7t-32.5 22.5t-22 41t-8 62.5v331h-70v24h70v148h29v-148h123v-24h-123v-327 q0 -60 19 -85t54 -25q13 0 25 3.5t25 11.5z" />
<glyph unicode="&#x164;" horiz-adv-x="425" d="M13 0zM13 700h399v-27h-184v-673h-30v673h-185v27zM212 807l70 85h30v-1l-88 -106h-24l-88 106v1h32z" />
<glyph unicode="&#x165;" horiz-adv-x="261" d="M198 554h-20l5 166h31zM250 8q-15 -10 -31.5 -14t-30.5 -4q-21 0 -39.5 7t-32.5 22.5t-22 41t-8 62.5v331h-70v24h70v148h29v-148h123v-24h-123v-327q0 -60 19 -85t54 -25q13 0 25 3.5t25 11.5z" />
<glyph unicode="&#x166;" horiz-adv-x="425" d="M13 700h399v-27h-184v-311h150v-22h-150v-340h-30v340h-150v22h150v311h-185v27z" />
<glyph unicode="&#x167;" horiz-adv-x="260" d="M250 8q-15 -10 -31.5 -14t-30.5 -4q-21 0 -39.5 7t-32.5 22.5t-22 41t-8 62.5v177h-70v22h70v132h-70v24h70v148h29v-148h123v-24h-123v-132h123v-22h-123v-173q0 -60 19 -85t54 -25q13 0 25 3.5t25 11.5z" />
<glyph unicode="&#x168;" horiz-adv-x="552" d="M74 0zM449 234v466h30v-466q0 -128 -54.5 -186t-148.5 -58q-96 0 -149 58t-53 186v466h30v-466q0 -59 12 -100t34.5 -67t54.5 -38t71 -12t71 12t54.5 38t35 67t12.5 100zM350 878h22q0 -23 -4.5 -37.5t-12 -23t-16.5 -11.5t-18 -3q-16 0 -27 8.5t-21 19t-20 19t-23 8.5 q-11 0 -19.5 -10t-8.5 -41h-22q0 23 5 37.5t12 22.5t15.5 11t17.5 3q16 0 27.5 -8.5t21.5 -18.5t20 -18.5t24 -8.5q12 0 19 11t8 40z" />
<glyph unicode="&#x169;" horiz-adv-x="456" d="M73 0zM378 0h-25l-2 113q-14 -61 -53.5 -92t-93.5 -31q-131 0 -131 188v300h29v-293q0 -47 8 -79t22 -52t34.5 -29t45.5 -9q33 0 57.5 14.5t41.5 40t26.5 61t11.5 78.5v268h29v-478zM298 656h22q0 -23 -4.5 -37.5t-12 -23t-16.5 -11.5t-18 -3q-16 0 -27 8.5t-21 19 t-20 19t-23 8.5q-11 0 -19.5 -10t-8.5 -41h-22q0 23 5 37.5t12 22.5t15.5 11t17.5 3q16 0 27.5 -8.5t21.5 -18.5t20 -18.5t24 -8.5q12 0 19 11t8 40z" />
<glyph unicode="&#x16a;" horiz-adv-x="552" d="M74 0zM449 234v466h30v-466q0 -128 -54.5 -186t-148.5 -58q-96 0 -149 58t-53 186v466h30v-466q0 -59 12 -100t34.5 -67t54.5 -38t71 -12t71 12t54.5 38t35 67t12.5 100zM363 848v-23h-171v23h171z" />
<glyph unicode="&#x16b;" horiz-adv-x="456" d="M73 0zM378 0h-25l-2 113q-14 -61 -53.5 -92t-93.5 -31q-131 0 -131 188v300h29v-293q0 -47 8 -79t22 -52t34.5 -29t45.5 -9q33 0 57.5 14.5t41.5 40t26.5 61t11.5 78.5v268h29v-478zM311 626v-23h-171v23h171z" />
<glyph unicode="&#x16c;" horiz-adv-x="552" d="M74 0zM449 234v466h30v-466q0 -128 -54.5 -186t-148.5 -58q-96 0 -149 58t-53 186v466h30v-466q0 -59 12 -100t34.5 -67t54.5 -38t71 -12t71 12t54.5 38t35 67t12.5 100zM346 891h21q0 -59 -24 -82t-67 -23t-67 23t-24 82h22q0 -48 17.5 -65.5t51.5 -17.5q33 0 51.5 17.5 t18.5 65.5z" />
<glyph unicode="&#x16d;" horiz-adv-x="456" d="M73 0zM378 0h-25l-2 113q-14 -61 -53.5 -92t-93.5 -31q-131 0 -131 188v300h29v-293q0 -47 8 -79t22 -52t34.5 -29t45.5 -9q33 0 57.5 14.5t41.5 40t26.5 61t11.5 78.5v268h29v-478zM295 669h21q0 -59 -24 -82t-67 -23t-67 23t-24 82h22q0 -48 17.5 -65.5t51.5 -17.5 q33 0 51.5 17.5t18.5 65.5z" />
<glyph unicode="&#x16e;" horiz-adv-x="552" d="M74 0zM449 234v466h30v-466q0 -128 -54.5 -186t-148.5 -58q-96 0 -149 58t-53 186v466h30v-466q0 -59 12 -100t34.5 -67t54.5 -38t71 -12t71 12t54.5 38t35 67t12.5 100zM207 851q0 35 20 58t52 23q30 0 50 -23t20 -58t-20 -57.5t-51 -22.5t-51 22.5t-20 57.5zM229 851 q0 -26 14 -43t35 -17t35 17t14 43q0 27 -14 44t-34 17q-22 0 -36 -17t-14 -44z" />
<glyph unicode="&#x16f;" horiz-adv-x="456" d="M73 0zM378 0h-25l-2 113q-14 -61 -53.5 -92t-93.5 -31q-131 0 -131 188v300h29v-293q0 -47 8 -79t22 -52t34.5 -29t45.5 -9q33 0 57.5 14.5t41.5 40t26.5 61t11.5 78.5v268h29v-478zM155 629q0 35 20 58t52 23q30 0 50 -23t20 -58t-20 -57.5t-51 -22.5t-51 22.5t-20 57.5 zM177 629q0 -26 14 -43t35 -17t35 17t14 43q0 27 -14 44t-34 17q-22 0 -36 -17t-14 -44z" />
<glyph unicode="&#x170;" horiz-adv-x="552" d="M74 0zM449 234v466h30v-466q0 -128 -54.5 -186t-148.5 -58q-96 0 -149 58t-53 186v466h30v-466q0 -59 12 -100t34.5 -67t54.5 -38t71 -12t71 12t54.5 38t35 67t12.5 100zM404 888l-79 -103h-23v3l62 104h40v-4zM314 892v-4l-78 -103h-23v3l62 104h39z" />
<glyph unicode="&#x171;" horiz-adv-x="456" d="M73 0zM378 0h-25l-2 113q-14 -61 -53.5 -92t-93.5 -31q-131 0 -131 188v300h29v-293q0 -47 8 -79t22 -52t34.5 -29t45.5 -9q33 0 57.5 14.5t41.5 40t26.5 61t11.5 78.5v268h29v-478zM352 666l-79 -103h-23v3l62 104h40v-4zM262 670v-4l-78 -103h-23v3l62 104h39z" />
<glyph unicode="&#x172;" horiz-adv-x="552" d="M325 -198q-29 0 -51.5 19t-22.5 69q0 34 13 60t31 42q-51 -3 -91.5 9t-69.5 41t-44.5 76.5t-15.5 115.5v466h30v-466q0 -59 12 -100t34.5 -67t54.5 -38t71 -12t71 12t54.5 38t35 67t12.5 100v466h30v-466q0 -108 -38.5 -165.5t-108.5 -72.5q-24 -11 -41.5 -38.5 t-17.5 -65.5t16.5 -52.5t37.5 -14.5q14 0 25 3.5t22 13.5l11 -19q-14 -12 -29 -16.5t-31 -4.5z" />
<glyph unicode="&#x173;" horiz-adv-x="456" d="M409 -177q-14 -12 -28.5 -16.5t-30.5 -4.5q-15 0 -28 4.5t-23.5 14.5t-16.5 27t-6 42q0 49 24 80t52 41l-1 112q-15 -66 -54 -99.5t-93 -33.5q-131 0 -131 188v300h29v-293q0 -47 8 -79t22 -52t34.5 -29t45.5 -9q33 0 57.5 14.5t41.5 40t26.5 61t11.5 78.5v268h29v-478 h-3q-30 -5 -53.5 -34t-23.5 -74q0 -38 16 -52.5t38 -14.5q13 0 24.5 3.5t21.5 13.5z" />
<glyph unicode="&#x174;" horiz-adv-x="679" d="M14 0zM322 692h36l131 -645l146 653h30l-160 -700h-33l-132 642l-133 -642h-33l-160 700h31l146 -654zM341 871l-69 -86h-31v2l88 105h25l87 -105v-2h-31z" />
<glyph unicode="&#x175;" horiz-adv-x="533" d="M14 0zM251 466h32l100 -430l106 442h29l-118 -478h-35l-99 424l-99 -424h-34l-119 478h31l105 -442zM266 649l-69 -86h-31v2l88 105h25l87 -105v-2h-31z" />
<glyph unicode="&#x176;" horiz-adv-x="449" d="M17 0zM209 286l-192 414h34l174 -383l173 383h33l-192 -414v-286h-30v286zM225 871l-69 -86h-31v2l88 105h25l87 -105v-2h-31z" />
<glyph unicode="&#x177;" horiz-adv-x="358" d="M0 0zM150 -48l13 45l-151 481h31l136 -444l136 444h30l-169 -537q-15 -47 -30 -75.5t-31.5 -44t-34 -21t-35.5 -5.5q-17 0 -30.5 2.5t-29.5 10.5l9 26q25 -12 48 -12q15 0 29 4.5t27 18.5t26 39.5t26 67.5zM178 649l-69 -86h-31v2l88 105h25l87 -105v-2h-31z" />
<glyph unicode="&#x178;" horiz-adv-x="449" d="M17 0zM209 286l-192 414h34l174 -383l173 383h33l-192 -414v-286h-30v286zM252 832q0 14 7.5 22t19.5 8q27 0 27 -30q0 -29 -27 -29q-12 0 -19.5 7.5t-7.5 21.5zM145 832q0 14 7.5 22t19.5 8q27 0 27 -30q0 -29 -27 -29q-12 0 -19.5 7.5t-7.5 21.5z" />
<glyph unicode="&#x179;" horiz-adv-x="433" d="M26 0zM26 0v24l345 650l-330 -1v27h363v-24l-346 -650l354 1v-27h-386zM304 888l-75 -103h-25v3l62 104h38v-4z" />
<glyph unicode="&#x17a;" horiz-adv-x="354" d="M31 0zM31 0v24l253 429h-246v25h278v-24l-253 -429h257v-25h-289zM260 666l-75 -103h-25v3l62 104h38v-4z" />
<glyph unicode="&#x17b;" horiz-adv-x="433" d="M26 0zM26 0v24l345 650l-330 -1v27h363v-24l-346 -650l354 1v-27h-386zM192 832q0 14 7.5 21.5t19.5 7.5q27 0 27 -29q0 -14 -7 -22t-20 -8q-12 0 -19.5 8t-7.5 22z" />
<glyph unicode="&#x17c;" horiz-adv-x="354" d="M31 0zM31 0v24l253 429h-246v25h278v-24l-253 -429h257v-25h-289zM148 610q0 14 7.5 21.5t19.5 7.5q27 0 27 -29q0 -14 -7 -22t-20 -8q-12 0 -19.5 8t-7.5 22z" />
<glyph unicode="&#x17d;" horiz-adv-x="433" d="M26 0zM26 0v24l345 650l-330 -1v27h363v-24l-346 -650l354 1v-27h-386zM218 807l70 85h30v-1l-88 -106h-24l-88 106v1h32z" />
<glyph unicode="&#x17e;" horiz-adv-x="354" d="M31 0zM31 0v24l253 429h-246v25h278v-24l-253 -429h257v-25h-289zM174 585l70 85h30v-1l-88 -106h-24l-88 106v1h32z" />
<glyph unicode="&#x192;" horiz-adv-x="289" d="M-14 -205q-14 0 -27.5 2.5t-25.5 10.5l8 26q11 -6 21 -9t24 -3q29 0 46 26.5t25 94.5l45 386h-70l4 24h69l15 120q8 74 34.5 108t74.5 34q16 0 31.5 -3.5t29.5 -13.5l-8 -26q-12 8 -23 12t-28 4q-33 0 -54.5 -26t-29.5 -94l-13 -115h121l-4 -24h-121l-44 -392 q-9 -75 -34.5 -108.5t-65.5 -33.5z" />
<glyph unicode="&#x218;" horiz-adv-x="455" d="M24 0zM399 563l-26 -12q-11 38 -27.5 63.5t-36.5 41t-43.5 22t-49.5 6.5q-66 0 -102.5 -36t-36.5 -101t33 -102t95 -62l44 -18q42 -17 72 -36t49 -42t28 -51.5t9 -64.5q0 -90 -48.5 -135.5t-136.5 -45.5q-69 0 -119.5 36t-78.5 128l26 13q26 -85 69.5 -118t102.5 -33 q78 0 116.5 40.5t38.5 112.5q0 28 -6.5 51t-22 43t-42 37.5t-65.5 34.5l-45 19q-34 13 -61.5 30.5t-47 40.5t-30 53t-10.5 68q0 35 10.5 65t32 52.5t53.5 35t75 12.5q63 0 110.5 -33t70.5 -115zM248 -114q0 -36 -13 -66t-36 -44l-10 13q18 12 29 35.5t12 49.5 q-14 -6 -25.5 1t-11.5 24q0 14 7.5 21t19.5 7q14 0 21 -9t7 -32z" />
<glyph unicode="&#x219;" horiz-adv-x="363" d="M27 0zM185 15q49 0 77.5 25.5t28.5 73.5q0 35 -20 62t-74 49l-32 13q-54 22 -85.5 51.5t-31.5 83.5q0 52 33 84t96 32q51 0 84 -24.5t53 -76.5l-25 -13q-17 48 -45 68.5t-67 20.5q-48 0 -74.5 -23t-26.5 -67q0 -38 22.5 -62t74.5 -46l33 -14q64 -27 88.5 -59t24.5 -77 q0 -54 -33.5 -90t-102.5 -36q-60 0 -97.5 29t-58.5 86l26 12q19 -56 53 -79t79 -23zM210 -113q0 -36 -13 -66t-36 -44l-10 13q18 12 29 35.5t12 49.5q-14 -6 -25.5 1t-11.5 24q0 14 7.5 21t19.5 7q14 0 21 -9t7 -32z" />
<glyph unicode="&#x237;" horiz-adv-x="185" d="M78 -58v536h29v-547q0 -72 -23.5 -104t-66.5 -32q-30 0 -55 14l11 26q11 -6 21 -9.5t24 -3.5q30 0 45 26.5t15 93.5z" />
<glyph unicode="&#x2c6;" d="M222 649l-69 -86h-31v2l88 105h25l87 -105v-2h-31z" />
<glyph unicode="&#x2c7;" d="M222 585l70 85h30v-1l-88 -106h-24l-88 106v1h32z" />
<glyph unicode="&#x2d8;" d="M295 669h21q0 -59 -24 -82t-67 -23t-67 23t-24 82h22q0 -48 17.5 -65.5t51.5 -17.5q33 0 51.5 17.5t18.5 65.5z" />
<glyph unicode="&#x2d9;" d="M199 610q0 14 7.5 21.5t19.5 7.5q27 0 27 -29q0 -14 -7 -22t-20 -8q-12 0 -19.5 8t-7.5 22z" />
<glyph unicode="&#x2da;" d="M157 629q0 35 20 58t52 23q30 0 50 -23t20 -58t-20 -57.5t-51 -22.5t-51 22.5t-20 57.5zM179 629q0 -26 14 -43t35 -17t35 17t14 43q0 27 -14 44t-34 17q-22 0 -36 -17t-14 -44z" />
<glyph unicode="&#x2db;" d="M233 -198q-15 0 -28.5 4.5t-24 14.5t-16.5 27t-6 42q0 28 9 51t23.5 39t31.5 25t33 11l2 -16q-29 -5 -52.5 -34t-23.5 -74q0 -38 16 -52.5t37 -14.5q14 0 25 3.5t22 13.5l11 -19q-14 -12 -29 -16.5t-30 -4.5z" />
<glyph unicode="&#x2dc;" d="M305 656h22q0 -23 -4.5 -37.5t-12 -23t-16.5 -11.5t-18 -3q-16 0 -27 8.5t-21 19t-20 19t-23 8.5q-11 0 -19.5 -10t-8.5 -41h-22q0 23 5 37.5t12 22.5t15.5 11t17.5 3q16 0 27.5 -8.5t21.5 -18.5t20 -18.5t24 -8.5q12 0 19 11t8 40z" />
<glyph unicode="&#x2dd;" d="M366 666l-79 -103h-23v3l62 104h40v-4zM276 670v-4l-78 -103h-23v3l62 104h39z" />
<glyph unicode="&#x1e80;" horiz-adv-x="679" d="M14 0zM322 692h36l131 -645l146 653h30l-160 -700h-33l-132 642l-133 -642h-33l-160 700h31l146 -654zM332 785l-76 103v4h38l62 -104v-3h-24z" />
<glyph unicode="&#x1e81;" horiz-adv-x="533" d="M14 0zM251 466h32l100 -430l106 442h29l-118 -478h-35l-99 424l-99 -424h-34l-119 478h31l105 -442zM257 564l-76 103v4h38l62 -104v-3h-24z" />
<glyph unicode="&#x1e82;" horiz-adv-x="679" d="M14 0zM322 692h36l131 -645l146 653h30l-160 -700h-33l-132 642l-133 -642h-33l-160 700h31l146 -654zM425 888l-75 -103h-25v3l62 104h38v-4z" />
<glyph unicode="&#x1e83;" horiz-adv-x="533" d="M14 0zM251 466h32l100 -430l106 442h29l-118 -478h-35l-99 424l-99 -424h-34l-119 478h31l105 -442zM350 666l-75 -103h-25v3l62 104h38v-4z" />
<glyph unicode="&#x1e84;" horiz-adv-x="679" d="M14 0zM322 692h36l131 -645l146 653h30l-160 -700h-33l-132 642l-133 -642h-33l-160 700h31l146 -654zM368 832q0 14 7.5 22t19.5 8q27 0 27 -30q0 -29 -27 -29q-12 0 -19.5 7.5t-7.5 21.5zM261 832q0 14 7.5 22t19.5 8q27 0 27 -30q0 -29 -27 -29q-12 0 -19.5 7.5 t-7.5 21.5z" />
<glyph unicode="&#x1e85;" horiz-adv-x="533" d="M14 0zM251 466h32l100 -430l106 442h29l-118 -478h-35l-99 424l-99 -424h-34l-119 478h31l105 -442zM293 610q0 14 7.5 22t19.5 8q27 0 27 -30q0 -29 -27 -29q-12 0 -19.5 7.5t-7.5 21.5zM186 610q0 14 7.5 22t19.5 8q27 0 27 -30q0 -29 -27 -29q-12 0 -19.5 7.5 t-7.5 21.5z" />
<glyph unicode="&#x2000;" horiz-adv-x="466" />
<glyph unicode="&#x2001;" horiz-adv-x="932" />
<glyph unicode="&#x2002;" horiz-adv-x="371" />
<glyph unicode="&#x2003;" horiz-adv-x="743" />
<glyph unicode="&#x2004;" horiz-adv-x="247" />
<glyph unicode="&#x2005;" horiz-adv-x="186" />
<glyph unicode="&#x2006;" horiz-adv-x="124" />
<glyph unicode="&#x2007;" horiz-adv-x="465" />
<glyph unicode="&#x2008;" horiz-adv-x="150" />
<glyph unicode="&#x2009;" horiz-adv-x="149" />
<glyph unicode="&#x200a;" horiz-adv-x="74" />
<glyph unicode="&#x200b;" horiz-adv-x="0" />
<glyph unicode="&#x2010;" horiz-adv-x="306" d="M266 256v-26h-226v26h226z" />
<glyph unicode="&#x2011;" horiz-adv-x="306" d="M266 256v-26h-226v26h226z" />
<glyph unicode="&#x2012;" horiz-adv-x="442" d="M402 256v-26h-363v26h363z" />
<glyph unicode="&#x2013;" horiz-adv-x="442" d="M402 256v-26h-363v26h363z" />
<glyph unicode="&#x2014;" horiz-adv-x="590" d="M551 256v-26h-512v26h512z" />
<glyph unicode="&#x2015;" horiz-adv-x="813" d="M773 256v-26h-734v26h734z" />
<glyph unicode="&#x2018;" horiz-adv-x="153" d="M92 720l10 -14q-20 -13 -30 -36.5t-11 -49.5q14 6 25.5 -1.5t11.5 -24.5q0 -14 -8 -22t-19 -8q-14 0 -22 9.5t-8 33.5q0 36 13 67t38 46z" />
<glyph unicode="&#x2019;" horiz-adv-x="153" d="M56 560l-10 14q20 13 30 36.5t11 49.5q-14 -6 -25.5 1.5t-11.5 24.5q0 14 8 22t19 8q14 0 22 -9.5t8 -33.5q0 -36 -13 -67t-38 -46z" />
<glyph unicode="&#x201a;" horiz-adv-x="153" d="M57 -101l-10 13q19 13 29 36.5t11 49.5q-14 -6 -25 1.5t-11 24.5q0 14 7.5 22t18.5 8q14 0 22 -9.5t8 -33.5q0 -36 -13 -67t-37 -45z" />
<glyph unicode="&#x201c;" horiz-adv-x="243" d="M92 720l10 -14q-20 -13 -30 -36.5t-11 -49.5q14 6 25.5 -1.5t11.5 -24.5q0 -14 -8 -22t-19 -8q-14 0 -22 9.5t-8 33.5q0 36 13 67t38 46zM181 720l10 -14q-20 -13 -30 -36.5t-11 -49.5q14 6 25.5 -1.5t11.5 -24.5q0 -14 -8 -22t-19 -8q-14 0 -22 9.5t-8 33.5q0 36 13 67 t38 46z" />
<glyph unicode="&#x201d;" horiz-adv-x="243" d="M56 560l-10 14q20 13 30 36.5t11 49.5q-14 -6 -25.5 1.5t-11.5 24.5q0 14 8 22t19 8q14 0 22 -9.5t8 -33.5q0 -36 -13 -67t-38 -46zM145 560l-10 14q20 13 30 36.5t11 49.5q-14 -6 -25.5 1.5t-11.5 24.5q0 14 8 22t19 8q14 0 22 -9.5t8 -33.5q0 -36 -13 -67t-38 -46z" />
<glyph unicode="&#x201e;" horiz-adv-x="242" d="M56 -101l-10 13q19 13 29 36.5t11 49.5q-14 -6 -25 1.5t-11 24.5q0 14 7.5 22t18.5 8q14 0 22 -9.5t8 -33.5q0 -36 -13 -67t-37 -45zM145 -101l-10 13q19 13 29 36.5t11 49.5q-14 -6 -25 1.5t-11 24.5q0 14 7.5 22t18.5 8q14 0 22 -9.5t8 -33.5q0 -36 -13 -67t-37 -45z " />
<glyph unicode="&#x2020;" horiz-adv-x="229" d="M182 571h-55l-2 -237h-23v237h-55v22h54v116h28l-2 -116h55v-22z" />
<glyph unicode="&#x2021;" horiz-adv-x="229" d="M47 465h55v108h-55v23h55l-1 113h28l-2 -113h55v-23h-55v-108h55v-23h-55l2 -115h-28v115h-54v23z" />
<glyph unicode="&#x2022;" horiz-adv-x="325" d="M58 327q0 51 28 81t77 30q48 0 76 -30t28 -81t-28 -81t-76 -30q-49 0 -77 30t-28 81z" />
<glyph unicode="&#x2026;" horiz-adv-x="455" d="M378 -6q-12 0 -19.5 8t-7.5 22t7.5 22t19.5 8q27 0 27 -30q0 -14 -7 -22t-20 -8zM228 -6q-12 0 -19.5 8t-7.5 22t7.5 22t19.5 8q27 0 27 -30q0 -14 -7 -22t-20 -8zM77 -6q-12 0 -19.5 8t-7.5 22t7.5 22t19.5 8q27 0 27 -30q0 -14 -7 -22t-20 -8z" />
<glyph unicode="&#x202f;" horiz-adv-x="186" />
<glyph unicode="&#x2030;" horiz-adv-x="1062" d="M37 0zM477 204q0 114 30 162t89 48q58 0 88 -48t30 -162t-30 -162.5t-88 -48.5q-59 0 -89 48.5t-30 162.5zM689 204q0 52 -6.5 88.5t-18.5 58.5t-29 32t-39 10t-39.5 -9.5t-29.5 -32t-18.5 -58.5t-6.5 -88q0 -54 6.5 -90.5t18.5 -59t29.5 -32t39.5 -9.5t39 9.5t29 32 t18.5 58.5t6.5 90zM37 497q0 114 30 162t89 48q58 0 88 -48t30 -162t-30 -162.5t-88 -48.5q-59 0 -89 48.5t-30 162.5zM249 497q0 52 -6.5 88.5t-18.5 58.5t-29 32t-39 10t-39.5 -9.5t-29.5 -32t-18.5 -58.5t-6.5 -88q0 -54 6.5 -90.5t18.5 -59t29.5 -32t39.5 -9.5t39 9.5 t29 32t18.5 58.5t6.5 90zM786 204q0 114 30 162t89 48q58 0 88 -48t30 -162t-30 -162.5t-88 -48.5q-59 0 -89 48.5t-30 162.5zM998 204q0 52 -6.5 88.5t-18.5 58.5t-29 32t-39 10t-39.5 -9.5t-29.5 -32t-18.5 -58.5t-6.5 -88q0 -54 6.5 -90.5t18.5 -59t29.5 -32t39.5 -9.5 t39 9.5t29 32t18.5 58.5t6.5 90zM512 701l-247 -701h-28l247 701h28z" />
<glyph unicode="&#x2039;" horiz-adv-x="306" d="M192 0l-142 237v3l142 238h33l-144 -239l145 -239h-34z" />
<glyph unicode="&#x203a;" horiz-adv-x="306" d="M108 478l142 -237v-3l-142 -238h-33l144 239l-145 239h34z" />
<glyph unicode="&#x2044;" horiz-adv-x="367" d="M323 701l-247 -701h-28l247 701h28z" />
<glyph unicode="&#x205f;" horiz-adv-x="233" />
<glyph unicode="&#x2070;" horiz-adv-x="312" d="M37 288zM37 499q0 114 30 162t89 48q58 0 88 -48t30 -162t-30 -162.5t-88 -48.5q-59 0 -89 48.5t-30 162.5zM249 499q0 52 -6.5 88.5t-18.5 58.5t-29 32t-39 10t-39.5 -9.5t-29.5 -32t-18.5 -58.5t-6.5 -88q0 -54 6.5 -90.5t18.5 -59t29.5 -32t39.5 -9.5t39 9.5t29 32 t18.5 58.5t6.5 90z" />
<glyph unicode="&#x2074;" horiz-adv-x="289" d="M25 295zM25 406v20l107 277h25l-107 -275h148v202h24v-202h50v-22h-50v-111h-24v111h-173z" />
<glyph unicode="&#x2075;" horiz-adv-x="272" d="M27 288zM77 681l-14 -168q18 20 39.5 27.5t42.5 7.5q45 0 73.5 -29t28.5 -94q0 -60 -28 -98.5t-84 -38.5q-35 0 -63.5 17t-44.5 55l21 12q24 -62 86 -62q47 0 68 33t21 82q0 103 -85 103q-26 0 -45 -11t-37 -31l-16 7l17 210h175v-22h-155z" />
<glyph unicode="&#x2076;" horiz-adv-x="291" d="M37 288zM158 288q-27 0 -49 11.5t-38 36t-25 64t-9 95.5q0 112 33 163t90 51q32 0 56 -15t37 -49l-19 -10q-12 29 -31 41t-43 12q-21 0 -39.5 -10.5t-31.5 -33.5t-20.5 -60t-7.5 -90q0 -24 3 -51q3 50 29.5 78t68.5 28q45 0 72.5 -32t27.5 -96q0 -61 -26.5 -97t-77.5 -36 zM73 415q0 -18 5 -37t15.5 -34.5t26 -25t37.5 -9.5q37 0 59 28.5t22 83.5q0 51 -21.5 79t-59.5 28t-61 -29.5t-23 -83.5z" />
<glyph unicode="&#x2077;" horiz-adv-x="229" d="M22 295zM100 295h-25q0 54 8.5 109.5t24.5 107.5t38 95.5t49 73.5l-173 -1v23h201v-20q-27 -26 -49.5 -67t-38.5 -92t-25 -109.5t-10 -119.5z" />
<glyph unicode="&#x2078;" horiz-adv-x="289" d="M36 288zM144 288q-52 0 -80 31.5t-28 86.5q0 43 19 71t51 37q-26 9 -41.5 33t-15.5 61q0 48 24.5 74.5t70.5 26.5q47 0 71.5 -26.5t24.5 -74.5q0 -36 -16 -60.5t-42 -33.5q32 -8 51 -36t19 -72q0 -55 -27.5 -86.5t-80.5 -31.5zM217 607q0 37 -18 59t-55 22t-54.5 -22 t-17.5 -59q0 -38 18 -60.5t54 -22.5t54.5 22.5t18.5 60.5zM228 407q0 43 -21.5 69t-62.5 26t-62.5 -26t-21.5 -69q0 -45 21 -71.5t63 -26.5t63 26.5t21 71.5z" />
<glyph unicode="&#x2079;" horiz-adv-x="290" d="M27 288zM216 582q0 18 -5 37t-15.5 34.5t-26.5 25t-37 9.5q-38 0 -59.5 -28t-21.5 -83q0 -51 21 -79.5t60 -28.5q38 0 61 29.5t23 83.5zM130 709q54 0 88 -47.5t34 -158.5q0 -112 -33 -163.5t-90 -51.5q-32 0 -56 15t-38 48l20 12q11 -29 30.5 -41.5t42.5 -12.5 q22 0 40 10.5t31 33.5t20.5 60t7.5 90q0 24 -3 51q-3 -50 -29 -78t-68 -28q-45 0 -72.5 32t-27.5 96q0 61 26 97t77 36z" />
<glyph unicode="&#x207a;" horiz-adv-x="236" d="M33 363zM129 363h-21v103h-75v19h75v109h21v-109h74v-19h-74v-103z" />
<glyph unicode="&#x207b;" horiz-adv-x="236" d="M33 465zM203 486v-21h-170v21h170z" />
<glyph unicode="&#x207c;" horiz-adv-x="236" d="M33 434zM203 522v-21h-170v21h170zM203 455v-21h-170v21h170z" />
<glyph unicode="&#x207d;" horiz-adv-x="163" d="M32 253zM130 273l-7 -20q-44 11 -67.5 69.5t-23.5 160.5q0 103 23.5 162t67.5 70l7 -20q-36 -11 -56 -63t-20 -149q0 -95 20 -147t56 -63z" />
<glyph unicode="&#x207e;" horiz-adv-x="163" d="M33 253zM38 253l-5 20q35 11 55.5 63t20.5 147q0 97 -20.5 149t-55.5 63l5 20q45 -11 69 -70t24 -162q0 -102 -24 -160.5t-69 -69.5z" />
<glyph unicode="&#x2080;" horiz-adv-x="312" d="M37 204q0 114 30 162t89 48q58 0 88 -48t30 -162t-30 -162.5t-88 -48.5q-59 0 -89 48.5t-30 162.5zM249 204q0 52 -6.5 88.5t-18.5 58.5t-29 32t-39 10t-39.5 -9.5t-29.5 -32t-18.5 -58.5t-6.5 -88q0 -54 6.5 -90.5t18.5 -59t29.5 -32t39.5 -9.5t39 9.5t29 32t18.5 58.5 t6.5 90z" />
<glyph unicode="&#x2081;" horiz-adv-x="146" d="M90 0h-24v369l-43 -44l-11 21l62 62h16v-408z" />
<glyph unicode="&#x2082;" horiz-adv-x="262" d="M24 0v20l123 173q32 45 42 72.5t10 48.5q0 78 -70 78q-33 0 -53 -18t-34 -53l-19 10q16 41 41 62t67 21q47 0 70 -26.5t23 -69.5q0 -29 -13 -60t-46 -78l-113 -158h188v-22h-216z" />
<glyph unicode="&#x2083;" horiz-adv-x="274" d="M131 -7q-76 0 -107 74l21 9q14 -32 34.5 -46.5t49.5 -14.5q45 0 66 27t21 72q0 36 -16 62.5t-58 26.5h-43v21h43q28 0 46.5 22.5t18.5 63.5q0 40 -19.5 61.5t-56.5 21.5q-30 0 -48.5 -16t-31.5 -49l-21 9q14 39 38.5 58t65.5 19q51 0 74 -27.5t23 -72.5 q0 -37 -13.5 -62.5t-38.5 -36.5q35 -11 48 -40t13 -61q0 -56 -27.5 -88.5t-81.5 -32.5z" />
<glyph unicode="&#x2084;" horiz-adv-x="288" d="M25 111v20l107 277h25l-107 -275h148v202h24v-202h50v-22h-50v-111h-24v111h-173z" />
<glyph unicode="&#x2085;" horiz-adv-x="273" d="M77 386l-14 -168q18 20 39.5 27.5t42.5 7.5q45 0 73.5 -29t28.5 -94q0 -60 -28 -98.5t-84 -38.5q-35 0 -63.5 17t-44.5 55l21 12q24 -62 86 -62q47 0 68 33t21 82q0 103 -85 103q-26 0 -45 -11t-37 -31l-16 7l17 210h175v-22h-155z" />
<glyph unicode="&#x2086;" horiz-adv-x="290" d="M158 -7q-27 0 -49 11.5t-38 36t-25 64t-9 95.5q0 112 33 163t90 51q32 0 56 -15t37 -49l-19 -10q-12 29 -31 41t-43 12q-21 0 -39.5 -10.5t-31.5 -33.5t-20.5 -60t-7.5 -90q0 -24 3 -51q3 50 29.5 78t68.5 28q45 0 72.5 -32t27.5 -96q0 -61 -26.5 -97t-77.5 -36zM73 120 q0 -18 5 -37t15.5 -34.5t26 -25t37.5 -9.5q37 0 59 28.5t22 83.5q0 51 -21.5 79t-59.5 28t-61 -29.5t-23 -83.5z" />
<glyph unicode="&#x2087;" horiz-adv-x="229" d="M100 0h-25q0 54 8.5 109.5t24.5 107.5t38 95.5t49 73.5l-173 -1v23h201v-20q-27 -26 -49.5 -67t-38.5 -92t-25 -109.5t-10 -119.5z" />
<glyph unicode="&#x2088;" horiz-adv-x="289" d="M144 -7q-52 0 -80 31.5t-28 86.5q0 43 19 71t51 37q-26 9 -41.5 33t-15.5 61q0 48 24.5 74.5t70.5 26.5q47 0 71.5 -26.5t24.5 -74.5q0 -36 -16 -60.5t-42 -33.5q32 -8 51 -36t19 -72q0 -55 -27.5 -86.5t-80.5 -31.5zM217 312q0 37 -18 59t-55 22t-54.5 -22t-17.5 -59 q0 -38 18 -60.5t54 -22.5t54.5 22.5t18.5 60.5zM228 112q0 43 -21.5 69t-62.5 26t-62.5 -26t-21.5 -69q0 -45 21 -71.5t63 -26.5t63 26.5t21 71.5z" />
<glyph unicode="&#x2089;" horiz-adv-x="290" d="M216 287q0 18 -5 37t-15.5 34.5t-26.5 25t-37 9.5q-38 0 -59.5 -28t-21.5 -83q0 -51 21 -79.5t60 -28.5q38 0 61 29.5t23 83.5zM130 414q54 0 88 -47.5t34 -158.5q0 -112 -33 -163.5t-90 -51.5q-32 0 -56 15t-38 48l20 12q11 -29 30.5 -41.5t42.5 -12.5q22 0 40 10.5 t31 33.5t20.5 60t7.5 90q0 24 -3 51q-3 -50 -29 -78t-68 -28q-45 0 -72.5 32t-27.5 96q0 61 26 97t77 36z" />
<glyph unicode="&#x208a;" horiz-adv-x="236" d="M129 65h-21v103h-75v19h75v109h21v-109h74v-19h-74v-103z" />
<glyph unicode="&#x208b;" horiz-adv-x="236" d="M203 188v-21h-170v21h170z" />
<glyph unicode="&#x208c;" horiz-adv-x="236" d="M203 224v-21h-170v21h170zM203 157v-21h-170v21h170z" />
<glyph unicode="&#x208d;" horiz-adv-x="163" d="M130 -25l-7 -20q-44 11 -67.5 69.5t-23.5 160.5q0 103 23.5 162t67.5 70l7 -20q-36 -11 -56 -63t-20 -149q0 -95 20 -147t56 -63z" />
<glyph unicode="&#x208e;" horiz-adv-x="163" d="M38 -45l-5 20q35 11 55.5 63t20.5 147q0 97 -20.5 149t-55.5 63l5 20q45 -11 69 -70t24 -162q0 -102 -24 -160.5t-69 -69.5z" />
<glyph unicode="&#x20ac;" horiz-adv-x="513" d="M484 146q-26 -84 -76 -120t-119 -36q-47 0 -84 16.5t-64 53.5t-43 94.5t-20 140.5h-66v25h65v38q0 14 1 24h-66v24h66q4 82 20.5 140t43.5 94.5t64.5 53t84.5 16.5q66 0 113.5 -35t73.5 -123l-27 -11q-23 79 -64.5 110.5t-96.5 31.5q-39 0 -70.5 -14.5t-55 -47 t-37.5 -85.5t-18 -130h256l-6 -24h-251q-1 -9 -1 -22.5t1 -39.5h236l-6 -25h-229q3 -77 17.5 -130.5t38 -86.5t55 -47.5t70.5 -14.5q57 0 100.5 32.5t66.5 110.5z" />
<glyph unicode="&#x2122;" horiz-adv-x="521" d="M26 700h180v-18h-81v-276h-18v276h-81v18zM233 406v294h24l87 -269l88 269h24v-294h-19l1 259l-86 -259h-16l-85 258l1 -258h-19z" />
<glyph unicode="&#x2153;" horiz-adv-x="593" d="M12 0zM448 -7q-76 0 -107 74l21 9q14 -32 34.5 -46.5t49.5 -14.5q45 0 66 27t21 72q0 36 -16 62.5t-58 26.5h-43v21h43q28 0 46.5 22.5t18.5 63.5q0 40 -19.5 61.5t-56.5 21.5q-30 0 -48.5 -16t-31.5 -49l-21 9q14 39 38.5 58t65.5 19q51 0 74 -27.5t23 -72.5 q0 -37 -13.5 -62.5t-38.5 -36.5q35 -11 48 -40t13 -61q0 -56 -27.5 -88.5t-81.5 -32.5zM90 293h-24v369l-43 -44l-11 21l62 62h16v-408zM382 701l-247 -701h-28l247 701h28z" />
<glyph unicode="&#x2154;" horiz-adv-x="693" d="M23 0zM549 -7q-76 0 -107 74l21 9q14 -32 34.5 -46.5t49.5 -14.5q45 0 66 27t21 72q0 36 -16 62.5t-58 26.5h-43v21h43q28 0 46.5 22.5t18.5 63.5q0 40 -19.5 61.5t-56.5 21.5q-30 0 -48.5 -16t-31.5 -49l-21 9q14 39 38.5 58t65.5 19q51 0 74 -27.5t23 -72.5 q0 -37 -13.5 -62.5t-38.5 -36.5q35 -11 48 -40t13 -61q0 -56 -27.5 -88.5t-81.5 -32.5zM24 293v20l123 173q32 45 42 72.5t10 48.5q0 78 -70 78q-33 0 -53 -18t-34 -53l-19 10q16 41 41 62t67 21q47 0 70 -26.5t23 -69.5q0 -29 -13 -60t-46 -78l-113 -158h188v-22h-216z M482 701l-247 -701h-28l247 701h28z" />
<glyph unicode="&#x2155;" horiz-adv-x="602" d="M12 0zM90 293h-24v369l-43 -44l-11 21l62 62h16v-408zM408 386l-14 -168q18 20 39.5 27.5t42.5 7.5q45 0 73.5 -29t28.5 -94q0 -60 -28 -98.5t-84 -38.5q-35 0 -63.5 17t-44.5 55l21 12q24 -62 86 -62q47 0 68 33t21 82q0 103 -85 103q-26 0 -45 -11t-37 -31l-16 7 l17 210h175v-22h-155zM382 701l-247 -701h-28l247 701h28z" />
<glyph unicode="&#x2156;" horiz-adv-x="707" d="M23 0zM24 293v20l123 173q32 45 42 72.5t10 48.5q0 78 -70 78q-33 0 -53 -18t-34 -53l-19 10q16 41 41 62t67 21q47 0 70 -26.5t23 -69.5q0 -29 -13 -60t-46 -78l-113 -158h188v-22h-216zM513 386l-14 -168q18 20 39.5 27.5t42.5 7.5q45 0 73.5 -29t28.5 -94 q0 -60 -28 -98.5t-84 -38.5q-35 0 -63.5 17t-44.5 55l21 12q24 -62 86 -62q47 0 68 33t21 82q0 103 -85 103q-26 0 -45 -11t-37 -31l-16 7l17 210h175v-22h-155zM487 701l-247 -701h-28l247 701h28z" />
<glyph unicode="&#x2157;" horiz-adv-x="706" d="M24 0zM131 286q-76 0 -107 74l21 9q14 -32 34.5 -46.5t49.5 -14.5q45 0 66 27t21 72q0 36 -16 62.5t-58 26.5h-43v21h43q28 0 46.5 22.5t18.5 63.5q0 40 -19.5 61.5t-56.5 21.5q-30 0 -48.5 -16t-31.5 -49l-21 9q14 39 38.5 58t65.5 19q51 0 74 -27.5t23 -72.5 q0 -37 -13.5 -62.5t-38.5 -36.5q35 -11 48 -40t13 -61q0 -56 -27.5 -88.5t-81.5 -32.5zM512 386l-14 -168q18 20 39.5 27.5t42.5 7.5q45 0 73.5 -29t28.5 -94q0 -60 -28 -98.5t-84 -38.5q-35 0 -63.5 17t-44.5 55l21 12q24 -62 86 -62q47 0 68 33t21 82q0 103 -85 103 q-26 0 -45 -11t-37 -31l-16 7l17 210h175v-22h-155zM486 701l-247 -701h-28l247 701h28z" />
<glyph unicode="&#x2158;" horiz-adv-x="726" d="M25 0zM532 386l-14 -168q18 20 39.5 27.5t42.5 7.5q45 0 73.5 -29t28.5 -94q0 -60 -28 -98.5t-84 -38.5q-35 0 -63.5 17t-44.5 55l21 12q24 -62 86 -62q47 0 68 33t21 82q0 103 -85 103q-26 0 -45 -11t-37 -31l-16 7l17 210h175v-22h-155zM506 701l-247 -701h-28l247 701 h28zM25 404v20l107 277h25l-107 -275h148v202h24v-202h50v-22h-50v-111h-24v111h-173z" />
<glyph unicode="&#x2159;" horiz-adv-x="621" d="M12 0zM90 293h-24v369l-43 -44l-11 21l62 62h16v-408zM488 -7q-27 0 -49 11.5t-38 36t-25 64t-9 95.5q0 112 33 163t90 51q32 0 56 -15t37 -49l-19 -10q-12 29 -31 41t-43 12q-21 0 -39.5 -10.5t-31.5 -33.5t-20.5 -60t-7.5 -90q0 -24 3 -51q3 50 29.5 78t68.5 28 q45 0 72.5 -32t27.5 -96q0 -61 -26.5 -97t-77.5 -36zM403 120q0 -18 5 -37t15.5 -34.5t26 -25t37.5 -9.5q37 0 59 28.5t22 83.5q0 51 -21.5 79t-59.5 28t-61 -29.5t-23 -83.5zM382 701l-247 -701h-28l247 701h28z" />
<glyph unicode="&#x215a;" horiz-adv-x="713" d="M27 0zM77 679l-14 -168q18 20 39.5 27.5t42.5 7.5q45 0 73.5 -29t28.5 -94q0 -60 -28 -98.5t-84 -38.5q-35 0 -63.5 17t-44.5 55l21 12q24 -62 86 -62q47 0 68 33t21 82q0 103 -85 103q-26 0 -45 -11t-37 -31l-16 7l17 210h175v-22h-155zM579 -7q-27 0 -49 11.5t-38 36 t-25 64t-9 95.5q0 112 33 163t90 51q32 0 56 -15t37 -49l-19 -10q-12 29 -31 41t-43 12q-21 0 -39.5 -10.5t-31.5 -33.5t-20.5 -60t-7.5 -90q0 -24 3 -51q3 50 29.5 78t68.5 28q45 0 72.5 -32t27.5 -96q0 -61 -26.5 -97t-77.5 -36zM494 120q0 -18 5 -37t15.5 -34.5t26 -25 t37.5 -9.5q37 0 59 28.5t22 83.5q0 51 -21.5 79t-59.5 28t-61 -29.5t-23 -83.5zM486 701l-247 -701h-28l247 701h28z" />
<glyph unicode="&#x215b;" horiz-adv-x="619" d="M12 0zM90 293h-24v369l-43 -44l-11 21l62 62h16v-408zM474 -7q-52 0 -80 31.5t-28 86.5q0 43 19 71t51 37q-26 9 -41.5 33t-15.5 61q0 48 24.5 74.5t70.5 26.5q47 0 71.5 -26.5t24.5 -74.5q0 -36 -16 -60.5t-42 -33.5q32 -8 51 -36t19 -72q0 -55 -27.5 -86.5t-80.5 -31.5 zM547 312q0 37 -18 59t-55 22t-54.5 -22t-17.5 -59q0 -38 18 -60.5t54 -22.5t54.5 22.5t18.5 60.5zM558 112q0 43 -21.5 69t-62.5 26t-62.5 -26t-21.5 -69q0 -45 21 -71.5t63 -26.5t63 26.5t21 71.5zM382 701l-247 -701h-28l247 701h28z" />
<glyph unicode="&#x215c;" horiz-adv-x="723" d="M24 0zM131 286q-76 0 -107 74l21 9q14 -32 34.5 -46.5t49.5 -14.5q45 0 66 27t21 72q0 36 -16 62.5t-58 26.5h-43v21h43q28 0 46.5 22.5t18.5 63.5q0 40 -19.5 61.5t-56.5 21.5q-30 0 -48.5 -16t-31.5 -49l-21 9q14 39 38.5 58t65.5 19q51 0 74 -27.5t23 -72.5 q0 -37 -13.5 -62.5t-38.5 -36.5q35 -11 48 -40t13 -61q0 -56 -27.5 -88.5t-81.5 -32.5zM578 -7q-52 0 -80 31.5t-28 86.5q0 43 19 71t51 37q-26 9 -41.5 33t-15.5 61q0 48 24.5 74.5t70.5 26.5q47 0 71.5 -26.5t24.5 -74.5q0 -36 -16 -60.5t-42 -33.5q32 -8 51 -36t19 -72 q0 -55 -27.5 -86.5t-80.5 -31.5zM651 312q0 37 -18 59t-55 22t-54.5 -22t-17.5 -59q0 -38 18 -60.5t54 -22.5t54.5 22.5t18.5 60.5zM662 112q0 43 -21.5 69t-62.5 26t-62.5 -26t-21.5 -69q0 -45 21 -71.5t63 -26.5t63 26.5t21 71.5zM486 701l-247 -701h-28l247 701h28z" />
<glyph unicode="&#x215d;" horiz-adv-x="723" d="M27 0zM578 -7q-52 0 -80 31.5t-28 86.5q0 43 19 71t51 37q-26 9 -41.5 33t-15.5 61q0 48 24.5 74.5t70.5 26.5q47 0 71.5 -26.5t24.5 -74.5q0 -36 -16 -60.5t-42 -33.5q32 -8 51 -36t19 -72q0 -55 -27.5 -86.5t-80.5 -31.5zM651 312q0 37 -18 59t-55 22t-54.5 -22 t-17.5 -59q0 -38 18 -60.5t54 -22.5t54.5 22.5t18.5 60.5zM662 112q0 43 -21.5 69t-62.5 26t-62.5 -26t-21.5 -69q0 -45 21 -71.5t63 -26.5t63 26.5t21 71.5zM77 679l-14 -168q18 20 39.5 27.5t42.5 7.5q45 0 73.5 -29t28.5 -94q0 -60 -28 -98.5t-84 -38.5q-35 0 -63.5 17 t-44.5 55l21 12q24 -62 86 -62q47 0 68 33t21 82q0 103 -85 103q-26 0 -45 -11t-37 -31l-16 7l17 210h175v-22h-155zM486 701l-247 -701h-28l247 701h28z" />
<glyph unicode="&#x215e;" horiz-adv-x="671" d="M22 0zM526 -7q-52 0 -80 31.5t-28 86.5q0 43 19 71t51 37q-26 9 -41.5 33t-15.5 61q0 48 24.5 74.5t70.5 26.5q47 0 71.5 -26.5t24.5 -74.5q0 -36 -16 -60.5t-42 -33.5q32 -8 51 -36t19 -72q0 -55 -27.5 -86.5t-80.5 -31.5zM599 312q0 37 -18 59t-55 22t-54.5 -22 t-17.5 -59q0 -38 18 -60.5t54 -22.5t54.5 22.5t18.5 60.5zM610 112q0 43 -21.5 69t-62.5 26t-62.5 -26t-21.5 -69q0 -45 21 -71.5t63 -26.5t63 26.5t21 71.5zM100 293h-25q0 54 8.5 109.5t24.5 107.5t38 95.5t49 73.5l-173 -1v23h201v-20q-27 -26 -49.5 -67t-38.5 -92 t-25 -109.5t-10 -119.5zM434 701l-247 -701h-28l247 701h28z" />
<glyph unicode="&#x215f;" horiz-adv-x="623" d="M12 0zM90 293h-24v369l-43 -44l-11 21l62 62h16v-408zM382 701l-247 -701h-28l247 701h28z" />
<glyph unicode="&#x2212;" horiz-adv-x="368" d="M328 318v-25h-288v25h288z" />
<glyph unicode="&#x2248;" horiz-adv-x="370" d="M248 353q20 0 42.5 8t39.5 24v-26q-15 -15 -38.5 -23t-43.5 -8t-35 6.5t-29.5 14.5t-29.5 14.5t-34 6.5q-20 0 -41.5 -7.5t-38.5 -23.5v26q16 15 38 23t42 8t36 -6.5t30.5 -15t29 -15t32.5 -6.5zM248 242q20 0 42.5 8t39.5 24v-27q-15 -15 -38.5 -22.5t-43.5 -7.5 t-35 6.5t-29.5 14.5t-29.5 14.5t-34 6.5q-20 0 -41.5 -7.5t-38.5 -24.5v27q16 15 38 22.5t42 7.5t36 -6.5t30.5 -14.5t29 -14.5t32.5 -6.5z" />
<glyph unicode="&#x2260;" horiz-adv-x="368" d="M40 351v26h172l79 125h24l-79 -125h92v-26h-106l-52 -84h158v-25h-172l-77 -122h-25l77 122h-91v25h106l51 84h-157z" />
<glyph unicode="&#x2264;" horiz-adv-x="393" d="M295 494l14 -20l-194 -157l194 -157l-14 -21l-213 170v15zM78 0v25h237v-25h-237z" />
<glyph unicode="&#x2265;" horiz-adv-x="393" d="M96 140l-14 20l193 157l-193 156l15 22l212 -170v-14zM315 25v-25h-237v25h237z" />
<glyph unicode="&#x25fc;" horiz-adv-x="480" d="M0 480h480v-480h-480v480z" />
<glyph unicode="&#xf6c3;" d="M249 -113q0 -36 -13 -66t-36 -44l-10 13q18 12 29 35.5t12 49.5q-14 -6 -25.5 1t-11.5 24q0 14 7.5 21t19.5 7q14 0 21 -9t7 -32z" />
<glyph horiz-adv-x="288" d="M172 -65v831h27v-831h-27zM89 -65v831h27v-831h-27z" />
<glyph horiz-adv-x="153" d="M92 560q-25 15 -38 46t-13 67q0 24 8 33.5t22 9.5q11 0 19 -8t8 -22q0 -17 -11.5 -24.5t-25.5 -1.5q1 -26 11 -49.5t30 -36.5z" />
<glyph horiz-adv-x="244" d="M92 560q-25 15 -38 46t-13 67q0 24 8 33.5t22 9.5q11 0 19 -8t8 -22q0 -17 -11.5 -24.5t-25.5 -1.5q1 -26 11 -49.5t30 -36.5zM182 560q-25 15 -38 46t-13 67q0 24 8 33.5t22 9.5q11 0 19 -8t8 -22q0 -17 -11.5 -24.5t-25.5 -1.5q1 -26 11 -49.5t30 -36.5z" />
<glyph horiz-adv-x="452" d="M51 0zM345 244q0 111 -37.5 164.5t-94.5 53.5q-66 0 -99 -58t-33 -165q0 -109 32.5 -166t98.5 -57q58 0 95.5 55.5t37.5 172.5zM205 -10q-75 0 -114.5 64t-39.5 185q0 120 40.5 184.5t117.5 64.5q49 0 86.5 -30t51.5 -93l2 113h25v-478h-25l-3 121q-14 -68 -52 -99.5 t-89 -31.5zM348 -198q-15 0 -28.5 4.5t-24 14.5t-16.5 27t-6 42q0 28 9 51t23.5 39t31.5 25t33 11l2 -16q-29 -5 -52.5 -34t-23.5 -74q0 -38 16 -52.5t37 -14.5q14 0 25 3.5t22 13.5l11 -19q-14 -12 -29 -16.5t-30 -4.5z" />
<glyph d="M345 244q0 111 -37.5 164.5t-94.5 53.5q-66 0 -99 -58t-33 -165q0 -109 32.5 -166t98.5 -57q58 0 95.5 55.5t37.5 172.5zM205 -10q-75 0 -114.5 64t-39.5 185q0 120 40.5 184.5t117.5 64.5q49 0 86.5 -30t51.5 -93l2 113h25v-478h-25l-3 121q-14 -68 -52 -99.5t-89 -31.5 z" />
<glyph d="M51 0zM345 244q0 111 -37.5 164.5t-94.5 53.5q-66 0 -99 -58t-33 -165q0 -109 32.5 -166t98.5 -57q58 0 95.5 55.5t37.5 172.5zM205 -10q-75 0 -114.5 64t-39.5 185q0 120 40.5 184.5t117.5 64.5q49 0 86.5 -30t51.5 -93l2 113h25v-478h-25l-3 121q-14 -68 -52 -99.5 t-89 -31.5zM201 564l-76 103v4h38l62 -104v-3h-24z" />
<glyph d="M51 0zM345 244q0 111 -37.5 164.5t-94.5 53.5q-66 0 -99 -58t-33 -165q0 -109 32.5 -166t98.5 -57q58 0 95.5 55.5t37.5 172.5zM205 -10q-75 0 -114.5 64t-39.5 185q0 120 40.5 184.5t117.5 64.5q49 0 86.5 -30t51.5 -93l2 113h25v-478h-25l-3 121q-14 -68 -52 -99.5 t-89 -31.5zM288 666l-75 -103h-25v3l62 104h38v-4z" />
<glyph d="M51 0zM209 649l-69 -86h-31v2l88 105h25l87 -105v-2h-31zM345 244q0 111 -37.5 164.5t-94.5 53.5q-66 0 -99 -58t-33 -165q0 -109 32.5 -166t98.5 -57q58 0 95.5 55.5t37.5 172.5zM205 -10q-75 0 -114.5 64t-39.5 185q0 120 40.5 184.5t117.5 64.5q49 0 86.5 -30 t51.5 -93l2 113h25v-478h-25l-3 121q-14 -68 -52 -99.5t-89 -31.5z" />
<glyph d="M51 0zM232 610q0 14 7.5 22t19.5 8q27 0 27 -30q0 -29 -27 -29q-12 0 -19.5 7.5t-7.5 21.5zM125 610q0 14 7.5 22t19.5 8q27 0 27 -30q0 -29 -27 -29q-12 0 -19.5 7.5t-7.5 21.5zM345 244q0 111 -37.5 164.5t-94.5 53.5q-66 0 -99 -58t-33 -165q0 -109 32.5 -166 t98.5 -57q58 0 95.5 55.5t37.5 172.5zM205 -10q-75 0 -114.5 64t-39.5 185q0 120 40.5 184.5t117.5 64.5q49 0 86.5 -30t51.5 -93l2 113h25v-478h-25l-3 121q-14 -68 -52 -99.5t-89 -31.5z" />
<glyph d="M51 0zM345 244q0 111 -37.5 164.5t-94.5 53.5q-66 0 -99 -58t-33 -165q0 -109 32.5 -166t98.5 -57q58 0 95.5 55.5t37.5 172.5zM205 -10q-75 0 -114.5 64t-39.5 185q0 120 40.5 184.5t117.5 64.5q49 0 86.5 -30t51.5 -93l2 113h25v-478h-25l-3 121q-14 -68 -52 -99.5 t-89 -31.5zM283 656h22q0 -23 -4.5 -37.5t-12 -23t-16.5 -11.5t-18 -3q-16 0 -27 8.5t-21 19t-20 19t-23 8.5q-11 0 -19.5 -10t-8.5 -41h-22q0 23 5 37.5t12 22.5t15.5 11t17.5 3q16 0 27.5 -8.5t21.5 -18.5t20 -18.5t24 -8.5q12 0 19 11t8 40z" />
<glyph d="M51 0zM345 244q0 111 -37.5 164.5t-94.5 53.5q-66 0 -99 -58t-33 -165q0 -109 32.5 -166t98.5 -57q58 0 95.5 55.5t37.5 172.5zM205 -10q-75 0 -114.5 64t-39.5 185q0 120 40.5 184.5t117.5 64.5q49 0 86.5 -30t51.5 -93l2 113h25v-478h-25l-3 121q-14 -68 -52 -99.5 t-89 -31.5zM138 629q0 35 20 58t52 23q30 0 50 -23t20 -58t-20 -57.5t-51 -22.5t-51 22.5t-20 57.5zM160 629q0 -26 14 -43t35 -17t35 17t14 43q0 27 -14 44t-34 17q-22 0 -36 -17t-14 -44z" />
<glyph d="M51 0zM345 244q0 111 -37.5 164.5t-94.5 53.5q-66 0 -99 -58t-33 -165q0 -109 32.5 -166t98.5 -57q58 0 95.5 55.5t37.5 172.5zM205 -10q-75 0 -114.5 64t-39.5 185q0 120 40.5 184.5t117.5 64.5q49 0 86.5 -30t51.5 -93l2 113h25v-478h-25l-3 121q-14 -68 -52 -99.5 t-89 -31.5zM295 626v-23h-171v23h171z" />
<glyph d="M51 0zM345 244q0 111 -37.5 164.5t-94.5 53.5q-66 0 -99 -58t-33 -165q0 -109 32.5 -166t98.5 -57q58 0 95.5 55.5t37.5 172.5zM205 -10q-75 0 -114.5 64t-39.5 185q0 120 40.5 184.5t117.5 64.5q49 0 86.5 -30t51.5 -93l2 113h25v-478h-25l-3 121q-14 -68 -52 -99.5 t-89 -31.5zM278 669h21q0 -59 -24 -82t-67 -23t-67 23t-24 82h22q0 -48 17.5 -65.5t51.5 -17.5q33 0 51.5 17.5t18.5 65.5z" />
<glyph horiz-adv-x="450" d="M207 -205q-54 0 -92.5 24.5t-62.5 84.5l26 13q20 -54 52.5 -75t74.5 -21q62 0 100 42t38 141v111q-14 -59 -52.5 -88.5t-89.5 -29.5q-128 0 -128 187v294h29v-288q0 -93 28.5 -130.5t77.5 -37.5q32 0 56 14t40.5 39t26 60t12.5 78v265h29v-479q0 -53 -12 -91.5t-34 -63.5 t-52 -37t-67 -12z" />
<glyph horiz-adv-x="450" d="M52 0zM207 -205q-54 0 -92.5 24.5t-62.5 84.5l26 13q20 -54 52.5 -75t74.5 -21q62 0 100 42t38 141v111q-14 -59 -52.5 -88.5t-89.5 -29.5q-128 0 -128 187v294h29v-288q0 -93 28.5 -130.5t77.5 -37.5q32 0 56 14t40.5 39t26 60t12.5 78v265h29v-479q0 -53 -12 -91.5 t-34 -63.5t-52 -37t-67 -12zM294 666l-75 -103h-25v3l62 104h38v-4z" />
<glyph horiz-adv-x="450" d="M52 0zM228 649l-69 -86h-31v2l88 105h25l87 -105v-2h-31zM207 -205q-54 0 -92.5 24.5t-62.5 84.5l26 13q20 -54 52.5 -75t74.5 -21q62 0 100 42t38 141v111q-14 -59 -52.5 -88.5t-89.5 -29.5q-128 0 -128 187v294h29v-288q0 -93 28.5 -130.5t77.5 -37.5q32 0 56 14 t40.5 39t26 60t12.5 78v265h29v-479q0 -53 -12 -91.5t-34 -63.5t-52 -37t-67 -12z" />
<glyph horiz-adv-x="450" d="M52 0zM253 610q0 14 7.5 22t19.5 8q27 0 27 -30q0 -29 -27 -29q-12 0 -19.5 7.5t-7.5 21.5zM146 610q0 14 7.5 22t19.5 8q27 0 27 -30q0 -29 -27 -29q-12 0 -19.5 7.5t-7.5 21.5zM207 -205q-54 0 -92.5 24.5t-62.5 84.5l26 13q20 -54 52.5 -75t74.5 -21q62 0 100 42 t38 141v111q-14 -59 -52.5 -88.5t-89.5 -29.5q-128 0 -128 187v294h29v-288q0 -93 28.5 -130.5t77.5 -37.5q32 0 56 14t40.5 39t26 60t12.5 78v265h29v-479q0 -53 -12 -91.5t-34 -63.5t-52 -37t-67 -12z" />
<glyph horiz-adv-x="295" d="M156 360q-57 0 -87 42t-30 132q0 91 30.5 133.5t88.5 42.5q74 0 100 -70l-19 -11q-11 30 -32.5 45t-48.5 15q-48 0 -71.5 -36t-23.5 -119q0 -81 23 -117t71 -36q32 0 52.5 15.5t31.5 52.5l19 -9q-12 -42 -39 -61t-65 -19z" />
<glyph horiz-adv-x="324" d="M245 539q0 77 -26 113.5t-65 36.5q-46 0 -68.5 -40t-22.5 -115t23 -114t68 -39q40 0 65.5 38.5t25.5 119.5zM247 367l-2 84q-10 -48 -36.5 -69.5t-60.5 -21.5q-53 0 -81 44.5t-28 129.5t29 130.5t83 45.5q33 0 58.5 -20.5t36.5 -65.5l2 78h20v-335h-21z" />
<glyph d="M216 516h-21l5 184h31z" />
<glyph horiz-adv-x="163" d="M63 0l5 530h23l5 -530h-33zM80 706q12 0 19.5 -8t7.5 -22t-7.5 -22t-19.5 -8q-27 0 -27 30q0 14 7 22t20 8z" />
<glyph horiz-adv-x="370" d="M188 533l1 -131h-14q-75 0 -114 -52.5t-39 -142.5q0 -89 41 -138t112 -49q24 0 47 6.5t43 22t36 40.5t27 62l26 -10q-12 -42 -31 -70.5t-42.5 -45.5t-50.5 -24.5t-56 -7.5q-85 0 -133 56.5t-48 156.5q0 49 11.5 88.5t33 68t52.5 44.5t71 17l1 109h26zM176 709 q12 0 19.5 -8t7.5 -22t-7.5 -22t-19.5 -8q-27 0 -27 30q0 14 7 22t20 8z" />
<glyph horiz-adv-x="281" d="M242 256v-26h-202v26h202z" />
<glyph horiz-adv-x="521" d="M482 256v-26h-442v26h442z" />
<glyph horiz-adv-x="537" d="M296 286v25h191v-22q0 -87 -15.5 -144.5t-42.5 -92t-64 -48.5t-80 -14q-53 0 -94.5 20t-70.5 63t-44 111.5t-15 165.5q0 99 15 167.5t44 111t71 62t95 19.5q33 0 61.5 -7.5t53 -25.5t43.5 -47.5t32 -73.5l-27 -12q-12 40 -28.5 67t-37.5 43t-45.5 22.5t-52.5 6.5 q-44 0 -79.5 -16.5t-61 -55.5t-39 -103t-13.5 -158q0 -93 13.5 -157t39 -103.5t61 -56.5t79.5 -17q39 0 71 14t54.5 46t34.5 83.5t11 126.5h-160z" />
<glyph horiz-adv-x="464" d="M90 0v700h30v-700h-30zM415 0l-281 343v3l265 354h34l-266 -353l286 -347h-38z" />
<glyph horiz-adv-x="379" d="M78 0v700h29v-700h-29zM323 0l-204 233v3l193 242h33l-194 -241l208 -237h-36z" />
<glyph horiz-adv-x="613" d="M56 14zM314 14q-60 0 -108 24t-81.5 67.5t-51 105.5t-17.5 138t17.5 138t51 106t81.5 67.5t108 23.5q58 0 103.5 -21.5t76.5 -61t47.5 -95t16.5 -123.5q0 -85 -27 -135t-79 -50q-32 0 -49 21.5t-17 66.5q-11 -52 -37.5 -75.5t-64.5 -23.5q-40 0 -63.5 24t-23.5 67 q0 51 33 79t86 28h66q0 70 -20.5 95.5t-59.5 25.5q-32 0 -50.5 -13.5t-32.5 -41.5l-17 11q28 64 102 64q51 0 75.5 -32t24.5 -105v-90q0 -83 51 -83q42 0 62.5 44.5t20.5 121.5q0 66 -15.5 119t-44.5 89.5t-70.5 56.5t-93.5 20q-55 0 -99 -22t-75 -63.5t-47.5 -100.5 t-16.5 -132q0 -74 17 -132.5t48 -100t75 -63.5t98 -22q120 0 183 91l13 -11q-33 -48 -82.5 -72.5t-113.5 -24.5zM288 207q45 0 68 40t26 106v14h-62q-46 0 -73.5 -22.5t-27.5 -66.5q0 -33 18.5 -52t50.5 -19z" />
<glyph horiz-adv-x="515" d="M60 350q0 98 13 166.5t37.5 111.5t61.5 62.5t85 19.5t85 -19.5t62 -62.5t38 -111.5t13 -166.5t-13 -166.5t-38 -111.5t-62 -62.5t-85 -19.5t-85 19.5t-61.5 63t-37.5 111.5t-13 166zM425 350q0 93 -11.5 157t-33 103.5t-53 56.5t-70.5 17t-70 -17t-52.5 -56.5t-33 -103.5 t-11.5 -157q0 -94 11.5 -158t33 -103t52.5 -56t70 -17t70.5 17t53 56t33 103t11.5 158z" />
<glyph horiz-adv-x="224" d="M134 0h-30v652l-73 -79l-17 21l100 106h20v-700z" />
<glyph horiz-adv-x="420" d="M32 0v25l209 307q47 69 68.5 121t21.5 99q0 64 -32 98t-92 34q-53 0 -94.5 -29t-64.5 -105l-25 11q14 42 33 71t42.5 46t51 24.5t58.5 7.5q78 0 116 -42.5t38 -111.5q0 -24 -5 -49.5t-16 -54t-29.5 -61.5t-45.5 -73l-201 -293l326 1v-26h-359z" />
<glyph horiz-adv-x="444" d="M212 16q79 0 116.5 49t37.5 129q0 32 -7.5 61.5t-24 51.5t-43 35t-63.5 13h-68v27h67q25 0 47.5 10.5t39 30.5t26 48.5t9.5 65.5q0 69 -33.5 108t-99.5 39q-115 0 -150 -125l-25 12q21 71 63.5 105t114.5 34q82 0 121 -47t39 -123q0 -62 -24.5 -106t-72.5 -64 q55 -13 84.5 -58.5t29.5 -116.5q0 -96 -45.5 -150.5t-137.5 -54.5q-66 0 -111.5 32t-67.5 102l26 12q18 -66 57.5 -93t94.5 -27z" />
<glyph horiz-adv-x="475" d="M38 196v24l186 480h30l-186 -478h267v362h29v-362h88v-26h-88v-196h-29v196h-297z" />
<glyph horiz-adv-x="449" d="M213 -10q-66 0 -112.5 31t-68.5 103l26 12q19 -66 58.5 -93t95.5 -27q42 0 72.5 16t49.5 44t28 65.5t9 80.5q0 184 -151 184q-47 0 -80.5 -19t-65.5 -55l-20 8l28 360h291v-26h-266l-22 -302q27 33 65.5 47t76.5 14q78 0 126 -50.5t48 -159.5q0 -51 -11.5 -94t-35 -73.5 t-59 -48t-82.5 -17.5z" />
<glyph horiz-adv-x="483" d="M263 -10q-44 0 -81 18.5t-64 60.5t-42.5 109t-15.5 164t14.5 166.5t41 114.5t64.5 66t85 21q59 0 98 -28.5t62 -96.5l-25 -12q-20 61 -52.5 86t-81.5 25q-39 0 -71 -18.5t-55.5 -59.5t-36.5 -106.5t-13 -159.5q0 -23 1 -49t5 -58q0 45 11.5 82t33.5 63.5t53 41.5t71 15 q75 0 122.5 -54.5t47.5 -164.5q0 -105 -43.5 -165.5t-128.5 -60.5zM261 16q66 0 105 50.5t39 148.5q0 91 -38 142.5t-107 51.5t-110.5 -54t-41.5 -150q0 -33 9 -66.5t27.5 -60.5t47.5 -44.5t69 -17.5z" />
<glyph horiz-adv-x="373" d="M122 0q-1 96 13.5 194t42 188t67 165.5t87.5 126.5h-301v26h339v-25q-48 -43 -88.5 -113.5t-69 -159.5t-44 -192t-15.5 -210h-31z" />
<glyph horiz-adv-x="476" d="M238 -10q-85 0 -133 53.5t-48 146.5q0 75 35 124t88 63q-45 15 -73.5 56t-28.5 107q0 81 42.5 125.5t117.5 44.5t118 -44.5t43 -125.5q0 -66 -29.5 -106.5t-75.5 -56.5q54 -14 89.5 -62.5t35.5 -124.5q0 -93 -48 -146.5t-133 -53.5zM370 539q0 66 -33.5 105.5t-98.5 39.5 q-63 0 -97 -39.5t-34 -105.5q0 -68 34.5 -108.5t96.5 -40.5t97 40.5t35 108.5zM238 16q73 0 112 48t39 127q0 76 -39.5 124t-111.5 48q-35 0 -63 -13t-47.5 -36t-30 -54.5t-10.5 -68.5q0 -79 39.5 -127t111.5 -48z" />
<glyph horiz-adv-x="482" d="M221 684q-66 0 -105 -50.5t-39 -148.5q0 -92 38 -143.5t107 -51.5t110.5 54t41.5 151q0 33 -9 66.5t-28 60.5t-47.5 44.5t-68.5 17.5zM220 710q44 0 81 -18.5t64 -60.5t42.5 -109t15.5 -164t-14.5 -166.5t-41 -114.5t-64.5 -66t-85 -21q-59 0 -98 28.5t-62 96.5l25 12 q20 -61 52.5 -86t81.5 -25q39 0 71 18.5t55.5 59.5t36.5 106.5t13 159.5q0 23 -1 49t-5 58q0 -45 -11.5 -82.5t-33.5 -64t-53 -41.5t-71 -15q-76 0 -123.5 54.5t-47.5 165.5q0 105 44 165.5t129 60.5z" />
<glyph horiz-adv-x="535" d="M268 610q43 0 77 -17t58 -54t36.5 -96t12.5 -143t-12.5 -143t-36.5 -96t-58 -54t-77 -17q-44 0 -78 17t-57.5 54t-36 96t-12.5 143t12.5 143t36 96t57.5 54t78 17zM268 584q-37 0 -65.5 -14.5t-48.5 -47.5t-30.5 -87.5t-10.5 -134.5t10.5 -134.5t30.5 -87.5t48.5 -47.5 t65.5 -14.5q36 0 64.5 14.5t48.5 47.5t30.5 87.5t10.5 134.5t-10.5 134.5t-30.5 87.5t-48.5 47.5t-64.5 14.5z" />
<glyph horiz-adv-x="535" d="M440 0h-344v26h158v526l-71 -77l-17 19l98 106h19v-574h157v-26z" />
<glyph horiz-adv-x="535" d="M99 0v22l196 254q26 34 44.5 61.5t30.5 51t18 44t6 40.5q0 55 -30.5 83t-85.5 28q-46 0 -82 -26t-57 -94l-25 10q23 76 66 106t101 30q72 0 107.5 -37.5t35.5 -97.5q0 -22 -6 -44t-18.5 -47.5t-32.5 -55t-48 -65.5l-185 -238l308 1v-26h-343z" />
<glyph horiz-adv-x="535" d="M265 -84q79 0 116.5 49t37.5 129q0 32 -7.5 61.5t-24 51.5t-43 35t-63.5 13h-68v27h67q25 0 47.5 10.5t39 30.5t26 48.5t9.5 65.5q0 69 -33.5 108t-99.5 39q-115 0 -150 -125l-25 12q21 71 63.5 105t114.5 34q82 0 121 -47t39 -123q0 -62 -24.5 -106t-72.5 -64 q55 -13 84.5 -58.5t29.5 -116.5q0 -96 -45.5 -150.5t-137.5 -54.5q-66 0 -111.5 32t-67.5 102l26 12q18 -66 57.5 -93t94.5 -27z" />
<glyph horiz-adv-x="535" d="M61 96v24l186 480h30l-186 -478h267v362h29v-362h88v-26h-88v-196h-29v196h-297z" />
<glyph horiz-adv-x="535" d="M264 -110q-66 0 -112.5 31t-68.5 103l26 12q19 -66 58.5 -93t95.5 -27q42 0 72.5 16t49.5 44t28 65.5t9 80.5q0 184 -151 184q-47 0 -80.5 -19t-65.5 -55l-20 8l28 360h291v-26h-266l-22 -302q27 33 65.5 47t76.5 14q78 0 126 -50.5t48 -159.5q0 -51 -11.5 -94t-35 -73.5 t-59 -48t-82.5 -17.5z" />
<glyph horiz-adv-x="535" d="M283 -10q-44 0 -81 18.5t-64 60.5t-42.5 109t-15.5 164t14.5 166.5t41 114.5t64.5 66t85 21q59 0 98 -28.5t62 -96.5l-25 -12q-20 61 -52.5 86t-81.5 25q-39 0 -71 -18.5t-55.5 -59.5t-36.5 -106.5t-13 -159.5q0 -23 1 -49t5 -58q0 45 11.5 82t33.5 63.5t53 41.5t71 15 q75 0 122.5 -54.5t47.5 -164.5q0 -105 -43.5 -165.5t-128.5 -60.5zM281 16q66 0 105 50.5t39 148.5q0 91 -38 142.5t-107 51.5t-110.5 -54t-41.5 -150q0 -33 9 -66.5t27.5 -60.5t47.5 -44.5t69 -17.5z" />
<glyph horiz-adv-x="535" d="M189 -100q-1 96 13.5 194t42 188t67 165.5t87.5 126.5h-301v26h339v-25q-48 -43 -88.5 -113.5t-69 -159.5t-44 -192t-15.5 -210h-31z" />
<glyph horiz-adv-x="535" d="M268 -10q-85 0 -133 53.5t-48 146.5q0 75 35 124t88 63q-45 15 -73.5 56t-28.5 107q0 81 42.5 125.5t117.5 44.5t118 -44.5t43 -125.5q0 -66 -29.5 -106.5t-75.5 -56.5q54 -14 89.5 -62.5t35.5 -124.5q0 -93 -48 -146.5t-133 -53.5zM400 539q0 66 -33.5 105.5t-98.5 39.5 q-63 0 -97 -39.5t-34 -105.5q0 -68 34.5 -108.5t96.5 -40.5t97 40.5t35 108.5zM268 16q73 0 112 48t39 127q0 76 -39.5 124t-111.5 48q-35 0 -63 -13t-47.5 -36t-30 -54.5t-10.5 -68.5q0 -79 39.5 -127t111.5 -48z" />
<glyph horiz-adv-x="535" d="M254 584q-66 0 -105 -50.5t-39 -148.5q0 -92 38 -143.5t107 -51.5t110.5 54t41.5 151q0 33 -9 66.5t-28 60.5t-47.5 44.5t-68.5 17.5zM253 610q44 0 81 -18.5t64 -60.5t42.5 -109t15.5 -164t-14.5 -166.5t-41 -114.5t-64.5 -66t-85 -21q-59 0 -98 28.5t-62 96.5l25 12 q20 -61 52.5 -86t81.5 -25q39 0 71 18.5t55.5 59.5t36.5 106.5t13 159.5q0 23 -1 49t-5 58q0 -45 -11.5 -82.5t-33.5 -64t-53 -41.5t-71 -15q-76 0 -123.5 54.5t-47.5 165.5q0 105 44 165.5t129 60.5z" />
<glyph horiz-adv-x="475" d="M237 610q43 0 77 -17t58 -54t36.5 -96t12.5 -143t-12.5 -143t-36.5 -96t-58 -54t-77 -17q-44 0 -78 17t-57.5 54t-36 96t-12.5 143t12.5 143t36 96t57.5 54t78 17zM237 584q-37 0 -65.5 -14.5t-48.5 -47.5t-30.5 -87.5t-10.5 -134.5t10.5 -134.5t30.5 -87.5t48.5 -47.5 t65.5 -14.5q36 0 64.5 14.5t48.5 47.5t30.5 87.5t10.5 134.5t-10.5 134.5t-30.5 87.5t-48.5 47.5t-64.5 14.5z" />
<glyph horiz-adv-x="208" d="M131 0h-29v552l-71 -77l-17 19l98 106h19v-600z" />
<glyph horiz-adv-x="402" d="M39 0v22l191 254q50 67 72 112t22 85q0 55 -29 83t-82 28q-44 0 -78.5 -26t-55.5 -94l-25 10q23 76 64 106t98 30q70 0 104 -37.5t34 -97.5q0 -22 -5.5 -44t-17.5 -47.5t-31 -55t-46 -65.5l-180 -238l298 1v-26h-333z" />
<glyph horiz-adv-x="424" d="M199 -85q77 0 113 49t36 129q0 33 -7 62t-23.5 51.5t-42.5 35.5t-64 13h-60v27h60q25 0 47 10.5t38.5 30.5t26 48.5t9.5 65.5q0 70 -32 108.5t-97 38.5q-107 0 -142 -124l-26 11q20 69 60.5 104t109.5 35q80 0 118 -47t38 -124q0 -62 -24.5 -105.5t-72.5 -63.5 q55 -13 84.5 -58t29.5 -117q0 -96 -44 -150.5t-135 -54.5q-62 0 -105 30.5t-66 103.5l26 12q19 -65 55 -93t90 -28z" />
<glyph horiz-adv-x="455" d="M38 96v23l177 481h29l-177 -479h253v363h29v-363h83v-25h-83v-196h-29v196h-282z" />
<glyph horiz-adv-x="431" d="M205 -110q-66 0 -110.5 31t-66.5 103l26 12q19 -66 57.5 -93.5t93.5 -27.5q40 0 69 16.5t47.5 44.5t27 65.5t8.5 80.5q0 92 -36.5 138t-106.5 46q-50 0 -81.5 -21.5t-57.5 -52.5l-20 8l26 360h279v-26h-253l-22 -301q49 60 138 60q36 0 65.5 -12.5t51.5 -38t34 -65 t12 -94.5q0 -51 -11.5 -94t-34 -73.5t-56.5 -48t-79 -17.5z" />
<glyph horiz-adv-x="453" d="M246 -10q-42 0 -77.5 20t-61 62.5t-40 109.5t-14.5 160q0 97 14 166.5t39.5 114.5t61.5 66t81 21q57 0 94.5 -29.5t59.5 -95.5l-25 -13q-20 60 -50.5 86t-78.5 26q-36 0 -66.5 -18.5t-52.5 -59.5t-34.5 -106.5t-12.5 -159.5q0 -22 1 -45t4 -52q0 41 11 76t31.5 61 t50 40.5t67.5 14.5q74 0 119 -55t45 -164q0 -104 -42.5 -165t-123.5 -61zM246 16q62 0 99 50.5t37 148.5q0 91 -35.5 142.5t-102.5 51.5q-65 0 -104.5 -54t-39.5 -150q0 -33 9.5 -66.5t27.5 -60.5t45.5 -44.5t63.5 -17.5z" />
<glyph horiz-adv-x="355" d="M110 -100q-2 93 10.5 189t38.5 185.5t64 167t86 132.5h-285v26h321v-25q-45 -41 -83 -111t-66 -159t-43.5 -192.5t-13.5 -212.5h-29z" />
<glyph horiz-adv-x="444" d="M222 -10q-81 0 -127 53.5t-46 146.5q0 75 33.5 124t85.5 63q-44 15 -71 56.5t-27 106.5q0 80 40 125t112 45t112.5 -45t40.5 -125q0 -65 -28 -106.5t-71 -56.5q53 -14 86 -62.5t33 -124.5q0 -93 -45.5 -146.5t-127.5 -53.5zM346 539q0 67 -32 106t-92 39t-91.5 -39 t-31.5 -106q0 -69 32.5 -109t90.5 -40t91 40t33 109zM222 16q69 0 106 48t37 127q0 76 -37.5 124t-105.5 48q-33 0 -59.5 -13t-45 -36t-28.5 -54.5t-10 -68.5q0 -79 37 -127t106 -48z" />
<glyph horiz-adv-x="453" d="M207 584q-63 0 -99.5 -50.5t-36.5 -148.5q0 -91 36 -142.5t102 -51.5q65 0 104.5 53.5t39.5 149.5q0 33 -9.5 67t-27.5 61t-45.5 44.5t-63.5 17.5zM207 610q42 0 77.5 -20t61 -63t39.5 -109.5t14 -159.5q0 -97 -13.5 -166.5t-39 -114.5t-61.5 -66t-81 -21q-58 0 -96 29.5 t-60 95.5l26 12q20 -60 51 -85.5t79 -25.5q36 0 66.5 18.5t52.5 59.5t34.5 106.5t12.5 159.5q0 22 -1 45t-4 52q0 -41 -11 -76t-31.5 -61t-50.5 -40.5t-67 -14.5q-36 0 -66 13.5t-51.5 41t-34 68.5t-12.5 96q0 104 43 165t123 61z" />
<glyph horiz-adv-x="312" d="M37 0zM37 4q0 114 30 162t89 48q58 0 88 -48t30 -162t-30 -162.5t-88 -48.5q-59 0 -89 48.5t-30 162.5zM249 4q0 52 -6.5 88.5t-18.5 58.5t-29 32t-39 10t-39.5 -9.5t-29.5 -32t-18.5 -58.5t-6.5 -88q0 -54 6.5 -90.5t18.5 -59t29.5 -32t39.5 -9.5t39 9.5t29 32 t18.5 58.5t6.5 90z" />
<glyph horiz-adv-x="146" d="M12 0zM90 -200h-24v369l-43 -44l-11 21l62 62h16v-408z" />
<glyph horiz-adv-x="262" d="M23 0zM24 -200v20l123 173q32 45 42 72.5t10 48.5q0 78 -70 78q-33 0 -53 -18t-34 -53l-19 10q16 41 41 62t67 21q47 0 70 -26.5t23 -69.5q0 -29 -13 -60t-46 -78l-113 -158h188v-22h-216z" />
<glyph horiz-adv-x="275" d="M24 0zM131 -207q-76 0 -107 74l21 9q14 -32 34.5 -46.5t49.5 -14.5q45 0 66 27t21 72q0 36 -16 62.5t-58 26.5h-43v21h43q28 0 46.5 22.5t18.5 63.5q0 40 -19.5 61.5t-56.5 21.5q-30 0 -48.5 -16t-31.5 -49l-21 9q14 39 38.5 58t65.5 19q51 0 74 -27.5t23 -72.5 q0 -37 -13.5 -62.5t-38.5 -36.5q35 -11 48 -40t13 -61q0 -56 -27.5 -88.5t-81.5 -32.5z" />
<glyph horiz-adv-x="289" d="M25 0zM25 -89v20l107 277h25l-107 -275h148v202h24v-202h50v-22h-50v-111h-24v111h-173z" />
<glyph horiz-adv-x="272" d="M27 0zM77 186l-14 -168q18 20 39.5 27.5t42.5 7.5q45 0 73.5 -29t28.5 -94q0 -60 -28 -98.5t-84 -38.5q-35 0 -63.5 17t-44.5 55l21 12q24 -62 86 -62q47 0 68 33t21 82q0 103 -85 103q-26 0 -45 -11t-37 -31l-16 7l17 210h175v-22h-155z" />
<glyph horiz-adv-x="291" d="M37 0zM158 -207q-27 0 -49 11.5t-38 36t-25 64t-9 95.5q0 112 33 163t90 51q32 0 56 -15t37 -49l-19 -10q-12 29 -31 41t-43 12q-21 0 -39.5 -10.5t-31.5 -33.5t-20.5 -60t-7.5 -90q0 -24 3 -51q3 50 29.5 78t68.5 28q45 0 72.5 -32t27.5 -96q0 -61 -26.5 -97t-77.5 -36z M73 -80q0 -18 5 -37t15.5 -34.5t26 -25t37.5 -9.5q37 0 59 28.5t22 83.5q0 51 -21.5 79t-59.5 28t-61 -29.5t-23 -83.5z" />
<glyph horiz-adv-x="229" d="M22 0zM100 -200h-25q0 54 8.5 109.5t24.5 107.5t38 95.5t49 73.5l-173 -1v23h201v-20q-27 -26 -49.5 -67t-38.5 -92t-25 -109.5t-10 -119.5z" />
<glyph horiz-adv-x="289" d="M36 0zM144 -207q-52 0 -80 31.5t-28 86.5q0 43 19 71t51 37q-26 9 -41.5 33t-15.5 61q0 48 24.5 74.5t70.5 26.5q47 0 71.5 -26.5t24.5 -74.5q0 -36 -16 -60.5t-42 -33.5q32 -8 51 -36t19 -72q0 -55 -27.5 -86.5t-80.5 -31.5zM217 112q0 37 -18 59t-55 22t-54.5 -22 t-17.5 -59q0 -38 18 -60.5t54 -22.5t54.5 22.5t18.5 60.5zM228 -88q0 43 -21.5 69t-62.5 26t-62.5 -26t-21.5 -69q0 -45 21 -71.5t63 -26.5t63 26.5t21 71.5z" />
<glyph horiz-adv-x="290" d="M27 0zM216 87q0 18 -5 37t-15.5 34.5t-26.5 25t-37 9.5q-38 0 -59.5 -28t-21.5 -83q0 -51 21 -79.5t60 -28.5q38 0 61 29.5t23 83.5zM130 214q54 0 88 -47.5t34 -158.5q0 -112 -33 -163.5t-90 -51.5q-32 0 -56 15t-38 48l20 12q11 -29 30.5 -41.5t42.5 -12.5 q22 0 40 10.5t31 33.5t20.5 60t7.5 90q0 24 -3 51q-3 -50 -29 -78t-68 -28q-45 0 -72.5 32t-27.5 96q0 61 26 97t77 36z" />
<glyph horiz-adv-x="236" d="M33 0zM129 -135h-21v103h-75v19h75v109h21v-109h74v-19h-74v-103z" />
<glyph horiz-adv-x="236" d="M33 -12zM203 -12v-21h-170v21h170z" />
<glyph horiz-adv-x="236" d="M33 0zM203 24v-21h-170v21h170zM203 -43v-21h-170v21h170z" />
<glyph horiz-adv-x="163" d="M32 0zM130 -225l-7 -20q-44 11 -67.5 69.5t-23.5 160.5q0 103 23.5 162t67.5 70l7 -20q-36 -11 -56 -63t-20 -149q0 -95 20 -147t56 -63z" />
<glyph horiz-adv-x="163" d="M33 0zM38 -245l-5 20q35 11 55.5 63t20.5 147q0 97 -20.5 149t-55.5 63l5 20q45 -11 69 -70t24 -162q0 -102 -24 -160.5t-69 -69.5z" />
<glyph horiz-adv-x="185" d="M65 610q0 14 7.5 22t19.5 8q28 0 28 -30q0 -14 -7.5 -22t-20.5 -8q-12 0 -19.5 8t-7.5 22zM78 478h29v-478h-29v478z" />
<glyph horiz-adv-x="379" d="M78 0zM230 -113q0 -36 -13 -66t-36 -44l-10 13q18 12 29 35.5t12 49.5q-14 -6 -25.5 1t-11.5 24q0 14 7.5 21t19.5 7q14 0 21 -9t7 -32zM78 0v700h29v-700h-29zM323 0l-204 233v3l193 242h33l-194 -241l208 -237h-36z" />
<glyph horiz-adv-x="538" d="M61 0zM296 286v25h191v-22q0 -87 -15.5 -144.5t-42.5 -92t-64 -48.5t-80 -14q-53 0 -94.5 20t-70.5 63t-44 111.5t-15 165.5q0 99 15 167.5t44 111t71 62t95 19.5q33 0 61.5 -7.5t53 -25.5t43.5 -47.5t32 -73.5l-27 -12q-12 40 -28.5 67t-37.5 43t-45.5 22.5t-52.5 6.5 q-44 0 -79.5 -16.5t-61 -55.5t-39 -103t-13.5 -158q0 -93 13.5 -157t39 -103.5t61 -56.5t79.5 -17q39 0 71 14t54.5 46t34.5 83.5t11 126.5h-160zM354 891h21q0 -59 -24 -82t-67 -23t-67 23t-24 82h22q0 -48 17.5 -65.5t51.5 -17.5q33 0 51.5 17.5t18.5 65.5z" />
<glyph horiz-adv-x="538" d="M61 0zM296 286v25h191v-22q0 -87 -15.5 -144.5t-42.5 -92t-64 -48.5t-80 -14q-53 0 -94.5 20t-70.5 63t-44 111.5t-15 165.5q0 99 15 167.5t44 111t71 62t95 19.5q33 0 61.5 -7.5t53 -25.5t43.5 -47.5t32 -73.5l-27 -12q-12 40 -28.5 67t-37.5 43t-45.5 22.5t-52.5 6.5 q-44 0 -79.5 -16.5t-61 -55.5t-39 -103t-13.5 -158q0 -93 13.5 -157t39 -103.5t61 -56.5t79.5 -17q39 0 71 14t54.5 46t34.5 83.5t11 126.5h-160zM285 871l-69 -86h-31v2l88 105h25l87 -105v-2h-31z" />
<glyph horiz-adv-x="537" d="M61 0zM296 286v25h191v-22q0 -87 -15.5 -144.5t-42.5 -92t-64 -48.5t-80 -14q-53 0 -94.5 20t-70.5 63t-44 111.5t-15 165.5q0 99 15 167.5t44 111t71 62t95 19.5q33 0 61.5 -7.5t53 -25.5t43.5 -47.5t32 -73.5l-27 -12q-12 40 -28.5 67t-37.5 43t-45.5 22.5t-52.5 6.5 q-44 0 -79.5 -16.5t-61 -55.5t-39 -103t-13.5 -158q0 -93 13.5 -157t39 -103.5t61 -56.5t79.5 -17q39 0 71 14t54.5 46t34.5 83.5t11 126.5h-160zM313 -113q0 -36 -13 -66t-36 -44l-10 13q18 12 29 35.5t12 49.5q-14 -6 -25.5 1t-11.5 24q0 14 7.5 21t19.5 7q14 0 21 -9 t7 -32z" />
<glyph horiz-adv-x="538" d="M61 0zM296 286v25h191v-22q0 -87 -15.5 -144.5t-42.5 -92t-64 -48.5t-80 -14q-53 0 -94.5 20t-70.5 63t-44 111.5t-15 165.5q0 99 15 167.5t44 111t71 62t95 19.5q33 0 61.5 -7.5t53 -25.5t43.5 -47.5t32 -73.5l-27 -12q-12 40 -28.5 67t-37.5 43t-45.5 22.5t-52.5 6.5 q-44 0 -79.5 -16.5t-61 -55.5t-39 -103t-13.5 -158q0 -93 13.5 -157t39 -103.5t61 -56.5t79.5 -17q39 0 71 14t54.5 46t34.5 83.5t11 126.5h-160zM257 832q0 14 7.5 21.5t19.5 7.5q27 0 27 -29q0 -14 -7 -22t-20 -8q-12 0 -19.5 8t-7.5 22z" />
<glyph horiz-adv-x="464" d="M90 0zM90 0v700h30v-700h-30zM415 0l-281 343v3l265 354h34l-266 -353l286 -347h-38zM292 -113q0 -36 -13 -66t-36 -44l-10 13q18 12 29 35.5t12 49.5q-14 -6 -25.5 1t-11.5 24q0 14 7.5 21t19.5 7q14 0 21 -9t7 -32z" />
<glyph horiz-adv-x="306" d="M40 337zM266 363v-26h-226v26h226z" />
<glyph horiz-adv-x="442" d="M39 337zM402 363v-26h-363v26h363z" />
<glyph horiz-adv-x="590" d="M39 337zM551 363v-26h-512v26h512z" />
<glyph horiz-adv-x="442" d="M39 337zM402 363v-26h-363v26h363z" />
<glyph horiz-adv-x="185" d="M107 700v-700h-29v700h29z" />
<glyph horiz-adv-x="438" d="M252 454h-122v-454h-29v454h-72v24h72v97q0 37 8 62.5t21.5 41t31.5 22.5t39 7q14 0 30.5 -4t31.5 -14l-12 -24q-13 8 -25 11.5t-25 3.5q-35 0 -53 -25t-18 -85v-93h122v-24zM365 700v-700h-29v700h29z" />
<glyph horiz-adv-x="438" d="M0 0z" />
</font>
</defs>
</svg>
