<?xml version="1.0" standalone="no"?>
<!DOCTYPE svg PUBLIC "-//W3C//DTD SVG 1.1//EN" "http://www.w3.org/Graphics/SVG/1.1/DTD/svg11.dtd" >
<svg xmlns="http://www.w3.org/2000/svg" xmlns:xlink="http://www.w3.org/1999/xlink" version="1.1">
<metadata></metadata>
<defs>
<font id="honeywell_cond_webXBdIt" horiz-adv-x="535" >
<font-face units-per-em="1000" ascent="780" descent="-220" />
<missing-glyph horiz-adv-x="175" />
<glyph unicode="fi" horiz-adv-x="534" d="M402 628q0 42 22 68t67 26q32 0 49.5 -16.5t17.5 -46.5q0 -44 -23.5 -69.5t-65.5 -25.5q-32 0 -49.5 17t-17.5 47zM317 385h-94l-60 -385h-135l61 385h-58l18 111h58l9 50q15 94 65 139t119 45q57 0 89 -29l-49 -102q-14 12 -35 12q-20 0 -35.5 -15.5t-21.5 -55.5l-7 -44 h94zM390 496h136l-78 -496h-136z" />
<glyph unicode="fl" horiz-adv-x="551" d="M317 385h-94l-60 -385h-135l61 385h-58l18 111h58l9 50q14 94 64 139t119 45q24 0 49 -6.5t42 -20.5l-48 -102q-14 11 -36 11q-20 0 -36.5 -16t-21.5 -56l-7 -44h94zM435 0q-57 0 -86 30t-17 104l89 566h134l-87 -555q-3 -20 1 -30t21 -10h28l-16 -105h-67z" />
<glyph horiz-adv-x="134" />
<glyph horiz-adv-x="134" />
<glyph unicode="&#xd;" horiz-adv-x="134" />
<glyph unicode=" "  horiz-adv-x="175" />
<glyph unicode="&#x09;" horiz-adv-x="175" />
<glyph unicode="&#xa0;" horiz-adv-x="175" />
<glyph unicode="!" horiz-adv-x="204" d="M244 700l-98 -485h-96l56 485h138zM151 87q0 -41 -21.5 -67.5t-65.5 -26.5q-32 0 -48 17t-16 46q0 38 20 66.5t65 28.5q66 0 66 -64z" />
<glyph unicode="&#x22;" horiz-adv-x="316" d="M152 450h-86l23 264h111zM287 450h-87l36 264h110z" />
<glyph unicode="#" horiz-adv-x="621" d="M349 290l49 127h-96l-48 -127h95zM243 0l70 187h-98l-69 -187h-127l69 187h-83l43 103h77l48 127h-83l41 102h80l67 181h129l-68 -181h96l68 181h128l-67 -181h81l-41 -102h-78l-48 -127h85l-42 -103h-80l-69 -187h-129z" />
<glyph unicode="$" horiz-adv-x="461" d="M227 432l26 152q-36 -7 -53 -29t-17 -54q0 -43 44 -69zM303 196q0 23 -9 40.5t-35 33.5l-6 -36l-19 -122q35 6 52 27.5t17 56.5zM150 -62l12 68q-67 5 -111 43t-54 117l114 41q5 -42 21 -65t45 -30l29 179l-1 2q-77 35 -107.5 83.5t-30.5 107.5q0 42 13.5 78.5t39.5 64.5 t64 45t86 21l11 73h56l-12 -73q65 -7 104.5 -46t44.5 -114l-114 -41q-5 39 -18 60t-33 28l-28 -170l10 -5q73 -32 104.5 -75.5t31.5 -105.5q0 -95 -55 -152.5t-154 -65.5l-12 -68h-56z" />
<glyph unicode="%" horiz-adv-x="820" d="M58 0zM678 421q121 0 121 -141q0 -32 -6 -74q-17 -110 -59.5 -162.5t-117.5 -52.5q-63 0 -92.5 34.5t-29.5 105.5q0 33 6 75q17 110 59 162.5t119 52.5zM669 339q-26 0 -43 -29t-28 -104q-4 -23 -6 -41.5t-2 -32.5q0 -33 9.5 -46.5t26.5 -13.5q23 0 40.5 29t29.5 105 q4 23 5.5 41t1.5 33q0 32 -8.5 45.5t-25.5 13.5zM242 714q121 0 121 -141q0 -32 -6 -74q-17 -110 -59.5 -162.5t-117.5 -52.5q-63 0 -92.5 34.5t-29.5 105.5q0 33 6 75q17 110 59 162.5t119 52.5zM233 632q-26 0 -43 -29t-28 -104q-4 -23 -6 -41.5t-2 -32.5q0 -33 9.5 -46.5 t26.5 -13.5q23 0 40.5 29t29.5 105q4 23 5.5 41t1.5 33q0 32 -8.5 45.5t-25.5 13.5zM677 700l-382 -700h-116l382 700h116z" />
<glyph unicode="&#x26;" horiz-adv-x="560" d="M525 87l-82 -105q-21 14 -41 29t-41 35q-37 -31 -80 -45.5t-91 -14.5q-40 0 -74 9.5t-59 29.5t-39.5 51.5t-14.5 75.5q0 60 27.5 114t94.5 105q-11 30 -18 64.5t-7 71.5q0 102 49 155t140 53q66 0 103.5 -32t37.5 -93q0 -59 -33.5 -120.5t-119.5 -122.5q19 -32 42 -64.5 t49 -62.5q29 54 50.5 121t32.5 142h118q-17 -106 -46.5 -191.5t-70.5 -148.5q19 -17 37 -31t36 -25zM217 521q0 -41 14 -77q48 34 65 64.5t17 54.5q0 44 -40 44q-21 0 -38.5 -18.5t-17.5 -67.5zM133 171q1 -39 23.5 -56.5t51.5 -17.5q41 0 70 26q-29 32 -55 68.5t-47 75.5 q-20 -21 -32 -45.5t-11 -50.5z" />
<glyph unicode="'" horiz-adv-x="173" d="M63 450l30 264h110l-54 -264h-86z" />
<glyph unicode="(" horiz-adv-x="289" d="M182 -134q-164 30 -164 279q0 34 3.5 72t9.5 80q57 392 283 431l10 -120q-33 -9 -59.5 -29t-48 -56t-38 -91.5t-28.5 -134.5q-8 -44 -11 -79t-3 -64q0 -79 23 -117t67 -51z" />
<glyph unicode=")" horiz-adv-x="289" d="M106 728q164 -30 164 -279q0 -34 -3.5 -72t-9.5 -80q-57 -392 -283 -431l-10 120q33 9 59.5 29t48 56t38 91t28.5 135q8 44 11 79t3 64q0 79 -23 117t-67 51z" />
<glyph unicode="*" horiz-adv-x="346" d="M126 347l-75 56l76 91l-76 35l53 99l65 -35l13 121h109l-24 -121l77 35l21 -100l-87 -34l48 -91l-93 -56l-41 86z" />
<glyph unicode="+" horiz-adv-x="390" d="M214 125h-89l21 141h-108l14 89h108l24 143h89l-24 -143h109l-14 -89h-108z" />
<glyph unicode="," horiz-adv-x="204" d="M-7 -148l-22 59q33 13 56 35t31 48q-57 5 -57 62q0 40 21.5 67t64.5 27q32 0 48.5 -18t16.5 -51q0 -35 -11 -70.5t-31 -66.5t-50 -55.5t-67 -36.5z" />
<glyph unicode="-" horiz-adv-x="372" d="M344 325l-18 -117h-294l19 117h293z" />
<glyph unicode="." horiz-adv-x="203" d="M151 87q0 -41 -21.5 -67.5t-65.5 -26.5q-32 0 -48 17t-16 46q0 38 20 66.5t65 28.5q66 0 66 -64z" />
<glyph unicode="/" horiz-adv-x="432" d="M501 700l-390 -700h-148l391 700h147z" />
<glyph unicode="0" d="M30 0zM328 714q98 0 144 -56t46 -177q0 -29 -2.5 -61.5t-7.5 -69.5q-27 -188 -95.5 -276t-189.5 -88q-100 0 -146.5 57.5t-46.5 176.5q0 29 3 61.5t8 68.5q27 187 95.5 275.5t191.5 88.5zM314 594q-24 0 -44 -12.5t-36.5 -41t-30 -75t-23.5 -114.5q-7 -41 -10.5 -74 t-3.5 -59q0 -63 18.5 -88t50.5 -25q24 0 44 12t36.5 40.5t30 75.5t24.5 116q7 41 9.5 73.5t2.5 58.5q0 62 -17 87.5t-51 25.5z" />
<glyph unicode="1" d="M448 0h-441l20 124h145l63 396l-66 -47l-34 117l177 116h92l-93 -582h157z" />
<glyph unicode="2" d="M39 0zM39 0l17 103l228 265q45 53 65.5 90.5t20.5 70.5q0 29 -16 45t-45 16q-32 0 -59 -19.5t-52 -66.5l-99 48q42 88 104 125t138 37q84 0 128 -41.5t44 -113.5q0 -33 -8 -62.5t-25.5 -61t-45.5 -67.5t-68 -82l-142 -164l236 5l-20 -127h-401z" />
<glyph unicode="3" d="M24 0zM24 144l111 49q9 -48 31 -69.5t57 -21.5q51 0 77 35t26 87q0 37 -19.5 55t-54.5 18h-49l19 118h48q20 0 37 9t29 24t19 35t7 42q0 32 -17 50.5t-49 18.5q-34 0 -58.5 -18.5t-44.5 -59.5l-99 47q34 77 91 114t144 37q88 0 132 -42t44 -113q0 -57 -28.5 -110 t-84.5 -88q32 -18 50 -50.5t18 -81.5q0 -52 -17 -96.5t-49 -77.5t-77.5 -51.5t-102.5 -18.5q-35 0 -66.5 9t-56.5 28.5t-42.5 49.5t-24.5 72z" />
<glyph unicode="4" d="M9 0zM9 155l17 104l222 441h134l-214 -419h145l37 235h131l-37 -235h64l-20 -126h-64l-24 -155h-131l24 155h-284z" />
<glyph unicode="5" d="M20 0zM255 579l-34 -156q18 14 45 21t58 7q33 0 60 -10t47 -31t31 -53.5t11 -78.5q0 -63 -18.5 -117t-53 -93t-83.5 -61t-110 -22q-78 0 -127 39t-61 117l112 52q8 -49 31 -70t57 -21q27 0 48.5 12t36.5 33t22.5 49.5t7.5 61.5q0 43 -20 63t-51 20q-55 0 -95 -46l-89 44 l81 361h359l-19 -121h-246z" />
<glyph unicode="6" d="M44 0zM535 581l-116 -55q-16 73 -73 73q-35 0 -59.5 -17t-42 -49t-30 -78t-24.5 -104l-3 -15q23 47 62.5 75.5t93.5 28.5q60 0 98 -43.5t38 -128.5q0 -57 -15.5 -108.5t-46 -90t-75.5 -61.5t-104 -23q-94 0 -144 57.5t-50 183.5q0 54 9 120q27 181 101.5 274.5 t201.5 93.5q152 0 179 -133zM279 332q-20 0 -37.5 -11t-30.5 -30t-20.5 -45t-7.5 -56q0 -42 16.5 -66t48.5 -24q24 0 42 12t29.5 32t17.5 45.5t6 52.5q0 90 -64 90z" />
<glyph unicode="7" d="M109 0zM109 0q15 96 42.5 182t62.5 159.5t76.5 132.5t84.5 101l-264 -4l21 129h400l-18 -111q-48 -49 -89 -113t-73.5 -139.5t-55 -160.5t-33.5 -176h-154z" />
<glyph unicode="8" d="M37 0zM467 230q0 -52 -15.5 -96.5t-46.5 -77.5t-76.5 -51.5t-106.5 -18.5q-92 0 -138.5 46.5t-46.5 124.5t33.5 132.5t91.5 79.5q-25 20 -39 51.5t-14 73.5q0 44 14 84t42 70t70 48t98 18q81 0 124 -41t43 -116q0 -63 -27 -112.5t-75 -78.5q33 -19 51 -54t18 -82z M376 528q0 32 -14.5 53.5t-47.5 21.5q-19 0 -34.5 -8.5t-27 -23.5t-17.5 -34.5t-6 -40.5q0 -30 15 -52t45 -22q18 0 33.5 8t27.5 22.5t19 33.5t7 42zM336 218q0 35 -17 59t-52 24q-21 0 -39 -9.5t-30.5 -26t-19.5 -38t-7 -46.5q0 -38 17 -60.5t51 -22.5q20 0 37.5 9.5 t30.5 25.5t21 38t8 47z" />
<glyph unicode="9" d="M19 0zM270 363q22 0 40.5 11.5t32 31.5t21 46t7.5 56q0 42 -16.5 66.5t-46.5 24.5q-23 0 -41 -11.5t-30 -31.5t-18.5 -47.5t-6.5 -59.5q0 -86 58 -86zM200 -15q-78 0 -121 34t-60 100l115 54q9 -35 27 -54t48 -19q35 0 60.5 17t43.5 49t30.5 77.5t21.5 103.5l2 16 q-25 -50 -64 -79.5t-94 -29.5q-61 0 -98 43.5t-37 128.5q0 58 14.5 110t44.5 91.5t76 63t110 23.5q92 0 141.5 -58t49.5 -184q0 -31 -3 -65t-10 -70q-29 -175 -103 -263.5t-194 -88.5z" />
<glyph unicode=":" horiz-adv-x="206" d="M0 0zM149 87q0 -41 -21.5 -67.5t-65.5 -26.5q-32 0 -48 17t-16 46q0 38 20 66.5t65 28.5q66 0 66 -64zM204 431q0 -41 -21.5 -67.5t-65.5 -26.5q-32 0 -48 17t-16 46q0 38 20 66.5t65 28.5q66 0 66 -64z" />
<glyph unicode=";" horiz-adv-x="207" d="M0 0zM207 431q0 -41 -21.5 -67.5t-65.5 -26.5q-32 0 -48 17t-16 46q0 38 20 66.5t65 28.5q66 0 66 -64zM-7 -148l-22 59q33 13 56 35t31 48q-57 5 -57 62q0 40 21.5 67t64.5 27q32 0 48.5 -18t16.5 -51q0 -35 -11 -70.5t-31 -66.5t-50 -55.5t-67 -36.5z" />
<glyph unicode="&#x3c;" horiz-adv-x="385" d="M311 538l42 -75l-187 -155l136 -151l-64 -77l-180 200l10 58z" />
<glyph unicode="=" horiz-adv-x="389" d="M369 429l-14 -91h-306l14 91h306zM347 281l-15 -91h-306l14 91h307z" />
<glyph unicode="&#x3e;" horiz-adv-x="385" d="M83 80l-43 76l187 154l-136 152l64 76l179 -200l-8 -57z" />
<glyph unicode="?" horiz-adv-x="412" d="M143 215l22 173h39q25 0 45.5 11t35 29.5t22.5 42.5t8 50q0 41 -18.5 62t-52.5 21q-36 0 -63 -20.5t-44 -67.5l-93 43q28 85 86.5 122.5t136.5 37.5q87 0 130 -45.5t43 -127.5q0 -53 -14.5 -94.5t-38.5 -72t-56 -51t-68 -29.5l-21 -84h-99zM244 87q0 -41 -21.5 -67.5 t-65.5 -26.5q-32 0 -48 17t-16 46q0 38 19.5 66.5t64.5 28.5q67 0 67 -64z" />
<glyph unicode="@" horiz-adv-x="612" d="M474 -8q-84 -96 -214 -96q-109 0 -170.5 72t-61.5 200q0 97 26 175t70.5 132.5t104.5 84t128 29.5q109 0 168.5 -66.5t59.5 -182.5q0 -59 -12.5 -107t-35 -83t-54 -54t-69.5 -19q-57 0 -73 48q-22 -27 -45.5 -40.5t-52.5 -13.5q-35 0 -56.5 20.5t-21.5 58.5q0 27 11 51 t31 42t47.5 28.5t60.5 10.5h30q1 5 1.5 9.5t0.5 8.5q0 27 -13.5 38t-30.5 11q-37 0 -60 -43l-52 45q21 34 55 54t82 20t78 -25t30 -79q0 -17 -3 -38l-15 -100q-1 -5 -1.5 -11t-0.5 -11q0 -31 25 -31q18 0 34.5 15t30 42t21.5 65t8 85q0 103 -50.5 155t-131.5 52 q-54 0 -104 -24.5t-88 -72.5t-61 -118t-23 -161q0 -57 14 -100t39.5 -71.5t59.5 -42.5t75 -14q51 0 96 19t80 61zM246 165q0 -14 7.5 -21.5t18.5 -7.5q25 0 41.5 19.5t21.5 57.5l1 14h-18q-34 0 -53 -18t-19 -44z" />
<glyph unicode="A" horiz-adv-x="542" d="M317 532l-114 -299h132zM347 0l-7 116h-179l-45 -116h-144l288 700h168l64 -700h-145z" />
<glyph unicode="B" horiz-adv-x="536" d="M22 0l111 700h249q40 0 69 -11.5t47.5 -32t27 -48t8.5 -59.5q0 -65 -28 -113t-76 -74q36 -15 51.5 -50.5t15.5 -80.5q0 -53 -15.5 -95.5t-44.5 -72.5t-71 -46.5t-96 -16.5h-248zM330 583h-80l-27 -173h80q45 0 69 29.5t24 71.5q0 34 -18 53t-48 19zM291 295h-86l-29 -179 h83q45 0 73 26t28 82q0 33 -16.5 52t-52.5 19z" />
<glyph unicode="C" horiz-adv-x="537" d="M53 351q27 192 104.5 277.5t205.5 85.5q89 0 140 -47.5t58 -158.5l-125 -33q-6 62 -28.5 86t-61.5 24q-26 0 -48.5 -11t-41.5 -38t-34.5 -72.5t-26.5 -114.5q-5 -32 -8 -59.5t-3 -50.5q0 -72 24.5 -99.5t69.5 -27.5q35 0 67 23.5t55 81.5l113 -56q-38 -93 -104 -134 t-151 -41q-112 0 -164 58t-52 185q0 28 2.5 57.5t8.5 64.5z" />
<glyph unicode="D" horiz-adv-x="575" d="M22 0l111 700h202q112 0 168.5 -58.5t56.5 -183.5q0 -22 -2 -49.5t-6 -55.5q-52 -353 -322 -353h-208zM182 125h57q30 0 57 11.5t49 37.5t38.5 69.5t26.5 107.5q4 24 6 49t2 45q0 69 -24 100t-73 31h-67z" />
<glyph unicode="E" horiz-adv-x="512" d="M452 122l-19 -122h-411l111 700h413l-21 -122h-275l-26 -164h233l-19 -125h-234l-27 -167h275z" />
<glyph unicode="F" horiz-adv-x="478" d="M429 274h-223l-43 -274h-141l111 700h399l-19 -126h-259l-27 -170h223z" />
<glyph unicode="G" horiz-adv-x="567" d="M234 -14q-92 0 -142 61t-50 188q0 26 3 55t8 61q28 190 104 276.5t207 86.5q89 1 140 -43.5t58 -148.5l-127 -34q-5 56 -27.5 76.5t-60.5 20.5q-28 0 -51 -11.5t-42 -38.5t-33.5 -72t-25.5 -113q-5 -33 -8 -60.5t-3 -50.5q0 -74 24 -103.5t67 -29.5q18 0 37 7.5 t35.5 25.5t29.5 47t19 73h-98l19 116h224l-59 -375h-95l1 77q-28 -45 -66.5 -68t-87.5 -23z" />
<glyph unicode="H" horiz-adv-x="608" d="M363 0l44 284h-199l-45 -284h-141l111 700h141l-46 -284h201l45 284h141l-111 -700h-141z" />
<glyph unicode="I" horiz-adv-x="267" d="M22 0l111 700h141l-111 -700h-141z" />
<glyph unicode="J" horiz-adv-x="418" d="M110 -14q-39 0 -80 13.5t-70 45.5l78 107q17 -17 37.5 -27t42.5 -10q38 0 64.5 31t38.5 104l72 450h142l-72 -449q-12 -74 -35.5 -125t-56.5 -82t-74 -44.5t-87 -13.5z" />
<glyph unicode="K" horiz-adv-x="545" d="M344 0l-83 268l-70 -83l-28 -185h-141l111 700h141l-51 -307l228 307h161l-240 -298l132 -402h-160z" />
<glyph unicode="L" horiz-adv-x="483" d="M183 129h259l-19 -129h-401l110 700h142z" />
<glyph unicode="M" horiz-adv-x="737" d="M270 0l-60 427l-62 -427h-126l111 700h156l67 -500l225 500h163l-110 -700h-133l76 431l-197 -431h-110z" />
<glyph unicode="N" horiz-adv-x="604" d="M376 0l-162 412l-61 -412h-131l111 700h112l170 -433l65 433h131l-111 -700h-124z" />
<glyph unicode="O" horiz-adv-x="597" d="M364 714q113 0 165 -59t52 -182q0 -28 -3 -58t-8 -65q-26 -186 -102 -275t-210 -89q-112 0 -164 59.5t-52 183.5q0 27 3 57t8 65q26 185 102 274t209 89zM349 585q-29 0 -53 -11.5t-43 -39.5t-33.5 -73.5t-24.5 -112.5q-5 -33 -8 -60t-3 -51q0 -69 23 -97.5t66 -28.5 q29 0 53 12t43 39.5t33.5 73.5t25.5 114q5 33 7.5 60.5t2.5 50.5q0 69 -22.5 96.5t-66.5 27.5z" />
<glyph unicode="P" horiz-adv-x="534" d="M22 0l111 700h238q87 0 128.5 -49.5t41.5 -134.5q0 -72 -19.5 -129t-54 -96.5t-82 -60t-104.5 -20.5h-85l-33 -210h-141zM329 570h-76l-37 -233h78q26 0 45.5 11.5t33 32t20.5 47.5t7 58q0 84 -71 84z" />
<glyph unicode="Q" horiz-adv-x="598" d="M364 714q113 0 164.5 -59t51.5 -182q0 -28 -2 -58t-7 -65q-17 -115 -51.5 -192t-91.5 -119l43 -127h-120l-28 80q-14 -4 -31 -5t-34 -1q-112 0 -164 59.5t-52 183.5q0 27 3 57t8 65q26 185 102 274t209 89zM348 585q-29 0 -52.5 -11.5t-42.5 -39.5t-33.5 -73.5 t-24.5 -112.5q-5 -33 -8.5 -60.5t-3.5 -50.5q0 -70 23.5 -98.5t66.5 -27.5h10l-38 114h120l14 -44q14 28 26 69.5t21 99.5q5 32 8 60.5t3 51.5q0 68 -23 95.5t-66 27.5z" />
<glyph unicode="R" horiz-adv-x="540" d="M219 359h84q25 0 44.5 10.5t33 29.5t20 44.5t6.5 54.5q0 38 -17 57.5t-55 19.5h-83zM199 235l-37 -235h-140l111 700h242q89 0 131 -47.5t42 -128.5q0 -95 -33.5 -157.5t-93.5 -95.5l53 -271h-149l-39 235h-87z" />
<glyph unicode="S" horiz-adv-x="486" d="M496 527l-126 -42q-6 57 -28.5 80t-59.5 23q-38 0 -58 -21t-19 -53q1 -26 17.5 -47t51.5 -38l36 -18q71 -35 104.5 -80.5t33.5 -118.5q0 -50 -16.5 -91.5t-47.5 -71.5t-75.5 -46.5t-100.5 -16.5q-94 0 -148.5 49.5t-68.5 138.5l126 47q7 -61 32.5 -88t67.5 -27 q39 0 63.5 21.5t24.5 59.5q0 30 -16 49t-48 36l-33 17q-78 41 -110 93.5t-32 114.5q0 42 15 81.5t44 69.5t71.5 48t97.5 18q45 0 82 -13.5t63 -38t41 -59t16 -76.5z" />
<glyph unicode="T" horiz-adv-x="479" d="M81 700h453l-20 -131h-157l-90 -569h-141l90 569h-157z" />
<glyph unicode="U" horiz-adv-x="579" d="M384 238l73 462h141l-71 -454q-21 -130 -91.5 -195t-181.5 -65q-100 0 -154 49.5t-54 148.5q0 15 1.5 30t3.5 32l71 454h142l-74 -462q-3 -18 -3 -35q0 -41 19.5 -63t61.5 -22q47 0 76.5 29t39.5 91z" />
<glyph unicode="V" horiz-adv-x="533" d="M252 177l198 523h144l-289 -700h-165l-65 700h143z" />
<glyph unicode="W" horiz-adv-x="741" d="M106 0l-32 700h140l5 -474l151 473h138l5 -472l153 473h135l-254 -700h-146l1 468l-147 -468h-149z" />
<glyph unicode="X" horiz-adv-x="539" d="M333 0l-72 225l-137 -225h-160l237 354l-118 346h159l63 -219l128 219h159l-227 -344l126 -356h-158z" />
<glyph unicode="Y" horiz-adv-x="524" d="M188 263l-119 437h148l62 -295l157 295h152l-259 -440l-41 -260h-141z" />
<glyph unicode="Z" horiz-adv-x="472" d="M-23 0l15 98l342 479l-257 -3l21 126h419l-16 -97l-340 -481l271 4l-20 -126h-435z" />
<glyph unicode="[" horiz-adv-x="282" d="M-11 -121l133 838h209l-18 -109h-84l-99 -621h87l-18 -108h-210z" />
<glyph unicode="\" horiz-adv-x="438" d="M244 0l-179 700h144l179 -700h-144z" />
<glyph unicode="]" horiz-adv-x="282" d="M298 717l-133 -838h-209l18 109h84l99 621h-87l18 108h210z" />
<glyph unicode="^" horiz-adv-x="380" d="M192 700h124l58 -330l-1 -2h-107l-30 221l-101 -221h-106v2z" />
<glyph unicode="_" horiz-adv-x="364" d="M325 0l-19 -115h-366l19 115h366z" />
<glyph unicode="`" horiz-adv-x="459" d="M209 571l-81 125l1 7h145l39 -127v-5h-104z" />
<glyph unicode="a" horiz-adv-x="440" d="M127 127q0 -20 11 -31t29 -11q32 0 56 28.5t32 80.5l2 14h-29q-44 0 -72.5 -23t-28.5 -58zM248 73q-25 -40 -61 -63t-77 -23q-44 0 -73 30t-29 84q0 41 14.5 77t42.5 63t69 42.5t94 15.5h44q3 18 3 29q0 35 -16.5 50t-44.5 15q-27 0 -50 -14t-38 -41l-80 64 q32 51 81 79.5t118 28.5q36 0 66 -8.5t51.5 -26.5t34 -47t12.5 -69q0 -14 -1.5 -27.5t-3.5 -30.5l-48 -301h-112z" />
<glyph unicode="b" horiz-adv-x="482" d="M255 700l-41 -262q26 35 58.5 53.5t68.5 18.5q56 0 87.5 -43.5t31.5 -129.5q0 -18 -2 -38.5t-5 -43.5q-18 -124 -70 -196.5t-136 -72.5q-83 0 -117 84l-18 -70h-103l112 700h134zM278 396q-32 0 -58 -34.5t-38 -115.5q-6 -38 -6 -65q0 -83 53 -83q35 0 58 35.5t36 113.5 q3 20 4 37t1 32q0 80 -50 80z" />
<glyph unicode="c" horiz-adv-x="415" d="M283 173l100 -55q-31 -70 -76.5 -101t-114.5 -31q-79 0 -123.5 45t-44.5 142q0 17 2 35.5t5 39.5q20 135 81.5 198.5t156.5 63.5q139 0 151 -152l-115 -39q-5 37 -16.5 54t-37.5 17q-34 0 -57 -32.5t-36 -110.5q-3 -18 -5 -34.5t-2 -30.5q0 -41 14 -59t46 -18 q21 0 39 15.5t33 52.5z" />
<glyph unicode="d" horiz-adv-x="486" d="M206 99q32 0 57 35t38 114q6 39 6 65q0 45 -14 65t-39 20q-35 0 -57.5 -36t-35.5 -114q-4 -22 -5 -37t-1 -30q0 -82 51 -82zM151 -14q-59 0 -93 45t-34 135q0 35 6 77q18 132 73.5 199.5t129.5 67.5q35 0 58 -18t38 -53l42 261h135l-111 -700h-109l1 72 q-28 -42 -59.5 -64t-76.5 -22z" />
<glyph unicode="e" horiz-adv-x="439" d="M195 -14q-79 0 -124.5 46.5t-45.5 144.5q0 15 1.5 33t4.5 36q18 125 79.5 194.5t157.5 69.5q39 0 67 -13.5t46.5 -37.5t27 -57.5t8.5 -72.5q0 -30 -5 -62.5t-12 -64.5h-249q-1 -5 -1.5 -11t-0.5 -11q1 -42 18.5 -60.5t50.5 -18.5q26 0 46 14t32 40l91 -47 q-15 -27 -33 -49.5t-40.5 -38.5t-51.5 -25t-67 -9zM298 331q0 62 -47 62q-31 0 -53.5 -22t-32.5 -73h131q2 9 2 17v16z" />
<glyph unicode="f" horiz-adv-x="309" d="M318 385h-94l-60 -385h-135l62 385h-59l17 111h58l9 45q7 49 24.5 84.5t42.5 58.5t56 34.5t65 11.5q29 0 52.5 -6.5t39.5 -19.5l-48 -103q-14 10 -38 10q-22 0 -39 -15t-23 -55l-7 -45h95z" />
<glyph unicode="g" horiz-adv-x="482" d="M206 112q33 0 58 34t37 111q3 17 4 31t1 27q0 82 -52 82q-34 0 -56.5 -33t-35.5 -108q-3 -19 -5 -35t-2 -30q0 -39 13.5 -59t37.5 -20zM80 -38q9 -70 75 -70q48 0 73 31.5t33 96.5l10 58q-23 -35 -53.5 -54t-65.5 -19q-58 0 -93 43t-35 132q0 33 6 74q19 128 75.5 192 t135.5 64q74 0 104 -83l19 69h108l-75 -477q-20 -120 -85.5 -179.5t-166.5 -59.5q-78 0 -120.5 31.5t-57.5 93.5z" />
<glyph unicode="h" horiz-adv-x="491" d="M255 700l-46 -294q27 53 64 78.5t78 25.5q54 0 82.5 -35t28.5 -99q0 -14 -1.5 -28.5t-3.5 -29.5l-50 -318h-136l45 288q2 11 3 21.5t1 18.5q0 53 -44 53q-32 0 -57 -34.5t-36 -100.5l-39 -246h-135l111 700h135z" />
<glyph unicode="i" horiz-adv-x="233" d="M101 633q0 42 21.5 68t65.5 26q33 0 51 -16.5t18 -47.5q0 -43 -24 -69t-66 -26q-32 0 -49 17.5t-17 47.5zM88 496h136l-78 -496h-137z" />
<glyph unicode="j" horiz-adv-x="233" d="M100 633q0 42 21.5 68t66.5 26q32 0 50 -16.5t18 -47.5q0 -43 -23.5 -69t-65.5 -26q-32 0 -49.5 17.5t-17.5 47.5zM5 -27l83 523h135l-83 -533q-16 -94 -65.5 -138.5t-115.5 -44.5q-33 0 -56 6.5t-43 18.5l48 105q8 -5 16 -8.5t19 -3.5q23 0 39 16.5t23 58.5z" />
<glyph unicode="k" horiz-adv-x="456" d="M160 107l-16 -107h-135l111 700h136l-74 -430l160 226h145l-174 -214l99 -282h-148l-51 173z" />
<glyph unicode="l" horiz-adv-x="245" d="M129 0q-57 0 -86 30t-17 104l89 566h134l-87 -555q-3 -20 1 -30t21 -10h28l-16 -105h-67z" />
<glyph unicode="m" horiz-adv-x="721" d="M548 289q2 11 3.5 22t1.5 19q0 50 -39 50q-27 0 -49 -30t-33 -88l-41 -262h-136l47 288q4 23 4 42q0 50 -38 50q-28 0 -50.5 -31.5t-33.5 -94.5l-40 -254h-135l78 496h111l-2 -86q29 51 65 75.5t78 24.5q44 0 66.5 -29t30.5 -77q29 55 65.5 80.5t78.5 25.5 q59 0 85.5 -36.5t26.5 -98.5q0 -15 -1.5 -32t-3.5 -33l-50 -310h-134z" />
<glyph unicode="n" horiz-adv-x="491" d="M9 0l79 496h111l-3 -89q29 52 67.5 77.5t83.5 25.5q60 0 88 -37t28 -100q0 -14 -2 -28.5t-4 -29.5l-50 -315h-136l46 288q3 22 3 38q0 55 -44 55q-31 0 -56.5 -33.5t-35.5 -98.5l-40 -249h-135z" />
<glyph unicode="o" horiz-adv-x="464" d="M24 172q0 17 2 36t5 41q19 135 81.5 198t156.5 63q85 0 128 -44t43 -139q0 -17 -2 -36.5t-5 -41.5q-20 -132 -80 -197.5t-158 -65.5q-171 0 -171 186zM207 104q39 0 62.5 33.5t35.5 110.5q6 37 6 65q0 42 -14 60t-43 18q-40 0 -61.5 -33t-33.5 -110q-3 -20 -5 -36.5 t-2 -30.5q0 -77 55 -77z" />
<glyph unicode="p" horiz-adv-x="485" d="M278 396q-32 0 -58 -35t-38 -115q-3 -18 -4 -34t-1 -30q0 -44 14 -64.5t39 -20.5q34 0 57 36t36 114q3 20 5 36.5t2 31.5q0 81 -52 81zM-20 -186l108 682h112l-2 -78q29 47 65.5 69.5t76.5 22.5q60 0 90.5 -44t30.5 -129q0 -19 -2 -39.5t-5 -43.5q-9 -61 -26 -110.5 t-43.5 -84.5t-61.5 -54t-78 -19q-63 0 -93 61l-37 -233h-135z" />
<glyph unicode="q" horiz-adv-x="482" d="M366 -186h-135l36 238q-23 -32 -53 -49t-64 -17q-60 0 -93.5 45t-33.5 133q0 18 2 37.5t5 41.5q20 137 74.5 202t129.5 65q38 0 68.5 -20.5t42.5 -61.5l20 68h109zM206 99q32 0 57 35.5t38 114.5q6 37 6 65q0 44 -14 64t-38 20q-35 0 -58 -35.5t-36 -114.5q-6 -39 -6 -67 q0 -82 51 -82z" />
<glyph unicode="r" horiz-adv-x="321" d="M9 0l79 496h111l-3 -98q28 57 67 86.5t83 27.5l-21 -144q-60 6 -97.5 -39t-51.5 -127l-32 -202h-135z" />
<glyph unicode="s" horiz-adv-x="388" d="M-11 117l101 43q13 -72 78 -72q29 0 43 12t14 30q0 15 -11 27t-37 25l-32 16q-46 23 -72.5 58t-26.5 88q0 36 12.5 66.5t36 53t56.5 35.5t74 13q134 0 164 -133l-103 -41q-4 31 -22.5 48.5t-45.5 17.5q-24 0 -37.5 -12.5t-13.5 -29.5q0 -14 10.5 -25.5t40.5 -25.5l25 -12 q22 -11 41.5 -24t34.5 -31t23.5 -40.5t8.5 -50.5q0 -35 -12.5 -65.5t-36 -53t-58 -35.5t-78.5 -13q-74 0 -120 33t-57 98z" />
<glyph unicode="t" horiz-adv-x="322" d="M267 112l8 -99q-18 -12 -44 -19t-54 -7q-60 0 -97.5 28.5t-37.5 91.5q0 11 2 23.5t4 23.5l38 231h-55l18 111h54l22 142h134l-22 -142h97l-18 -111h-97l-35 -219q-5 -32 4.5 -49.5t33.5 -17.5q11 0 22.5 4t22.5 9z" />
<glyph unicode="u" horiz-adv-x="488" d="M147 -13q-62 0 -90 37.5t-28 100.5q0 14 1 29t3 30l50 312h137l-47 -292q-3 -23 -3 -39q0 -56 44 -56q30 0 53 31.5t35 97.5l41 258h136l-79 -496h-111l3 83q-28 -49 -65.5 -72.5t-79.5 -23.5z" />
<glyph unicode="v" horiz-adv-x="440" d="M44 496h140l20 -335l128 335h139l-223 -496h-139z" />
<glyph unicode="w" horiz-adv-x="616" d="M285 494h121l9 -312l102 314h124l-192 -496h-127l-6 312l-103 -312h-128l-36 496h125l6 -314z" />
<glyph unicode="x" horiz-adv-x="438" d="M242 0l-43 151l-91 -151h-146l176 251l-92 245h152l36 -149l85 149h146l-171 -247l100 -249h-152z" />
<glyph unicode="y" horiz-adv-x="447" d="M99 -44l15 40l-67 500h140l22 -335l127 335h139l-265 -588q-17 -38 -37.5 -62.5t-44 -39t-48.5 -20.5t-51 -6q-28 0 -49.5 5t-40.5 16l38 106q25 -14 51 -14q25 0 41 14t30 49z" />
<glyph unicode="z" horiz-adv-x="390" d="M-16 0l14 89l236 296h-186l18 111h331l-14 -93l-233 -292h194l-18 -111h-342z" />
<glyph unicode="{" horiz-adv-x="275" d="M178 -117q-58 5 -88 41t-30 107q0 52 10.5 87.5t10.5 60.5q0 37 -14 51t-40 14h-29l17 108h30q29 0 49.5 15.5t28.5 60.5q4 26 3 49.5t4 55.5q12 86 57 129t114 54l31 -107q-35 -8 -56.5 -26t-28.5 -61q-5 -32 -4.5 -55t-4.5 -51q-8 -37 -28.5 -66t-50.5 -53 q39 -33 39 -97q0 -15 -4 -32.5t-8.5 -35.5t-8 -36.5t-3.5 -35.5q0 -33 16 -48.5t45 -20.5z" />
<glyph unicode="|" horiz-adv-x="244" d="M10 -65l131 831h123l-131 -831h-123z" />
<glyph unicode="}" horiz-adv-x="307" d="M123 714q58 -5 88 -41t30 -107q0 -52 -10.5 -87.5t-10.5 -60.5q0 -37 14 -51t40 -14h29l-17 -108h-30q-29 0 -49.5 -15.5t-28.5 -60.5q-4 -26 -3 -49.5t-4 -55.5q-12 -86 -57 -129t-114 -54l-31 107q35 8 56.5 26t28.5 61q5 32 4.5 55t4.5 51q8 37 28.5 66t50.5 53 q-39 33 -39 97q0 15 3.5 32.5t8 35.5t8.5 36.5t4 35.5q0 33 -16 48.5t-45 20.5z" />
<glyph unicode="~" horiz-adv-x="437" d="M220 283q-15 10 -29 18.5t-30 8.5t-28.5 -13t-19.5 -43l-89 15q14 80 53.5 118t88.5 38q25 0 44.5 -9.5t36.5 -20.5q15 -11 29.5 -19t28.5 -8q16 0 28 13t20 43l88 -16q-13 -80 -52.5 -118t-87.5 -38q-24 0 -44 10t-37 21z" />
<glyph unicode="&#xa1;" horiz-adv-x="202" d="M-44 -193l98 485h96l-56 -485h-138zM49 420q0 41 21.5 67.5t65.5 26.5q32 0 48 -17t16 -46q0 -38 -20 -66.5t-65 -28.5q-66 0 -66 64z" />
<glyph unicode="&#xa2;" horiz-adv-x="410" d="M136 -62l11 71q-60 8 -93 50.5t-33 124.5q0 33 6 75q17 119 70 179t129 69l12 72h61l-12 -73q56 -8 85.5 -44t36.5 -94l-98 -45q-4 27 -13 44.5t-29 25.5l-42 -275q18 6 34 20t27 40l80 -54q-26 -46 -63.5 -77.5t-94.5 -37.5l-11 -71h-63zM129 201q0 -64 35 -81l43 271 q-26 -11 -45 -42t-28 -86q-3 -17 -4 -32.5t-1 -29.5z" />
<glyph unicode="&#xa3;" horiz-adv-x="471" d="M443 80q-34 -46 -78.5 -63t-103.5 -17h-284l19 119h22q19 0 29.5 26t16.5 68l11 76h-53l16 98h50l13 107q8 62 30 104.5t51.5 68t64 36.5t69.5 11q86 0 130 -40t58 -119l-113 -45q-8 38 -26 58.5t-51 20.5q-36 0 -54 -28.5t-26 -83.5l-13 -90h113l-16 -98h-109l-9 -69 q-8 -65 -30 -101h112q24 0 50.5 12.5t46.5 39.5z" />
<glyph unicode="&#xa5;" horiz-adv-x="538" d="M461 209h-133l-34 -209h-141l34 209h-133l14 81h119l-13 46h-99l13 81h65l-77 283h153l60 -300l153 300h153l-167 -283h66l-12 -81h-101l-27 -46h120z" />
<glyph unicode="&#xa6;" horiz-adv-x="244" d="M82 384l60 382h122l-60 -382h-122zM11 -65l60 383h122l-60 -383h-122z" />
<glyph unicode="&#xa7;" horiz-adv-x="397" d="M259 341q0 38 -28 52l-8 4q-13 6 -27 6t-26 -7.5t-19.5 -22t-7.5 -36.5q0 -35 32 -51l8 -4q15 -8 29 -5.5t24.5 11t16.5 22.5t6 31zM322 141q0 -30 -9 -61t-30 -55.5t-55 -40t-85 -15.5q-74 0 -110.5 31.5t-47.5 82.5l92 46q12 -68 70 -68q36 0 49 16.5t13 39.5 q0 21 -11 31.5t-34 21.5l-23 10q-42 18 -71.5 50t-29.5 84t23 87t57 53q-14 14 -24 36.5t-10 52.5q0 32 10.5 62.5t32 54.5t54 38.5t76.5 14.5q62 0 100 -26t52 -83l-97 -47q-5 28 -20 43.5t-43 15.5t-43.5 -17t-15.5 -40q0 -20 11 -32.5t37 -21.5l30 -11q51 -19 73.5 -49.5 t22.5 -78.5q0 -42 -20 -79t-59 -57q19 -18 27 -39.5t8 -49.5z" />
<glyph unicode="&#xa8;" horiz-adv-x="459" d="M98 630q0 38 20 62t58 24q61 0 61 -58q0 -38 -20 -62t-60 -24q-59 0 -59 58zM279 630q0 38 19.5 62t58.5 24q60 0 60 -58q0 -38 -19.5 -62t-59.5 -24q-59 0 -59 58z" />
<glyph unicode="&#xa9;" horiz-adv-x="624" d="M378 699q109 0 169 -68t60 -193q0 -22 -1.5 -42.5t-5.5 -44.5q-12 -82 -41 -146.5t-71.5 -109t-96.5 -68t-116 -23.5q-109 0 -170 68t-61 193q0 21 2 42t5 44q12 82 41 146.5t71.5 109.5t97 68.5t117.5 23.5zM374 653q-48 0 -92 -18.5t-80 -56t-62.5 -94.5t-38.5 -133 q-8 -46 -8 -80q0 -56 13.5 -97t38.5 -68.5t59 -41t75 -13.5q48 0 91.5 18.5t79.5 56t62 94t38 131.5q4 23 5.5 43.5t1.5 39.5q0 110 -50.5 164.5t-132.5 54.5zM452 274q-29 -55 -65 -80.5t-84 -25.5q-55 0 -88.5 31t-33.5 104q0 14 1 26.5t3 26.5q7 51 23 87.5t39 59t52 33 t63 10.5q93 0 113 -95l-83 -42q-4 26 -14 38.5t-30 12.5q-26 0 -44 -21.5t-28 -84.5q-2 -12 -3 -22t-1 -19q0 -35 12 -48t34 -13q39 0 62 54z" />
<glyph unicode="&#xaa;" horiz-adv-x="315" d="M158 410q21 0 36 22.5t23 64.5l1 7h-30q-23 0 -40.5 -18t-17.5 -44q0 -32 28 -32zM210 403q-18 -29 -42 -45.5t-54 -16.5q-33 0 -53.5 21t-20.5 60q0 30 11.5 56t31 45t45.5 29.5t56 10.5h43q1 5 1.5 10t0.5 10q0 29 -13.5 38.5t-33.5 9.5q-23 0 -42.5 -11.5t-35.5 -30.5 l-38 59q26 33 63.5 49.5t83.5 16.5q50 0 82.5 -25t32.5 -86q0 -9 -1 -19.5t-3 -22.5l-34 -210h-82z" />
<glyph unicode="&#xab;" d="M142 0l-113 246l1 3l185 247h133l-188 -249l113 -247h-131zM341 0l-114 247l1 3l186 246h135l-191 -248l115 -248h-132z" />
<glyph unicode="&#xad;" horiz-adv-x="312" d="M284 325l-18 -117h-234l18 117h234z" />
<glyph unicode="&#xae;" horiz-adv-x="357" d="M192 333q-60 0 -94 40t-34 108q0 11 1 22t3 22q14 87 62.5 138.5t119.5 51.5q60 0 94 -40t34 -107q0 -11 -1.5 -23.5t-3.5 -24.5q-14 -88 -62 -137.5t-119 -49.5zM196 361q51 0 92 40.5t54 122.5q2 11 3 22t1 20q0 60 -27.5 90.5t-71.5 30.5q-53 0 -94 -41t-55 -122 q-3 -23 -3 -42q0 -61 28 -91t73 -30zM202 529h18q14 0 21 8t8 22q0 22 -21 22h-18zM144 432l30 190h68q25 0 37 -15t12 -41q0 -23 -9.5 -40t-24.5 -28q1 -2 3 -11.5t4.5 -21t5 -21.5t2.5 -12h-45l-9 56h-23l-8 -56h-43z" />
<glyph unicode="&#xaf;" horiz-adv-x="459" d="M364 675l-12 -85h-225l13 85h224z" />
<glyph unicode="&#xb0;" horiz-adv-x="355" d="M195 351q-59 0 -89.5 38.5t-30.5 104.5q0 40 10.5 79.5t31.5 70.5t53.5 50t76.5 19q58 0 88.5 -37t30.5 -101q0 -50 -12.5 -91.5t-35 -71t-54 -45.5t-69.5 -16zM205 432q18 0 33 10t26 27.5t17 40.5t6 50q0 35 -14 53.5t-37 18.5q-32 0 -57 -33.5t-25 -92.5 q0 -36 13.5 -55t37.5 -19z" />
<glyph unicode="&#xb1;" horiz-adv-x="390" d="M224 155h-89l20 129h-108l14 88h108l21 131h91l-23 -131h109l-13 -88h-108zM322 88l-13 -88h-306l13 88h306z" />
<glyph unicode="&#xb2;" horiz-adv-x="297" d="M27 294zM27 294l12 68l133 152q26 28 37 48t11 37q0 14 -7.5 22t-23.5 8t-30.5 -10t-28.5 -36l-70 32q25 54 65 77t89 23q51 0 79.5 -25t28.5 -70q0 -20 -5 -37.5t-16.5 -36.5t-29 -41.5t-42.5 -50.5l-68 -77l129 4l-15 -87h-248z" />
<glyph unicode="&#xb3;" horiz-adv-x="300" d="M30 285zM30 380l77 35q6 -27 18 -38.5t32 -11.5q26 0 39 17t13 42q0 19 -11 29t-29 10h-29l12 76h29q22 0 35.5 17t13.5 40q0 36 -35 36q-16 0 -30.5 -9.5t-24.5 -31.5l-67 32q38 92 147 92q57 0 84 -26t27 -68q0 -33 -17 -64t-52 -52q41 -24 41 -78q0 -30 -11 -56 t-30.5 -45t-48 -30t-62.5 -11q-45 0 -77.5 22.5t-43.5 72.5z" />
<glyph unicode="&#xb4;" horiz-adv-x="459" d="M251 703h139l-1 -7l-118 -125h-105v5z" />
<glyph unicode="&#xb6;" horiz-adv-x="539" d="M405 573h-43l-37 -240h42zM160 424q-3 -90 60 -90h2l37 238h-2q-41 0 -68 -41t-29 -107zM528 700l-111 -700h-104l34 210h-42l-32 -210h-103l33 212h-1q-69 5 -112 57t-40 146q1 66 19.5 119t50.5 90t75.5 56.5t94.5 19.5h238z" />
<glyph unicode="&#xb7;" horiz-adv-x="204" d="M37 259zM188 353q0 -41 -21.5 -67.5t-65.5 -26.5q-32 0 -48 17t-16 46q0 38 20 66.5t65 28.5q66 0 66 -64z" />
<glyph unicode="&#xb8;" horiz-adv-x="459" d="M207 -249q-39 0 -71.5 17.5t-43.5 59.5l64 38q15 -42 52 -42q22 0 33 12.5t11 29.5q0 18 -15 27t-32 3l-19 14l37 90h67l-24 -52q26 -4 46 -23.5t20 -56.5q0 -57 -35.5 -87t-89.5 -30z" />
<glyph unicode="&#xb9;" horiz-adv-x="209" d="M68 294zM179 294h-98l47 291l-38 -25l-22 81l114 70h65z" />
<glyph unicode="&#xba;" horiz-adv-x="333" d="M51 473q0 13 1.5 26.5t3.5 28.5q14 94 58 140t113 46q121 0 121 -132q0 -14 -1 -26.5t-3 -27.5q-14 -94 -57 -140.5t-113 -46.5q-123 0 -123 132zM184 422q26 0 42.5 25.5t24.5 80.5q2 13 2.5 24.5t0.5 21.5q0 30 -9 43.5t-29 13.5q-26 0 -42 -24.5t-25 -78.5 q-2 -15 -3 -27t-1 -22q0 -57 39 -57z" />
<glyph unicode="&#xbb;" horiz-adv-x="534" d="M390 496l113 -246l-1 -3l-185 -247h-133l188 249l-113 247h131zM191 496l114 -247l-1 -3l-186 -246h-135l191 248l-115 248h132z" />
<glyph unicode="&#xbc;" horiz-adv-x="709" d="M69 0zM577 700l-382 -700h-116l382 700h116zM180 293h-98l47 291l-38 -25l-22 81l114 70h65zM369 85l12 72l130 255h95l-125 -241h74l19 119h92l-20 -119h37l-15 -86h-36l-13 -85h-92l14 85h-172z" />
<glyph unicode="&#xbd;" horiz-adv-x="708" d="M69 0zM180 293h-98l47 291l-38 -25l-22 81l114 70h65zM577 700l-382 -700h-116l382 700h116zM399 0l12 68l133 152q26 28 37 48t11 37q0 14 -7.5 22t-23.5 8t-30.5 -10t-28.5 -36l-70 32q25 54 65 77t89 23q51 0 79.5 -25t28.5 -70q0 -20 -5 -37.5t-16.5 -36.5t-29 -41.5 t-42.5 -50.5l-68 -77l129 4l-15 -87h-248z" />
<glyph unicode="&#xbe;" horiz-adv-x="773" d="M30 0zM30 379l77 35q6 -27 18 -38.5t32 -11.5q26 0 39 17t13 42q0 19 -11 29t-29 10h-29l12 76h29q22 0 35.5 17t13.5 40q0 36 -35 36q-16 0 -30.5 -9.5t-24.5 -31.5l-67 32q38 92 147 92q57 0 84 -26t27 -68q0 -33 -17 -64t-52 -52q41 -24 41 -78q0 -30 -11 -56 t-30.5 -45t-48 -30t-62.5 -11q-45 0 -77.5 22.5t-43.5 72.5zM650 700l-382 -700h-116l382 700h116zM432 85l12 72l130 255h95l-125 -241h74l19 119h92l-20 -119h37l-15 -86h-36l-13 -85h-92l14 85h-172z" />
<glyph unicode="&#xbf;" horiz-adv-x="400" d="M247 289l-22 -173h-39q-25 0 -45.5 -11t-35 -29.5t-22.5 -42.5t-8 -50q0 -41 18.5 -62t52.5 -21q36 0 63 20.5t44 67.5l93 -43q-28 -85 -86.5 -122.5t-136.5 -37.5q-87 0 -130 45.5t-43 127.5q0 52 14.5 94t38.5 72.5t56 51t68 29.5l21 84h99zM146 417q0 41 21.5 67.5 t65.5 26.5q32 0 48 -17t16 -46q0 -38 -19.5 -66.5t-64.5 -28.5q-67 0 -67 64z" />
<glyph unicode="&#xc0;" horiz-adv-x="542" d="M0 0zM317 532l-114 -299h132zM347 0l-7 116h-179l-45 -116h-144l288 700h168l64 -700h-145zM307 774l-81 125l1 7h145l39 -127v-5h-104z" />
<glyph unicode="&#xc1;" horiz-adv-x="542" d="M0 0zM317 532l-114 -299h132zM347 0l-7 116h-179l-45 -116h-144l288 700h168l64 -700h-145zM375 907h139l-1 -7l-118 -125h-105v5z" />
<glyph unicode="&#xc2;" horiz-adv-x="542" d="M0 0zM317 532l-114 -299h132zM347 0l-7 116h-179l-45 -116h-144l288 700h168l64 -700h-145zM316 906h110l72 -128v-4h-104l-35 59l-52 -59h-105l1 4z" />
<glyph unicode="&#xc3;" horiz-adv-x="542" d="M0 0zM317 532l-114 -299h132zM347 0l-7 116h-179l-45 -116h-144l288 700h168l64 -700h-145zM435 902h76q-3 -35 -13 -58t-24 -37t-30 -20t-31 -6q-17 0 -30.5 5.5t-25 12t-22 12t-21.5 5.5q-13 0 -18.5 -10.5t-7.5 -23.5h-79q3 34 13 57.5t23.5 37t29.5 19.5t31 6 q18 0 32 -5.5t26 -12t22.5 -12t21.5 -5.5q14 0 19.5 10.5t7.5 24.5z" />
<glyph unicode="&#xc4;" horiz-adv-x="542" d="M0 0zM317 532l-114 -299h132zM347 0l-7 116h-179l-45 -116h-144l288 700h168l64 -700h-145zM200 834q0 38 20 62t58 24q61 0 61 -58q0 -38 -20 -62t-60 -24q-59 0 -59 58zM381 834q0 38 19.5 62t58.5 24q60 0 60 -58q0 -38 -19.5 -62t-59.5 -24q-59 0 -59 58z" />
<glyph unicode="&#xc5;" horiz-adv-x="542" d="M0 0zM317 532l-114 -299h132zM347 0l-7 116h-179l-45 -116h-144l288 700h168l64 -700h-145zM376 956q35 0 58 -21t23 -62q0 -51 -30 -85t-78 -34q-37 0 -60.5 21t-23.5 63q0 49 29.5 83.5t81.5 34.5zM369 901q-22 0 -34 -16t-12 -39q0 -37 32 -37q20 0 32.5 17t12.5 40 q0 17 -8.5 26t-22.5 9z" />
<glyph unicode="&#xc6;" horiz-adv-x="775" d="M318 543l-121 -310h140zM-32 0l299 700h538l-19 -121h-336l10 -163h263l-20 -125h-235l10 -169h244l-20 -122h-352l-7 114h-189l-46 -114h-140z" />
<glyph unicode="&#xc7;" horiz-adv-x="537" d="M216 -249q-39 0 -71.5 17.5t-43.5 59.5l64 38q15 -42 52 -42q22 0 33 12.5t11 29.5q0 18 -15 27t-32 3l-19 14l32 77q-96 8 -140.5 66t-44.5 176q0 28 2.5 57.5t8.5 64.5q27 192 104.5 277.5t205.5 85.5q89 0 140 -47.5t58 -158.5l-125 -33q-6 62 -28.5 86t-61.5 24 q-26 0 -48.5 -11t-41.5 -38t-34.5 -72.5t-26.5 -114.5q-5 -32 -8 -59.5t-3 -50.5q0 -72 24.5 -99.5t69.5 -27.5q35 0 67 23.5t55 81.5l113 -56q-35 -83 -91 -124t-129 -49l-18 -40q26 -4 46 -23.5t20 -56.5q0 -57 -35.5 -87t-89.5 -30z" />
<glyph unicode="&#xc8;" horiz-adv-x="512" d="M22 0zM452 122l-19 -122h-411l111 700h413l-21 -122h-275l-26 -164h233l-19 -125h-234l-27 -167h275zM301 774l-81 125l1 7h145l39 -127v-5h-104z" />
<glyph unicode="&#xc9;" horiz-adv-x="512" d="M22 0zM452 122l-19 -122h-411l111 700h413l-21 -122h-275l-26 -164h233l-19 -125h-234l-27 -167h275zM371 907h139l-1 -7l-118 -125h-105v5z" />
<glyph unicode="&#xca;" horiz-adv-x="512" d="M22 0zM452 122l-19 -122h-411l111 700h413l-21 -122h-275l-26 -164h233l-19 -125h-234l-27 -167h275zM310 906h110l72 -128v-4h-104l-35 59l-52 -59h-105l1 4z" />
<glyph unicode="&#xcb;" horiz-adv-x="512" d="M22 0zM195 834q0 38 20 62t58 24q61 0 61 -58q0 -38 -20 -62t-60 -24q-59 0 -59 58zM376 834q0 38 19.5 62t58.5 24q60 0 60 -58q0 -38 -19.5 -62t-59.5 -24q-59 0 -59 58zM452 122l-19 -122h-411l111 700h413l-21 -122h-275l-26 -164h233l-19 -125h-234l-27 -167h275z " />
<glyph unicode="&#xcc;" horiz-adv-x="267" d="M22 0zM22 0l111 700h141l-111 -700h-141zM169 774l-81 125l1 7h145l39 -127v-5h-104z" />
<glyph unicode="&#xcd;" horiz-adv-x="267" d="M22 0zM22 0l111 700h141l-111 -700h-141zM239 907h139l-1 -7l-118 -125h-105v5z" />
<glyph unicode="&#xce;" horiz-adv-x="267" d="M22 0zM22 0l111 700h141l-111 -700h-141zM178 906h110l72 -128v-4h-104l-35 59l-52 -59h-105l1 4z" />
<glyph unicode="&#xcf;" horiz-adv-x="267" d="M22 0zM22 0l111 700h141l-111 -700h-141zM65 834q0 38 20 62t58 24q61 0 61 -58q0 -38 -20 -62t-60 -24q-59 0 -59 58zM246 834q0 38 19.5 62t58.5 24q60 0 60 -58q0 -38 -19.5 -62t-59.5 -24q-59 0 -59 58z" />
<glyph unicode="&#xd0;" horiz-adv-x="585" d="M241 0h-209l47 292h-52l19 117h51l46 291h204q111 0 167.5 -58.5t56.5 -183.5q0 -22 -2 -49.5t-7 -55.5q-54 -353 -321 -353zM193 125h56q30 0 57 11.5t49 37.5t38.5 69.5t26.5 107.5q4 24 6.5 49t2.5 45q0 69 -24 100t-72 31h-69l-27 -167h82l-18 -117h-81z" />
<glyph unicode="&#xd1;" horiz-adv-x="604" d="M22 0zM376 0l-162 412l-61 -412h-131l111 700h112l170 -433l65 433h131l-111 -700h-124zM464 903h76q-3 -35 -13 -58t-24 -37t-30 -20t-31 -6q-17 0 -30.5 5.5t-25 12t-22 12t-21.5 5.5q-13 0 -18.5 -10.5t-7.5 -23.5h-79q3 34 13 57.5t23.5 37t29.5 19.5t31 6 q18 0 32 -5.5t26 -12t22.5 -12t21.5 -5.5q14 0 19.5 10.5t7.5 24.5z" />
<glyph unicode="&#xd2;" horiz-adv-x="597" d="M42 0zM364 714q113 0 165 -59t52 -182q0 -28 -3 -58t-8 -65q-26 -186 -102 -275t-210 -89q-112 0 -164 59.5t-52 183.5q0 27 3 57t8 65q26 185 102 274t209 89zM349 585q-29 0 -53 -11.5t-43 -39.5t-33.5 -73.5t-24.5 -112.5q-5 -33 -8 -60t-3 -51q0 -69 23 -97.5 t66 -28.5q29 0 53 12t43 39.5t33.5 73.5t25.5 114q5 33 7.5 60.5t2.5 50.5q0 69 -22.5 96.5t-66.5 27.5zM328 775l-81 125l1 7h145l39 -127v-5h-104z" />
<glyph unicode="&#xd3;" horiz-adv-x="597" d="M42 0zM364 714q113 0 165 -59t52 -182q0 -28 -3 -58t-8 -65q-26 -186 -102 -275t-210 -89q-112 0 -164 59.5t-52 183.5q0 27 3 57t8 65q26 185 102 274t209 89zM349 585q-29 0 -53 -11.5t-43 -39.5t-33.5 -73.5t-24.5 -112.5q-5 -33 -8 -60t-3 -51q0 -69 23 -97.5 t66 -28.5q29 0 53 12t43 39.5t33.5 73.5t25.5 114q5 33 7.5 60.5t2.5 50.5q0 69 -22.5 96.5t-66.5 27.5zM398 907h139l-1 -7l-118 -125h-105v5z" />
<glyph unicode="&#xd4;" horiz-adv-x="597" d="M42 0zM364 714q113 0 165 -59t52 -182q0 -28 -3 -58t-8 -65q-26 -186 -102 -275t-210 -89q-112 0 -164 59.5t-52 183.5q0 27 3 57t8 65q26 185 102 274t209 89zM349 585q-29 0 -53 -11.5t-43 -39.5t-33.5 -73.5t-24.5 -112.5q-5 -33 -8 -60t-3 -51q0 -69 23 -97.5 t66 -28.5q29 0 53 12t43 39.5t33.5 73.5t25.5 114q5 33 7.5 60.5t2.5 50.5q0 69 -22.5 96.5t-66.5 27.5zM337 907h110l72 -128v-4h-104l-35 59l-52 -59h-105l1 4z" />
<glyph unicode="&#xd5;" horiz-adv-x="597" d="M42 0zM364 714q113 0 165 -59t52 -182q0 -28 -3 -58t-8 -65q-26 -186 -102 -275t-210 -89q-112 0 -164 59.5t-52 183.5q0 27 3 57t8 65q26 185 102 274t209 89zM349 585q-29 0 -53 -11.5t-43 -39.5t-33.5 -73.5t-24.5 -112.5q-5 -33 -8 -60t-3 -51q0 -69 23 -97.5 t66 -28.5q29 0 53 12t43 39.5t33.5 73.5t25.5 114q5 33 7.5 60.5t2.5 50.5q0 69 -22.5 96.5t-66.5 27.5zM457 903h76q-3 -35 -13 -58t-24 -37t-30 -20t-31 -6q-17 0 -30.5 5.5t-25 12t-22 12t-21.5 5.5q-13 0 -18.5 -10.5t-7.5 -23.5h-79q3 34 13 57.5t23.5 37t29.5 19.5 t31 6q18 0 32 -5.5t26 -12t22.5 -12t21.5 -5.5q14 0 19.5 10.5t7.5 24.5z" />
<glyph unicode="&#xd6;" horiz-adv-x="597" d="M42 0zM223 834q0 38 20 62t58 24q61 0 61 -58q0 -38 -20 -62t-60 -24q-59 0 -59 58zM404 834q0 38 19.5 62t58.5 24q60 0 60 -58q0 -38 -19.5 -62t-59.5 -24q-59 0 -59 58zM364 714q113 0 165 -59t52 -182q0 -28 -3 -58t-8 -65q-26 -186 -102 -275t-210 -89 q-112 0 -164 59.5t-52 183.5q0 27 3 57t8 65q26 185 102 274t209 89zM349 585q-29 0 -53 -11.5t-43 -39.5t-33.5 -73.5t-24.5 -112.5q-5 -33 -8 -60t-3 -51q0 -69 23 -97.5t66 -28.5q29 0 53 12t43 39.5t33.5 73.5t25.5 114q5 33 7.5 60.5t2.5 50.5q0 69 -22.5 96.5 t-66.5 27.5z" />
<glyph unicode="&#xd7;" horiz-adv-x="389" d="M83 135l-54 60l116 118l-80 120l74 58l70 -109l102 107l54 -60l-114 -116l76 -114l-73 -60l-66 106z" />
<glyph unicode="&#xd8;" horiz-adv-x="596" d="M262 -14q-102 0 -156 53l-31 -39h-90l81 100q-22 55 -22 132q0 26 3 57t8 62q26 183 101.5 273t210.5 90q51 0 89 -12.5t65 -39.5l31 38h92l-82 -100q12 -26 17.5 -59t5.5 -72q0 -26 -3 -56.5t-8 -62.5q-27 -185 -102.5 -274.5t-209.5 -89.5zM188 250l239 293 q-11 24 -30 33t-45 9q-30 0 -54 -12t-43 -39.5t-33.5 -73t-25.5 -112.5q-3 -22 -5.5 -46t-2.5 -52zM275 111q30 0 54 12t43 40.5t33.5 74t24.5 113.5q2 12 3.5 26t3 27.5t2 25.5t-0.5 20l-238 -295q11 -24 30 -34t45 -10z" />
<glyph unicode="&#xd9;" horiz-adv-x="579" d="M46 0zM384 238l73 462h141l-71 -454q-21 -130 -91.5 -195t-181.5 -65q-100 0 -154 49.5t-54 148.5q0 15 1.5 30t3.5 32l71 454h142l-74 -462q-3 -18 -3 -35q0 -41 19.5 -63t61.5 -22q47 0 76.5 29t39.5 91zM326 775l-81 125l1 7h145l39 -127v-5h-104z" />
<glyph unicode="&#xda;" horiz-adv-x="579" d="M46 0zM384 238l73 462h141l-71 -454q-21 -130 -91.5 -195t-181.5 -65q-100 0 -154 49.5t-54 148.5q0 15 1.5 30t3.5 32l71 454h142l-74 -462q-3 -18 -3 -35q0 -41 19.5 -63t61.5 -22q47 0 76.5 29t39.5 91zM396 907h139l-1 -7l-118 -125h-105v5z" />
<glyph unicode="&#xdb;" horiz-adv-x="579" d="M46 0zM384 238l73 462h141l-71 -454q-21 -130 -91.5 -195t-181.5 -65q-100 0 -154 49.5t-54 148.5q0 15 1.5 30t3.5 32l71 454h142l-74 -462q-3 -18 -3 -35q0 -41 19.5 -63t61.5 -22q47 0 76.5 29t39.5 91zM335 907h110l72 -128v-4h-104l-35 59l-52 -59h-105l1 4z" />
<glyph unicode="&#xdc;" horiz-adv-x="579" d="M46 0zM220 834q0 38 20 62t58 24q61 0 61 -58q0 -38 -20 -62t-60 -24q-59 0 -59 58zM401 834q0 38 19.5 62t58.5 24q60 0 60 -58q0 -38 -19.5 -62t-59.5 -24q-59 0 -59 58zM384 238l73 462h141l-71 -454q-21 -130 -91.5 -195t-181.5 -65q-100 0 -154 49.5t-54 148.5 q0 15 1.5 30t3.5 32l71 454h142l-74 -462q-3 -18 -3 -35q0 -41 19.5 -63t61.5 -22q47 0 76.5 29t39.5 91z" />
<glyph unicode="&#xdd;" horiz-adv-x="524" d="M69 0zM188 263l-119 437h148l62 -295l157 295h152l-259 -440l-41 -260h-141zM361 907h139l-1 -7l-118 -125h-105v5z" />
<glyph unicode="&#xde;" horiz-adv-x="527" d="M23 0l111 700h141l-18 -111h106q80 0 119 -46.5t39 -127.5q0 -71 -18.5 -126t-51.5 -92.5t-77.5 -57.5t-95.5 -20h-95l-19 -119h-141zM320 459h-83l-35 -213h86q22 0 39 10.5t29 29t18 43t6 53.5q0 77 -60 77z" />
<glyph unicode="&#xdf;" horiz-adv-x="513" d="M180 12l36 106q20 -14 45 -14q38 0 60 33.5t22 86.5q0 34 -16 56t-51 22h-31l18 125h24q38 0 60.5 31t22.5 73q-1 32 -17.5 52t-46.5 20q-33 0 -55 -23.5t-30 -72.5l-80 -507h-134l78 494q17 110 75.5 169.5t164.5 59.5q46 0 80 -12.5t56 -35t33 -53t11 -67.5 q0 -62 -28 -107t-76 -71q37 -15 57 -50.5t20 -91.5q0 -53 -14.5 -97.5t-41.5 -77t-65.5 -51t-85.5 -18.5q-26 0 -49.5 5t-41.5 16z" />
<glyph unicode="&#xe0;" horiz-adv-x="440" d="M8 0zM127 127q0 -20 11 -31t29 -11q32 0 56 28.5t32 80.5l2 14h-29q-44 0 -72.5 -23t-28.5 -58zM248 73q-25 -40 -61 -63t-77 -23q-44 0 -73 30t-29 84q0 41 14.5 77t42.5 63t69 42.5t94 15.5h44q3 18 3 29q0 35 -16.5 50t-44.5 15q-27 0 -50 -14t-38 -41l-80 64 q32 51 81 79.5t118 28.5q36 0 66 -8.5t51.5 -26.5t34 -47t12.5 -69q0 -14 -1.5 -27.5t-3.5 -30.5l-48 -301h-112zM217 572l-81 125l1 7h145l39 -127v-5h-104z" />
<glyph unicode="&#xe1;" horiz-adv-x="440" d="M8 0zM127 127q0 -20 11 -31t29 -11q32 0 56 28.5t32 80.5l2 14h-29q-44 0 -72.5 -23t-28.5 -58zM248 73q-25 -40 -61 -63t-77 -23q-44 0 -73 30t-29 84q0 41 14.5 77t42.5 63t69 42.5t94 15.5h44q3 18 3 29q0 35 -16.5 50t-44.5 15q-27 0 -50 -14t-38 -41l-80 64 q32 51 81 79.5t118 28.5q36 0 66 -8.5t51.5 -26.5t34 -47t12.5 -69q0 -14 -1.5 -27.5t-3.5 -30.5l-48 -301h-112zM286 704h139l-1 -7l-118 -125h-105v5z" />
<glyph unicode="&#xe2;" horiz-adv-x="440" d="M8 0zM127 127q0 -20 11 -31t29 -11q32 0 56 28.5t32 80.5l2 14h-29q-44 0 -72.5 -23t-28.5 -58zM248 73q-25 -40 -61 -63t-77 -23q-44 0 -73 30t-29 84q0 41 14.5 77t42.5 63t69 42.5t94 15.5h44q3 18 3 29q0 35 -16.5 50t-44.5 15q-27 0 -50 -14t-38 -41l-80 64 q32 51 81 79.5t118 28.5q36 0 66 -8.5t51.5 -26.5t34 -47t12.5 -69q0 -14 -1.5 -27.5t-3.5 -30.5l-48 -301h-112zM226 703h110l72 -128v-4h-104l-35 59l-52 -59h-105l1 4z" />
<glyph unicode="&#xe3;" horiz-adv-x="440" d="M8 0zM127 127q0 -20 11 -31t29 -11q32 0 56 28.5t32 80.5l2 14h-29q-44 0 -72.5 -23t-28.5 -58zM248 73q-25 -40 -61 -63t-77 -23q-44 0 -73 30t-29 84q0 41 14.5 77t42.5 63t69 42.5t94 15.5h44q3 18 3 29q0 35 -16.5 50t-44.5 15q-27 0 -50 -14t-38 -41l-80 64 q32 51 81 79.5t118 28.5q36 0 66 -8.5t51.5 -26.5t34 -47t12.5 -69q0 -14 -1.5 -27.5t-3.5 -30.5l-48 -301h-112zM345 699h76q-3 -35 -13 -58t-24 -37t-30 -20t-31 -6q-17 0 -30.5 5.5t-25 12t-22 12t-21.5 5.5q-13 0 -18.5 -10.5t-7.5 -23.5h-79q3 34 13 57.5t23.5 37 t29.5 19.5t31 6q18 0 32 -5.5t26 -12t22.5 -12t21.5 -5.5q14 0 19.5 10.5t7.5 24.5z" />
<glyph unicode="&#xe4;" horiz-adv-x="440" d="M8 0zM127 127q0 -20 11 -31t29 -11q32 0 56 28.5t32 80.5l2 14h-29q-44 0 -72.5 -23t-28.5 -58zM248 73q-25 -40 -61 -63t-77 -23q-44 0 -73 30t-29 84q0 41 14.5 77t42.5 63t69 42.5t94 15.5h44q3 18 3 29q0 35 -16.5 50t-44.5 15q-27 0 -50 -14t-38 -41l-80 64 q32 51 81 79.5t118 28.5q36 0 66 -8.5t51.5 -26.5t34 -47t12.5 -69q0 -14 -1.5 -27.5t-3.5 -30.5l-48 -301h-112zM116 631q0 38 20 62t58 24q61 0 61 -58q0 -38 -20 -62t-60 -24q-59 0 -59 58zM297 631q0 38 19.5 62t58.5 24q60 0 60 -58q0 -38 -19.5 -62t-59.5 -24 q-59 0 -59 58z" />
<glyph unicode="&#xe5;" horiz-adv-x="440" d="M8 0zM127 127q0 -20 11 -31t29 -11q32 0 56 28.5t32 80.5l2 14h-29q-44 0 -72.5 -23t-28.5 -58zM248 73q-25 -40 -61 -63t-77 -23q-44 0 -73 30t-29 84q0 41 14.5 77t42.5 63t69 42.5t94 15.5h44q3 18 3 29q0 35 -16.5 50t-44.5 15q-27 0 -50 -14t-38 -41l-80 64 q32 51 81 79.5t118 28.5q36 0 66 -8.5t51.5 -26.5t34 -47t12.5 -69q0 -14 -1.5 -27.5t-3.5 -30.5l-48 -301h-112zM287 753q35 0 58 -21t23 -62q0 -51 -30 -85t-78 -34q-37 0 -60.5 21t-23.5 63q0 49 29.5 83.5t81.5 34.5zM280 698q-22 0 -34 -16t-12 -39q0 -37 32 -37 q20 0 32.5 17t12.5 40q0 17 -8.5 26t-22.5 9z" />
<glyph unicode="&#xe6;" horiz-adv-x="677" d="M291 82q-12 -22 -30.5 -39.5t-40.5 -30t-46 -19t-47 -6.5q-54 0 -85.5 30.5t-31.5 86.5q0 41 15 76.5t43.5 61.5t69 40.5t91.5 14.5h43q1 5 1.5 11t0.5 11q0 29 -12.5 52t-47.5 23q-58 0 -88 -56l-81 64q32 52 81 80t119 28q41 0 72 -16.5t46 -56.5q56 73 144 73 q39 0 67.5 -13.5t46.5 -37.5t26.5 -57t8.5 -72q0 -29 -4.5 -59t-12.5 -62h-247q-1 -9 -1 -15v-10q0 -45 17.5 -64.5t49.5 -19.5q51 0 77 56l91 -48q-15 -27 -32.5 -49t-40 -38.5t-51.5 -25.5t-67 -9q-54 0 -91 23t-53 73zM131 127q0 -21 11 -31.5t30 -10.5q31 0 52.5 27.5 t29.5 78.5l2 14h-27q-45 0 -71.5 -21.5t-26.5 -56.5zM540 329q0 64 -50 64q-28 0 -49.5 -22t-33.5 -74h130q3 18 3 32z" />
<glyph unicode="&#xe7;" horiz-adv-x="415" d="M143 -249q-39 0 -71.5 17.5t-43.5 59.5l64 38q15 -42 52 -42q22 0 33 12.5t11 29.5q0 18 -15 27t-32 3l-19 14l32 79q-62 10 -96 54.5t-34 129.5q0 17 2 35.5t5 39.5q20 135 81.5 198.5t156.5 63.5q139 0 151 -152l-115 -39q-5 37 -16.5 54t-37.5 17q-34 0 -57 -32.5 t-36 -110.5q-3 -18 -5 -34.5t-2 -30.5q0 -41 14 -59t46 -18q21 0 39 15.5t33 52.5l100 -55q-28 -63 -67 -94t-96 -37l-18 -39q26 -4 46 -23.5t20 -56.5q0 -57 -35.5 -87t-89.5 -30z" />
<glyph unicode="&#xe8;" horiz-adv-x="435" d="M25 0zM195 -14q-79 0 -124.5 46.5t-45.5 144.5q0 15 1.5 33t4.5 36q18 125 79.5 194.5t157.5 69.5q39 0 67 -13.5t46.5 -37.5t27 -57.5t8.5 -72.5q0 -30 -5 -62.5t-12 -64.5h-249q-1 -5 -1.5 -11t-0.5 -11q1 -42 18.5 -60.5t50.5 -18.5q26 0 46 14t32 40l91 -47 q-15 -27 -33 -49.5t-40.5 -38.5t-51.5 -25t-67 -9zM298 331q0 62 -47 62q-31 0 -53.5 -22t-32.5 -73h131q2 9 2 17v16zM225 572l-81 125l1 7h145l39 -127v-5h-104z" />
<glyph unicode="&#xe9;" horiz-adv-x="435" d="M25 0zM294 703h139l-1 -7l-118 -125h-105v5zM195 -14q-79 0 -124.5 46.5t-45.5 144.5q0 15 1.5 33t4.5 36q18 125 79.5 194.5t157.5 69.5q39 0 67 -13.5t46.5 -37.5t27 -57.5t8.5 -72.5q0 -30 -5 -62.5t-12 -64.5h-249q-1 -5 -1.5 -11t-0.5 -11q1 -42 18.5 -60.5 t50.5 -18.5q26 0 46 14t32 40l91 -47q-15 -27 -33 -49.5t-40.5 -38.5t-51.5 -25t-67 -9zM298 331q0 62 -47 62q-31 0 -53.5 -22t-32.5 -73h131q2 9 2 17v16z" />
<glyph unicode="&#xea;" horiz-adv-x="435" d="M25 0zM234 703h110l72 -128v-4h-104l-35 59l-52 -59h-105l1 4zM195 -14q-79 0 -124.5 46.5t-45.5 144.5q0 15 1.5 33t4.5 36q18 125 79.5 194.5t157.5 69.5q39 0 67 -13.5t46.5 -37.5t27 -57.5t8.5 -72.5q0 -30 -5 -62.5t-12 -64.5h-249q-1 -5 -1.5 -11t-0.5 -11 q1 -42 18.5 -60.5t50.5 -18.5q26 0 46 14t32 40l91 -47q-15 -27 -33 -49.5t-40.5 -38.5t-51.5 -25t-67 -9zM298 331q0 62 -47 62q-31 0 -53.5 -22t-32.5 -73h131q2 9 2 17v16z" />
<glyph unicode="&#xeb;" horiz-adv-x="435" d="M25 0zM124 630q0 38 20 62t58 24q61 0 61 -58q0 -38 -20 -62t-60 -24q-59 0 -59 58zM305 630q0 38 19.5 62t58.5 24q60 0 60 -58q0 -38 -19.5 -62t-59.5 -24q-59 0 -59 58zM195 -14q-79 0 -124.5 46.5t-45.5 144.5q0 15 1.5 33t4.5 36q18 125 79.5 194.5t157.5 69.5 q39 0 67 -13.5t46.5 -37.5t27 -57.5t8.5 -72.5q0 -30 -5 -62.5t-12 -64.5h-249q-1 -5 -1.5 -11t-0.5 -11q1 -42 18.5 -60.5t50.5 -18.5q26 0 46 14t32 40l91 -47q-15 -27 -33 -49.5t-40.5 -38.5t-51.5 -25t-67 -9zM298 331q0 62 -47 62q-31 0 -53.5 -22t-32.5 -73h131 q2 9 2 17v16z" />
<glyph unicode="&#xec;" horiz-adv-x="233" d="M9 0zM88 496h136l-78 -496h-137zM120 572l-81 125l1 7h145l39 -127v-5h-104z" />
<glyph unicode="&#xed;" horiz-adv-x="233" d="M9 0zM88 496h136l-78 -496h-137zM190 703h139l-1 -7l-118 -125h-105v5z" />
<glyph unicode="&#xee;" horiz-adv-x="233" d="M9 0zM88 496h136l-78 -496h-137zM129 703h110l72 -128v-4h-104l-35 59l-52 -59h-105l1 4z" />
<glyph unicode="&#xef;" horiz-adv-x="233" d="M9 0zM88 496h136l-78 -496h-137zM18 630q0 38 20 62t58 24q61 0 61 -58q0 -38 -20 -62t-60 -24q-59 0 -59 58zM199 630q0 38 19.5 62t58.5 24q60 0 60 -58q0 -38 -19.5 -62t-59.5 -24q-59 0 -59 58z" />
<glyph unicode="&#xf0;" horiz-adv-x="466" d="M29 241q18 131 76 192.5t144 61.5q52 0 81 -40q-2 32 -8.5 60t-18.5 51l-62 -43l-24 47l52 37q-31 33 -77 49l50 94q40 -8 72 -26t55 -44l70 51l25 -47l-65 -47q26 -45 37.5 -100.5t11.5 -120.5q0 -29 -3 -64t-10 -87q-20 -145 -80 -212t-158 -67q-86 0 -130 46t-44 139 q0 31 6 70zM207 97q36 0 60.5 33t36.5 109q3 20 5 37.5t2 31.5q0 42 -14.5 60t-43.5 18q-39 0 -62 -34t-34 -113q-6 -36 -6 -62q0 -43 14.5 -61.5t41.5 -18.5z" />
<glyph unicode="&#xf1;" horiz-adv-x="491" d="M9 0zM9 0l79 496h111l-3 -89q29 52 67.5 77.5t83.5 25.5q60 0 88 -37t28 -100q0 -14 -2 -28.5t-4 -29.5l-50 -315h-136l46 288q3 22 3 38q0 55 -44 55q-31 0 -56.5 -33.5t-35.5 -98.5l-40 -249h-135zM380 699h76q-3 -35 -13 -58t-24 -37t-30 -20t-31 -6q-17 0 -30.5 5.5 t-25 12t-22 12t-21.5 5.5q-13 0 -18.5 -10.5t-7.5 -23.5h-79q3 34 13 57.5t23.5 37t29.5 19.5t31 6q18 0 32 -5.5t26 -12t22.5 -12t21.5 -5.5q14 0 19.5 10.5t7.5 24.5z" />
<glyph unicode="&#xf2;" horiz-adv-x="464" d="M24 0zM24 172q0 17 2 36t5 41q19 135 81.5 198t156.5 63q85 0 128 -44t43 -139q0 -17 -2 -36.5t-5 -41.5q-20 -132 -80 -197.5t-158 -65.5q-171 0 -171 186zM207 104q39 0 62.5 33.5t35.5 110.5q6 37 6 65q0 42 -14 60t-43 18q-40 0 -61.5 -33t-33.5 -110 q-3 -20 -5 -36.5t-2 -30.5q0 -77 55 -77zM232 572l-81 125l1 7h145l39 -127v-5h-104z" />
<glyph unicode="&#xf3;" horiz-adv-x="464" d="M24 0zM301 703h139l-1 -7l-118 -125h-105v5zM24 172q0 17 2 36t5 41q19 135 81.5 198t156.5 63q85 0 128 -44t43 -139q0 -17 -2 -36.5t-5 -41.5q-20 -132 -80 -197.5t-158 -65.5q-171 0 -171 186zM207 104q39 0 62.5 33.5t35.5 110.5q6 37 6 65q0 42 -14 60t-43 18 q-40 0 -61.5 -33t-33.5 -110q-3 -20 -5 -36.5t-2 -30.5q0 -77 55 -77z" />
<glyph unicode="&#xf4;" horiz-adv-x="464" d="M24 0zM242 703h110l72 -128v-4h-104l-35 59l-52 -59h-105l1 4zM24 172q0 17 2 36t5 41q19 135 81.5 198t156.5 63q85 0 128 -44t43 -139q0 -17 -2 -36.5t-5 -41.5q-20 -132 -80 -197.5t-158 -65.5q-171 0 -171 186zM207 104q39 0 62.5 33.5t35.5 110.5q6 37 6 65 q0 42 -14 60t-43 18q-40 0 -61.5 -33t-33.5 -110q-3 -20 -5 -36.5t-2 -30.5q0 -77 55 -77z" />
<glyph unicode="&#xf5;" horiz-adv-x="464" d="M24 0zM24 172q0 17 2 36t5 41q19 135 81.5 198t156.5 63q85 0 128 -44t43 -139q0 -17 -2 -36.5t-5 -41.5q-20 -132 -80 -197.5t-158 -65.5q-171 0 -171 186zM207 104q39 0 62.5 33.5t35.5 110.5q6 37 6 65q0 42 -14 60t-43 18q-40 0 -61.5 -33t-33.5 -110 q-3 -20 -5 -36.5t-2 -30.5q0 -77 55 -77zM361 699h76q-3 -35 -13 -58t-24 -37t-30 -20t-31 -6q-17 0 -30.5 5.5t-25 12t-22 12t-21.5 5.5q-13 0 -18.5 -10.5t-7.5 -23.5h-79q3 34 13 57.5t23.5 37t29.5 19.5t31 6q18 0 32 -5.5t26 -12t22.5 -12t21.5 -5.5q14 0 19.5 10.5 t7.5 24.5z" />
<glyph unicode="&#xf6;" horiz-adv-x="464" d="M24 0zM132 630q0 38 20 62t58 24q61 0 61 -58q0 -38 -20 -62t-60 -24q-59 0 -59 58zM313 630q0 38 19.5 62t58.5 24q60 0 60 -58q0 -38 -19.5 -62t-59.5 -24q-59 0 -59 58zM24 172q0 17 2 36t5 41q19 135 81.5 198t156.5 63q85 0 128 -44t43 -139q0 -17 -2 -36.5 t-5 -41.5q-20 -132 -80 -197.5t-158 -65.5q-171 0 -171 186zM207 104q39 0 62.5 33.5t35.5 110.5q6 37 6 65q0 42 -14 60t-43 18q-40 0 -61.5 -33t-33.5 -110q-3 -20 -5 -36.5t-2 -30.5q0 -77 55 -77z" />
<glyph unicode="&#xf7;" horiz-adv-x="390" d="M157 476q0 38 22 60t57 22q58 0 58 -61q0 -37 -20.5 -60t-57.5 -23q-31 0 -45 16.5t-14 45.5zM358 356l-14 -92h-306l14 92h306zM103 127q0 37 20.5 59.5t56.5 22.5q59 0 59 -61q0 -37 -21.5 -59.5t-57.5 -22.5q-31 0 -44 15t-13 46z" />
<glyph unicode="&#xf8;" horiz-adv-x="467" d="M197 -14q-82 0 -121 41l-25 -27h-78l70 77q-17 40 -17 95q0 33 6 77q19 132 81.5 196.5t158.5 64.5q38 0 69.5 -10t51.5 -33l25 29h78l-70 -78q16 -36 16 -91q0 -36 -6 -78q-19 -131 -80 -197t-159 -66zM150 190l156 184q-14 29 -47 29q-43 0 -67 -37.5t-37 -118.5 q-2 -17 -3 -31t-2 -26zM208 92q42 0 65.5 37t36.5 118q6 31 6 55l-154 -184q12 -26 46 -26z" />
<glyph unicode="&#xf9;" horiz-adv-x="488" d="M29 0zM147 -13q-62 0 -90 37.5t-28 100.5q0 14 1 29t3 30l50 312h137l-47 -292q-3 -23 -3 -39q0 -56 44 -56q30 0 53 31.5t35 97.5l41 258h136l-79 -496h-111l3 83q-28 -49 -65.5 -72.5t-79.5 -23.5zM248 572l-81 125l1 7h145l39 -127v-5h-104z" />
<glyph unicode="&#xfa;" horiz-adv-x="488" d="M29 0zM318 703h139l-1 -7l-118 -125h-105v5zM147 -13q-62 0 -90 37.5t-28 100.5q0 14 1 29t3 30l50 312h137l-47 -292q-3 -23 -3 -39q0 -56 44 -56q30 0 53 31.5t35 97.5l41 258h136l-79 -496h-111l3 83q-28 -49 -65.5 -72.5t-79.5 -23.5z" />
<glyph unicode="&#xfb;" horiz-adv-x="488" d="M29 0zM257 703h110l72 -128v-4h-104l-35 59l-52 -59h-105l1 4zM147 -13q-62 0 -90 37.5t-28 100.5q0 14 1 29t3 30l50 312h137l-47 -292q-3 -23 -3 -39q0 -56 44 -56q30 0 53 31.5t35 97.5l41 258h136l-79 -496h-111l3 83q-28 -49 -65.5 -72.5t-79.5 -23.5z" />
<glyph unicode="&#xfc;" horiz-adv-x="488" d="M29 0zM147 630q0 38 20 62t58 24q61 0 61 -58q0 -38 -20 -62t-60 -24q-59 0 -59 58zM328 630q0 38 19.5 62t58.5 24q60 0 60 -58q0 -38 -19.5 -62t-59.5 -24q-59 0 -59 58zM147 -13q-62 0 -90 37.5t-28 100.5q0 14 1 29t3 30l50 312h137l-47 -292q-3 -23 -3 -39 q0 -56 44 -56q30 0 53 31.5t35 97.5l41 258h136l-79 -496h-111l3 83q-28 -49 -65.5 -72.5t-79.5 -23.5z" />
<glyph unicode="&#xfd;" horiz-adv-x="447" d="M0 0zM99 -44l15 40l-67 500h140l22 -335l127 335h139l-265 -588q-17 -38 -37.5 -62.5t-44 -39t-48.5 -20.5t-51 -6q-28 0 -49.5 5t-40.5 16l38 106q25 -14 51 -14q25 0 41 14t30 49zM298 703h139l-1 -7l-118 -125h-105v5z" />
<glyph unicode="&#xfe;" horiz-adv-x="484" d="M278 396q-32 0 -58 -35t-38 -115q-3 -18 -4 -34t-1 -30q0 -44 14 -64.5t39 -20.5q35 0 57.5 36t35.5 114q4 21 5.5 36.5t1.5 31.5q0 81 -52 81zM152 47l-36 -233h-136l141 886h135l-41 -263q23 35 56.5 54t68.5 19q60 0 90.5 -44t30.5 -129q0 -20 -2 -39.5t-5 -43.5 q-9 -61 -26 -110.5t-43 -84.5t-61 -54t-79 -19q-63 0 -93 61z" />
<glyph unicode="&#xff;" horiz-adv-x="447" d="M0 0zM99 -44l15 40l-67 500h140l22 -335l127 335h139l-265 -588q-17 -38 -37.5 -62.5t-44 -39t-48.5 -20.5t-51 -6q-28 0 -49.5 5t-40.5 16l38 106q25 -14 51 -14q25 0 41 14t30 49zM127 630q0 38 20 62t58 24q61 0 61 -58q0 -38 -20 -62t-60 -24q-59 0 -59 58zM308 630 q0 38 19.5 62t58.5 24q60 0 60 -58q0 -38 -19.5 -62t-59.5 -24q-59 0 -59 58z" />
<glyph unicode="&#x100;" horiz-adv-x="542" d="M0 0zM317 532l-114 -299h132zM347 0l-7 116h-179l-45 -116h-144l288 700h168l64 -700h-145zM478 878l-12 -85h-225l13 85h224z" />
<glyph unicode="&#x101;" horiz-adv-x="440" d="M8 0zM127 127q0 -20 11 -31t29 -11q32 0 56 28.5t32 80.5l2 14h-29q-44 0 -72.5 -23t-28.5 -58zM248 73q-25 -40 -61 -63t-77 -23q-44 0 -73 30t-29 84q0 41 14.5 77t42.5 63t69 42.5t94 15.5h44q3 18 3 29q0 35 -16.5 50t-44.5 15q-27 0 -50 -14t-38 -41l-80 64 q32 51 81 79.5t118 28.5q36 0 66 -8.5t51.5 -26.5t34 -47t12.5 -69q0 -14 -1.5 -27.5t-3.5 -30.5l-48 -301h-112zM391 675l-12 -85h-225l13 85h224z" />
<glyph unicode="&#x102;" horiz-adv-x="542" d="M0 0zM317 532l-114 -299h132zM347 0l-7 116h-179l-45 -116h-144l288 700h168l64 -700h-145zM426 905h80q-6 -39 -19 -65.5t-32.5 -42.5t-45.5 -23t-58 -7t-56 7t-39 23t-20.5 42.5t0.5 65.5h81q-6 -36 4.5 -49t38.5 -13q29 0 45 13t21 49z" />
<glyph unicode="&#x103;" horiz-adv-x="440" d="M8 0zM127 127q0 -20 11 -31t29 -11q32 0 56 28.5t32 80.5l2 14h-29q-44 0 -72.5 -23t-28.5 -58zM248 73q-25 -40 -61 -63t-77 -23q-44 0 -73 30t-29 84q0 41 14.5 77t42.5 63t69 42.5t94 15.5h44q3 18 3 29q0 35 -16.5 50t-44.5 15q-27 0 -50 -14t-38 -41l-80 64 q32 51 81 79.5t118 28.5q36 0 66 -8.5t51.5 -26.5t34 -47t12.5 -69q0 -14 -1.5 -27.5t-3.5 -30.5l-48 -301h-112zM336 702h80q-6 -39 -19 -65.5t-32.5 -42.5t-45.5 -23t-58 -7t-56 7t-39 23t-20.5 42.5t0.5 65.5h81q-6 -36 4.5 -49t38.5 -13q29 0 45 13t21 49z" />
<glyph unicode="&#x104;" horiz-adv-x="542" d="M463 -196q-23 -16 -44.5 -23.5t-47.5 -7.5q-43 0 -72.5 24.5t-29.5 80.5q0 50 21 88.5t55 59.5l-5 90h-179l-45 -116h-144l288 700h168l64 -700h-65q-39 -4 -59 -32.5t-20 -61.5q0 -26 12.5 -37t30.5 -11q27 0 46 17zM317 532l-114 -299h132z" />
<glyph unicode="&#x105;" horiz-adv-x="440" d="M380 -195q-23 -16 -44.5 -23.5t-47.5 -7.5q-43 0 -72.5 24.5t-29.5 80.5q0 43 16 77.5t43 57.5l3 59q-25 -40 -61 -63t-77 -23q-44 0 -73 30t-29 84q0 41 14.5 77t42.5 63t69 42.5t94 15.5h44q3 18 3 29q0 35 -16.5 50t-44.5 15q-27 0 -50 -14t-38 -41l-80 64 q32 51 81 79.5t118 28.5q36 0 66 -8.5t51.5 -26.5t34 -47t12.5 -69q0 -14 -1.5 -27.5t-3.5 -30.5l-48 -301h-19q-35 -6 -53.5 -33.5t-18.5 -59.5q0 -26 12.5 -37t30.5 -11q27 0 46 17zM127 127q0 -20 11 -31t29 -11q32 0 56 28.5t32 80.5l2 14h-29q-44 0 -72.5 -23 t-28.5 -58z" />
<glyph unicode="&#x106;" horiz-adv-x="537" d="M42 0zM53 351q27 192 104.5 277.5t205.5 85.5q89 0 140 -47.5t58 -158.5l-125 -33q-6 62 -28.5 86t-61.5 24q-26 0 -48.5 -11t-41.5 -38t-34.5 -72.5t-26.5 -114.5q-5 -32 -8 -59.5t-3 -50.5q0 -72 24.5 -99.5t69.5 -27.5q35 0 67 23.5t55 81.5l113 -56 q-38 -93 -104 -134t-151 -41q-112 0 -164 58t-52 185q0 28 2.5 57.5t8.5 64.5zM398 907h139l-1 -7l-118 -125h-105v5z" />
<glyph unicode="&#x107;" horiz-adv-x="415" d="M24 0zM283 173l100 -55q-31 -70 -76.5 -101t-114.5 -31q-79 0 -123.5 45t-44.5 142q0 17 2 35.5t5 39.5q20 135 81.5 198.5t156.5 63.5q139 0 151 -152l-115 -39q-5 37 -16.5 54t-37.5 17q-34 0 -57 -32.5t-36 -110.5q-3 -18 -5 -34.5t-2 -30.5q0 -41 14 -59t46 -18 q21 0 39 15.5t33 52.5zM302 703h139l-1 -7l-118 -125h-105v5z" />
<glyph unicode="&#x108;" horiz-adv-x="537" d="M42 0zM53 351q27 192 104.5 277.5t205.5 85.5q89 0 140 -47.5t58 -158.5l-125 -33q-6 62 -28.5 86t-61.5 24q-26 0 -48.5 -11t-41.5 -38t-34.5 -72.5t-26.5 -114.5q-5 -32 -8 -59.5t-3 -50.5q0 -72 24.5 -99.5t69.5 -27.5q35 0 67 23.5t55 81.5l113 -56 q-38 -93 -104 -134t-151 -41q-112 0 -164 58t-52 185q0 28 2.5 57.5t8.5 64.5zM338 907h110l72 -128v-4h-104l-35 59l-52 -59h-105l1 4z" />
<glyph unicode="&#x109;" horiz-adv-x="415" d="M24 0zM283 173l100 -55q-31 -70 -76.5 -101t-114.5 -31q-79 0 -123.5 45t-44.5 142q0 17 2 35.5t5 39.5q20 135 81.5 198.5t156.5 63.5q139 0 151 -152l-115 -39q-5 37 -16.5 54t-37.5 17q-34 0 -57 -32.5t-36 -110.5q-3 -18 -5 -34.5t-2 -30.5q0 -41 14 -59t46 -18 q21 0 39 15.5t33 52.5zM241 703h110l72 -128v-4h-104l-35 59l-52 -59h-105l1 4z" />
<glyph unicode="&#x10a;" horiz-adv-x="537" d="M42 0zM53 351q27 192 104.5 277.5t205.5 85.5q89 0 140 -47.5t58 -158.5l-125 -33q-6 62 -28.5 86t-61.5 24q-26 0 -48.5 -11t-41.5 -38t-34.5 -72.5t-26.5 -114.5q-5 -32 -8 -59.5t-3 -50.5q0 -72 24.5 -99.5t69.5 -27.5q35 0 67 23.5t55 81.5l113 -56 q-38 -93 -104 -134t-151 -41q-112 0 -164 58t-52 185q0 28 2.5 57.5t8.5 64.5zM310 836q0 38 20.5 61t61.5 23q31 0 47 -15.5t16 -44.5q0 -39 -21 -62t-60 -23q-64 0 -64 61z" />
<glyph unicode="&#x10b;" horiz-adv-x="415" d="M24 0zM283 173l100 -55q-31 -70 -76.5 -101t-114.5 -31q-79 0 -123.5 45t-44.5 142q0 17 2 35.5t5 39.5q20 135 81.5 198.5t156.5 63.5q139 0 151 -152l-115 -39q-5 37 -16.5 54t-37.5 17q-34 0 -57 -32.5t-36 -110.5q-3 -18 -5 -34.5t-2 -30.5q0 -41 14 -59t46 -18 q21 0 39 15.5t33 52.5zM214 632q0 38 20.5 61t61.5 23q31 0 47 -15.5t16 -44.5q0 -39 -21 -62t-60 -23q-64 0 -64 61z" />
<glyph unicode="&#x10c;" horiz-adv-x="537" d="M42 0zM53 351q27 192 104.5 277.5t205.5 85.5q89 0 140 -47.5t58 -158.5l-125 -33q-6 62 -28.5 86t-61.5 24q-26 0 -48.5 -11t-41.5 -38t-34.5 -72.5t-26.5 -114.5q-5 -32 -8 -59.5t-3 -50.5q0 -72 24.5 -99.5t69.5 -27.5q35 0 67 23.5t55 81.5l113 -56 q-38 -93 -104 -134t-151 -41q-112 0 -164 58t-52 185q0 28 2.5 57.5t8.5 64.5zM319 775l-71 129v3h105l31 -59l56 59h104l-1 -3l-113 -129h-111z" />
<glyph unicode="&#x10d;" horiz-adv-x="415" d="M24 0zM283 173l100 -55q-31 -70 -76.5 -101t-114.5 -31q-79 0 -123.5 45t-44.5 142q0 17 2 35.5t5 39.5q20 135 81.5 198.5t156.5 63.5q139 0 151 -152l-115 -39q-5 37 -16.5 54t-37.5 17q-34 0 -57 -32.5t-36 -110.5q-3 -18 -5 -34.5t-2 -30.5q0 -41 14 -59t46 -18 q21 0 39 15.5t33 52.5zM222 571l-71 129v3h105l31 -59l56 59h104l-1 -3l-113 -129h-111z" />
<glyph unicode="&#x10e;" horiz-adv-x="575" d="M22 0zM22 0l111 700h202q112 0 168.5 -58.5t56.5 -183.5q0 -22 -2 -49.5t-6 -55.5q-52 -353 -322 -353h-208zM182 125h57q30 0 57 11.5t49 37.5t38.5 69.5t26.5 107.5q4 24 6 49t2 45q0 69 -24 100t-73 31h-67zM324 775l-71 129v3h105l31 -59l56 59h104l-1 -3l-113 -129 h-111z" />
<glyph unicode="&#x10f;" horiz-adv-x="590" d="M24 0zM600 445h-88l46 255h107zM206 99q32 0 57 35t38 114q6 39 6 65q0 45 -14 65t-39 20q-35 0 -57.5 -36t-35.5 -114q-4 -22 -5 -37t-1 -30q0 -82 51 -82zM151 -14q-59 0 -93 45t-34 135q0 35 6 77q18 132 73.5 199.5t129.5 67.5q35 0 58 -18t38 -53l42 261h135 l-111 -700h-109l1 72q-28 -42 -59.5 -64t-76.5 -22z" />
<glyph unicode="&#x110;" horiz-adv-x="585" d="M241 0h-209l47 292h-52l19 117h51l46 291h204q111 0 167.5 -58.5t56.5 -183.5q0 -22 -2 -49.5t-7 -55.5q-54 -353 -321 -353zM193 125h56q30 0 57 11.5t49 37.5t38.5 69.5t26.5 107.5q4 24 6.5 49t2.5 45q0 69 -24 100t-72 31h-69l-27 -167h82l-18 -117h-81z" />
<glyph unicode="&#x111;" horiz-adv-x="494" d="M300 245q6 39 6 66q0 43 -14 62t-39 19q-33 0 -57 -34t-37 -111q-6 -36 -6 -66q0 -82 53 -82q32 0 57 35.5t37 110.5zM150 -14q-59 0 -92.5 45t-33.5 133q0 35 6 77q9 65 27.5 114t45 82t59.5 50t69 17q35 0 58.5 -18.5t37.5 -53.5l19 115h-93l13 81h93l11 72h137 l-12 -72h43l-13 -81h-43l-86 -547h-111l1 71q-26 -42 -59 -63.5t-77 -21.5z" />
<glyph unicode="&#x112;" horiz-adv-x="512" d="M22 0zM452 122l-19 -122h-411l111 700h413l-21 -122h-275l-26 -164h233l-19 -125h-234l-27 -167h275zM474 878l-12 -85h-225l13 85h224z" />
<glyph unicode="&#x113;" horiz-adv-x="435" d="M25 0zM195 -14q-79 0 -124.5 46.5t-45.5 144.5q0 15 1.5 33t4.5 36q18 125 79.5 194.5t157.5 69.5q39 0 67 -13.5t46.5 -37.5t27 -57.5t8.5 -72.5q0 -30 -5 -62.5t-12 -64.5h-249q-1 -5 -1.5 -11t-0.5 -11q1 -42 18.5 -60.5t50.5 -18.5q26 0 46 14t32 40l91 -47 q-15 -27 -33 -49.5t-40.5 -38.5t-51.5 -25t-67 -9zM298 331q0 62 -47 62q-31 0 -53.5 -22t-32.5 -73h131q2 9 2 17v16zM399 675l-12 -85h-225l13 85h224z" />
<glyph unicode="&#x114;" horiz-adv-x="512" d="M22 0zM452 122l-19 -122h-411l111 700h413l-21 -122h-275l-26 -164h233l-19 -125h-234l-27 -167h275zM420 905h80q-6 -39 -19 -65.5t-32.5 -42.5t-45.5 -23t-58 -7t-56 7t-39 23t-20.5 42.5t0.5 65.5h81q-6 -36 4.5 -49t38.5 -13q29 0 45 13t21 49z" />
<glyph unicode="&#x115;" horiz-adv-x="435" d="M25 0zM195 -14q-79 0 -124.5 46.5t-45.5 144.5q0 15 1.5 33t4.5 36q18 125 79.5 194.5t157.5 69.5q39 0 67 -13.5t46.5 -37.5t27 -57.5t8.5 -72.5q0 -30 -5 -62.5t-12 -64.5h-249q-1 -5 -1.5 -11t-0.5 -11q1 -42 18.5 -60.5t50.5 -18.5q26 0 46 14t32 40l91 -47 q-15 -27 -33 -49.5t-40.5 -38.5t-51.5 -25t-67 -9zM298 331q0 62 -47 62q-31 0 -53.5 -22t-32.5 -73h131q2 9 2 17v16zM345 702h80q-6 -39 -19 -65.5t-32.5 -42.5t-45.5 -23t-58 -7t-56 7t-39 23t-20.5 42.5t0.5 65.5h81q-6 -36 4.5 -49t38.5 -13q29 0 45 13t21 49z" />
<glyph unicode="&#x116;" horiz-adv-x="512" d="M22 0zM452 122l-19 -122h-411l111 700h413l-21 -122h-275l-26 -164h233l-19 -125h-234l-27 -167h275zM282 835q0 38 20.5 61t61.5 23q31 0 47 -15.5t16 -44.5q0 -39 -21 -62t-60 -23q-64 0 -64 61z" />
<glyph unicode="&#x117;" horiz-adv-x="435" d="M25 0zM195 -14q-79 0 -124.5 46.5t-45.5 144.5q0 15 1.5 33t4.5 36q18 125 79.5 194.5t157.5 69.5q39 0 67 -13.5t46.5 -37.5t27 -57.5t8.5 -72.5q0 -30 -5 -62.5t-12 -64.5h-249q-1 -5 -1.5 -11t-0.5 -11q1 -42 18.5 -60.5t50.5 -18.5q26 0 46 14t32 40l91 -47 q-15 -27 -33 -49.5t-40.5 -38.5t-51.5 -25t-67 -9zM298 331q0 62 -47 62q-31 0 -53.5 -22t-32.5 -73h131q2 9 2 17v16zM207 632q0 38 20.5 61t61.5 23q31 0 47 -15.5t16 -44.5q0 -39 -21 -62t-60 -23q-64 0 -64 61z" />
<glyph unicode="&#x118;" horiz-adv-x="512" d="M417 -196q-23 -16 -44.5 -23.5t-47.5 -7.5q-43 0 -72.5 24.5t-29.5 80.5q0 38 12 68.5t33 53.5h-246l111 700h413l-21 -122h-275l-26 -164h233l-19 -125h-234l-27 -167h275l-19 -122h-52q-39 -4 -59 -32.5t-20 -61.5q0 -26 12.5 -37t30.5 -11q27 0 46 17z" />
<glyph unicode="&#x119;" horiz-adv-x="439" d="M218 -227q-42 0 -72 24t-30 81q0 33 9.5 61.5t26.5 50.5q-60 11 -93.5 57t-33.5 130q0 15 1.5 33t4.5 36q18 125 79.5 194.5t157.5 69.5q39 0 67 -13.5t46.5 -37.5t27 -57.5t8.5 -72.5q0 -30 -5 -62.5t-12 -64.5h-249q-1 -3 -1.5 -10t-0.5 -12q1 -42 18.5 -60.5 t50.5 -18.5q26 0 46 14t32 40l91 -47q-26 -45 -59 -76.5t-87 -41.5q-23 -12 -34.5 -35.5t-11.5 -48.5q0 -26 12.5 -37t30.5 -11q27 0 46 17l26 -71q-23 -16 -44.5 -23.5t-47.5 -7.5zM298 331q0 62 -47 62q-31 0 -53.5 -22t-32.5 -73h131q2 9 2 17v16z" />
<glyph unicode="&#x11a;" horiz-adv-x="512" d="M22 0zM452 122l-19 -122h-411l111 700h413l-21 -122h-275l-26 -164h233l-19 -125h-234l-27 -167h275zM291 775l-71 129v3h105l31 -59l56 59h104l-1 -3l-113 -129h-111z" />
<glyph unicode="&#x11b;" horiz-adv-x="435" d="M25 0zM216 571l-71 129v3h105l31 -59l56 59h104l-1 -3l-113 -129h-111zM195 -14q-79 0 -124.5 46.5t-45.5 144.5q0 15 1.5 33t4.5 36q18 125 79.5 194.5t157.5 69.5q39 0 67 -13.5t46.5 -37.5t27 -57.5t8.5 -72.5q0 -30 -5 -62.5t-12 -64.5h-249q-1 -5 -1.5 -11t-0.5 -11 q1 -42 18.5 -60.5t50.5 -18.5q26 0 46 14t32 40l91 -47q-15 -27 -33 -49.5t-40.5 -38.5t-51.5 -25t-67 -9zM298 331q0 62 -47 62q-31 0 -53.5 -22t-32.5 -73h131q2 9 2 17v16z" />
<glyph unicode="&#x11c;" horiz-adv-x="567" d="M42 0zM234 -14q-92 0 -142 61t-50 188q0 26 3 55t8 61q28 190 104 276.5t207 86.5q89 1 140 -43.5t58 -148.5l-127 -34q-5 56 -27.5 76.5t-60.5 20.5q-28 0 -51 -11.5t-42 -38.5t-33.5 -72t-25.5 -113q-5 -33 -8 -60.5t-3 -50.5q0 -74 24 -103.5t67 -29.5q18 0 37 7.5 t35.5 25.5t29.5 47t19 73h-98l19 116h224l-59 -375h-95l1 77q-28 -45 -66.5 -68t-87.5 -23zM338 907h110l72 -128v-4h-104l-35 59l-52 -59h-105l1 4z" />
<glyph unicode="&#x11d;" horiz-adv-x="482" d="M0 0zM245 703h110l72 -128v-4h-104l-35 59l-52 -59h-105l1 4zM206 112q33 0 58 34t37 111q3 17 4 31t1 27q0 82 -52 82q-34 0 -56.5 -33t-35.5 -108q-3 -19 -5 -35t-2 -30q0 -39 13.5 -59t37.5 -20zM80 -38q9 -70 75 -70q48 0 73 31.5t33 96.5l10 58q-23 -35 -53.5 -54 t-65.5 -19q-58 0 -93 43t-35 132q0 33 6 74q19 128 75.5 192t135.5 64q74 0 104 -83l19 69h108l-75 -477q-20 -120 -85.5 -179.5t-166.5 -59.5q-78 0 -120.5 31.5t-57.5 93.5z" />
<glyph unicode="&#x11e;" horiz-adv-x="567" d="M42 0zM234 -14q-92 0 -142 61t-50 188q0 26 3 55t8 61q28 190 104 276.5t207 86.5q89 1 140 -43.5t58 -148.5l-127 -34q-5 56 -27.5 76.5t-60.5 20.5q-28 0 -51 -11.5t-42 -38.5t-33.5 -72t-25.5 -113q-5 -33 -8 -60.5t-3 -50.5q0 -74 24 -103.5t67 -29.5q18 0 37 7.5 t35.5 25.5t29.5 47t19 73h-98l19 116h224l-59 -375h-95l1 77q-28 -45 -66.5 -68t-87.5 -23zM448 906h80q-6 -39 -19 -65.5t-32.5 -42.5t-45.5 -23t-58 -7t-56 7t-39 23t-20.5 42.5t0.5 65.5h81q-6 -36 4.5 -49t38.5 -13q29 0 45 13t21 49z" />
<glyph unicode="&#x11f;" horiz-adv-x="482" d="M0 0zM206 112q33 0 58 34t37 111q3 17 4 31t1 27q0 82 -52 82q-34 0 -56.5 -33t-35.5 -108q-3 -19 -5 -35t-2 -30q0 -39 13.5 -59t37.5 -20zM80 -38q9 -70 75 -70q48 0 73 31.5t33 96.5l10 58q-23 -35 -53.5 -54t-65.5 -19q-58 0 -93 43t-35 132q0 33 6 74 q19 128 75.5 192t135.5 64q74 0 104 -83l19 69h108l-75 -477q-20 -120 -85.5 -179.5t-166.5 -59.5q-78 0 -120.5 31.5t-57.5 93.5zM355 702h80q-6 -39 -19 -65.5t-32.5 -42.5t-45.5 -23t-58 -7t-56 7t-39 23t-20.5 42.5t0.5 65.5h81q-6 -36 4.5 -49t38.5 -13q29 0 45 13 t21 49z" />
<glyph unicode="&#x120;" horiz-adv-x="567" d="M42 0zM234 -14q-92 0 -142 61t-50 188q0 26 3 55t8 61q28 190 104 276.5t207 86.5q89 1 140 -43.5t58 -148.5l-127 -34q-5 56 -27.5 76.5t-60.5 20.5q-28 0 -51 -11.5t-42 -38.5t-33.5 -72t-25.5 -113q-5 -33 -8 -60.5t-3 -50.5q0 -74 24 -103.5t67 -29.5q18 0 37 7.5 t35.5 25.5t29.5 47t19 73h-98l19 116h224l-59 -375h-95l1 77q-28 -45 -66.5 -68t-87.5 -23zM310 836q0 38 20.5 61t61.5 23q31 0 47 -15.5t16 -44.5q0 -39 -21 -62t-60 -23q-64 0 -64 61z" />
<glyph unicode="&#x121;" horiz-adv-x="482" d="M0 0zM206 112q33 0 58 34t37 111q3 17 4 31t1 27q0 82 -52 82q-34 0 -56.5 -33t-35.5 -108q-3 -19 -5 -35t-2 -30q0 -39 13.5 -59t37.5 -20zM80 -38q9 -70 75 -70q48 0 73 31.5t33 96.5l10 58q-23 -35 -53.5 -54t-65.5 -19q-58 0 -93 43t-35 132q0 33 6 74 q19 128 75.5 192t135.5 64q74 0 104 -83l19 69h108l-75 -477q-20 -120 -85.5 -179.5t-166.5 -59.5q-78 0 -120.5 31.5t-57.5 93.5zM218 632q0 38 20.5 61t61.5 23q31 0 47 -15.5t16 -44.5q0 -39 -21 -62t-60 -23q-64 0 -64 61z" />
<glyph unicode="&#x122;" horiz-adv-x="567" d="M42 0zM234 -14q-92 0 -142 61t-50 188q0 26 3 55t8 61q28 190 104 276.5t207 86.5q89 1 140 -43.5t58 -148.5l-127 -34q-5 56 -27.5 76.5t-60.5 20.5q-28 0 -51 -11.5t-42 -38.5t-33.5 -72t-25.5 -113q-5 -33 -8 -60.5t-3 -50.5q0 -74 24 -103.5t67 -29.5q18 0 37 7.5 t35.5 25.5t29.5 47t19 73h-98l19 116h224l-59 -375h-95l1 77q-28 -45 -66.5 -68t-87.5 -23zM161 -324l-21 52q26 11 47.5 31t29.5 46q-26 -1 -42 13.5t-15 43.5q1 37 22 59.5t58 22.5q61 0 61 -69q-1 -34 -12 -66.5t-29.5 -59.5t-44 -46t-54.5 -27z" />
<glyph unicode="&#x123;" horiz-adv-x="480" d="M350 830l21 -52q-26 -11 -47.5 -31t-29.5 -46q26 1 42 -13.5t15 -43.5q-1 -37 -22 -59.5t-58 -22.5q-61 0 -61 69q1 34 12 66.5t29.5 59.5t44 46t54.5 27zM206 112q33 0 58 34t37 111q3 17 4 31t1 27q0 82 -52 82q-34 0 -56.5 -33t-35.5 -108q-3 -19 -5 -35t-2 -30 q0 -39 13.5 -59t37.5 -20zM80 -38q9 -70 75 -70q48 0 73 31.5t33 96.5l10 58q-23 -35 -53.5 -54t-65.5 -19q-58 0 -93 43t-35 132q0 33 6 74q19 128 75.5 192t135.5 64q74 0 104 -83l19 69h108l-75 -477q-20 -120 -85.5 -179.5t-166.5 -59.5q-78 0 -120.5 31.5t-57.5 93.5z " />
<glyph unicode="&#x124;" horiz-adv-x="608" d="M22 0zM363 0l44 284h-199l-45 -284h-141l111 700h141l-46 -284h201l45 284h141l-111 -700h-141zM349 907h110l72 -128v-4h-104l-35 59l-52 -59h-105l1 4z" />
<glyph unicode="&#x125;" horiz-adv-x="491" d="M9 0zM255 700l-46 -294q27 53 64 78.5t78 25.5q54 0 82.5 -35t28.5 -99q0 -14 -1.5 -28.5t-3.5 -29.5l-50 -318h-136l45 288q2 11 3 21.5t1 18.5q0 53 -44 53q-32 0 -57 -34.5t-36 -100.5l-39 -246h-135l111 700h135zM166 906h110l72 -128v-4h-104l-35 59l-52 -59h-105 l1 4z" />
<glyph unicode="&#x126;" horiz-adv-x="631" d="M241 416h200l13 85h-200zM79 582h48l18 118h141l-18 -118h200l18 118h142l-19 -118h48l-14 -81h-48l-78 -501h-141l44 284h-199l-46 -284h-141l79 501h-48z" />
<glyph unicode="&#x127;" horiz-adv-x="499" d="M60 547l13 81h45l11 72h137l-12 -72h90l-12 -81h-91l-23 -144q29 52 64.5 77t77.5 25q56 0 82.5 -37.5t26.5 -100.5q0 -14 -1.5 -29.5t-3.5 -32.5l-48 -305h-136l43 274q2 13 3 24.5t1 20.5q0 56 -42 56q-32 0 -56.5 -34t-35.5 -101l-38 -240h-137l87 547h-45z" />
<glyph unicode="&#x128;" horiz-adv-x="267" d="M22 0zM22 0l111 700h141l-111 -700h-141zM298 902h76q-3 -35 -13 -58t-24 -37t-30 -20t-31 -6q-17 0 -30.5 5.5t-25 12t-22 12t-21.5 5.5q-13 0 -18.5 -10.5t-7.5 -23.5h-79q3 34 13 57.5t23.5 37t29.5 19.5t31 6q18 0 32 -5.5t26 -12t22.5 -12t21.5 -5.5q14 0 19.5 10.5 t7.5 24.5z" />
<glyph unicode="&#x129;" horiz-adv-x="233" d="M9 0zM88 496h136l-78 -496h-137zM249 699h76q-3 -35 -13 -58t-24 -37t-30 -20t-31 -6q-17 0 -30.5 5.5t-25 12t-22 12t-21.5 5.5q-13 0 -18.5 -10.5t-7.5 -23.5h-79q3 34 13 57.5t23.5 37t29.5 19.5t31 6q18 0 32 -5.5t26 -12t22.5 -12t21.5 -5.5q14 0 19.5 10.5 t7.5 24.5z" />
<glyph unicode="&#x12a;" horiz-adv-x="267" d="M22 0zM22 0l111 700h141l-111 -700h-141zM342 878l-12 -85h-225l13 85h224z" />
<glyph unicode="&#x12b;" horiz-adv-x="233" d="M9 0zM88 496h136l-78 -496h-137zM294 675l-12 -85h-225l13 85h224z" />
<glyph unicode="&#x12c;" horiz-adv-x="267" d="M22 0zM22 0l111 700h141l-111 -700h-141zM288 905h80q-6 -39 -19 -65.5t-32.5 -42.5t-45.5 -23t-58 -7t-56 7t-39 23t-20.5 42.5t0.5 65.5h81q-6 -36 4.5 -49t38.5 -13q29 0 45 13t21 49z" />
<glyph unicode="&#x12d;" horiz-adv-x="233" d="M9 0zM88 496h136l-78 -496h-137zM239 702h80q-6 -39 -19 -65.5t-32.5 -42.5t-45.5 -23t-58 -7t-56 7t-39 23t-20.5 42.5t0.5 65.5h81q-6 -36 4.5 -49t38.5 -13q29 0 45 13t21 49z" />
<glyph unicode="&#x12e;" horiz-adv-x="267" d="M139 -196q-23 -16 -44.5 -23.5t-47.5 -7.5q-43 0 -72.5 24.5t-29.5 80.5q0 52 23 91.5t59 59.5l106 671h141l-111 -700h-60q-39 -4 -59 -32.5t-20 -61.5q0 -26 12.5 -37t30.5 -11q27 0 46 17z" />
<glyph unicode="&#x12f;" horiz-adv-x="233" d="M101 633q0 42 21.5 68t65.5 26q33 0 51 -16.5t18 -47.5q0 -43 -24 -69t-66 -26q-32 0 -49 17.5t-17 47.5zM114 -196q-23 -16 -44.5 -23.5t-47.5 -7.5q-43 0 -72.5 24.5t-29.5 80.5q0 57 26.5 98.5t68.5 59.5l73 460h136l-78 -496h-68q-39 -4 -59 -32.5t-20 -61.5 q0 -26 12.5 -37t30.5 -11q27 0 46 17z" />
<glyph unicode="&#x130;" horiz-adv-x="267" d="M22 0zM22 0l111 700h141l-111 -700h-141zM151 835q0 38 20.5 61t61.5 23q31 0 47 -15.5t16 -44.5q0 -39 -21 -62t-60 -23q-64 0 -64 61z" />
<glyph unicode="&#x131;" horiz-adv-x="233" d="M88 496h136l-78 -496h-137z" />
<glyph unicode="&#x132;" horiz-adv-x="692" d="M22 0zM22 0l111 700h141l-111 -700h-141zM382 -14q-39 0 -80 13.5t-70 45.5l78 107q17 -17 37.5 -27t42.5 -10q38 0 64.5 31t38.5 104l72 450h142l-72 -449q-12 -74 -35.5 -125t-56.5 -82t-74 -44.5t-87 -13.5z" />
<glyph unicode="&#x133;" horiz-adv-x="462" d="M9 0zM101 633q0 42 21.5 68t65.5 26q33 0 51 -16.5t18 -47.5q0 -43 -24 -69t-66 -26q-32 0 -49 17.5t-17 47.5zM88 496h136l-78 -496h-137zM328 633q0 42 21.5 68t66.5 26q32 0 50 -16.5t18 -47.5q0 -43 -23.5 -69t-65.5 -26q-32 0 -49.5 17.5t-17.5 47.5zM233 -27 l83 523h135l-83 -533q-16 -94 -65.5 -138.5t-115.5 -44.5q-33 0 -56 6.5t-43 18.5l48 105q8 -5 16 -8.5t19 -3.5q23 0 39 16.5t23 58.5z" />
<glyph unicode="&#x134;" horiz-adv-x="418" d="M0 0zM110 -14q-39 0 -80 13.5t-70 45.5l78 107q17 -17 37.5 -27t42.5 -10q38 0 64.5 31t38.5 104l72 450h142l-72 -449q-12 -74 -35.5 -125t-56.5 -82t-74 -44.5t-87 -13.5zM338 907h110l72 -128v-4h-104l-35 59l-52 -59h-105l1 4z" />
<glyph unicode="&#x135;" horiz-adv-x="232" d="M0 0zM4 -27l83 523h135l-83 -533q-15 -94 -65 -138.5t-116 -44.5q-34 0 -56.5 6.5t-42.5 18.5l48 105q15 -12 35 -12q23 0 38.5 16.5t23.5 58.5zM130 703h110l72 -128v-4h-104l-35 59l-52 -59h-105l1 4z" />
<glyph unicode="&#x136;" horiz-adv-x="551" d="M22 0zM344 0l-83 268l-70 -83l-28 -185h-141l111 700h141l-51 -307l228 307h161l-240 -298l132 -402h-160zM172 -324l-21 52q26 11 47.5 31t29.5 46q-26 -1 -42 13.5t-15 43.5q1 37 22 59.5t58 22.5q61 0 61 -69q-1 -34 -12 -66.5t-29.5 -59.5t-44 -46t-54.5 -27z" />
<glyph unicode="&#x137;" horiz-adv-x="456" d="M9 0zM116 -325l-21 52q26 11 47.5 31t29.5 46q-26 -1 -42 13.5t-15 43.5q1 37 22 59.5t58 22.5q61 0 61 -69q-1 -34 -12 -66.5t-29.5 -59.5t-44 -46t-54.5 -27zM160 107l-16 -107h-135l111 700h136l-74 -430l160 226h145l-174 -214l99 -282h-148l-51 173z" />
<glyph unicode="&#x138;" horiz-adv-x="461" d="M162 108l-17 -108h-134l77 496h136l-39 -226l159 226h145l-173 -214l98 -282h-148l-52 174z" />
<glyph unicode="&#x139;" horiz-adv-x="483" d="M22 0zM183 129h259l-19 -129h-401l110 700h142zM225 907h139l-1 -7l-118 -125h-105v5z" />
<glyph unicode="&#x13a;" horiz-adv-x="232" d="M14 0zM129 0q-57 0 -86 30t-17 104l89 566h134l-87 -555q-3 -20 1 -30t21 -10h28l-16 -105h-67zM225 907h139l-1 -7l-118 -125h-105v5z" />
<glyph unicode="&#x13b;" horiz-adv-x="483" d="M22 0zM183 129h259l-19 -129h-401l110 700h142zM146 -324l-21 52q26 11 47.5 31t29.5 46q-26 -1 -42 13.5t-15 43.5q1 37 22 59.5t58 22.5q61 0 61 -69q-1 -34 -12 -66.5t-29.5 -59.5t-44 -46t-54.5 -27z" />
<glyph unicode="&#x13c;" horiz-adv-x="245" d="M0 0zM129 0q-57 0 -86 30t-17 104l89 566h134l-87 -555q-3 -20 1 -30t21 -10h28l-16 -105h-67zM-9 -324l-21 52q26 11 47.5 31t29.5 46q-26 -1 -42 13.5t-15 43.5q1 37 22 59.5t58 22.5q61 0 61 -69q-1 -34 -12 -66.5t-29.5 -59.5t-44 -46t-54.5 -27z" />
<glyph unicode="&#x13d;" horiz-adv-x="489" d="M22 0zM423 446h-88l46 255h107zM183 129h259l-19 -129h-401l110 700h142z" />
<glyph unicode="&#x13e;" horiz-adv-x="338" d="M14 0zM347 446h-88l46 255h107zM129 0q-57 0 -86 30t-17 104l89 566h134l-87 -555q-3 -20 1 -30t21 -10h28l-16 -105h-67z" />
<glyph unicode="&#x13f;" horiz-adv-x="486" d="M22 0zM183 129h259l-19 -129h-401l110 700h142zM329 347q0 38 20.5 61t61.5 23q31 0 47 -15.5t16 -44.5q0 -39 -21 -62t-60 -23q-64 0 -64 61z" />
<glyph unicode="&#x140;" horiz-adv-x="361" d="M15 0zM130 0q-57 0 -86 30t-17 104l89 566h134l-87 -555q-3 -20 1 -30t21 -10h28l-16 -105h-67zM229 292q0 38 20.5 61t61.5 23q31 0 47 -15.5t16 -44.5q0 -39 -21 -62t-60 -23q-64 0 -64 61z" />
<glyph unicode="&#x141;" horiz-adv-x="498" d="M199 129h260l-20 -129h-402l36 221l-70 -51l19 122l69 51l57 357h142l-44 -276l136 92l-20 -123l-134 -92z" />
<glyph unicode="&#x142;" horiz-adv-x="266" d="M217 0h-67q-57 0 -86 30t-17 104l14 89l-67 -58l20 122l66 59l56 354h134l-39 -249l71 62l-20 -122l-70 -63l-29 -183q-3 -20 1 -30t21 -10h28z" />
<glyph unicode="&#x143;" horiz-adv-x="604" d="M22 0zM376 0l-162 412l-61 -412h-131l111 700h112l170 -433l65 433h131l-111 -700h-124zM405 907h139l-1 -7l-118 -125h-105v5z" />
<glyph unicode="&#x144;" horiz-adv-x="491" d="M9 0zM320 703h139l-1 -7l-118 -125h-105v5zM9 0l79 496h111l-3 -89q29 52 67.5 77.5t83.5 25.5q60 0 88 -37t28 -100q0 -14 -2 -28.5t-4 -29.5l-50 -315h-136l46 288q3 22 3 38q0 55 -44 55q-31 0 -56.5 -33.5t-35.5 -98.5l-40 -249h-135z" />
<glyph unicode="&#x145;" horiz-adv-x="604" d="M22 0zM376 0l-162 412l-61 -412h-131l111 700h112l170 -433l65 433h131l-111 -700h-124zM178 -324l-21 52q26 11 47.5 31t29.5 46q-26 -1 -42 13.5t-15 43.5q1 37 22 59.5t58 22.5q61 0 61 -69q-1 -34 -12 -66.5t-29.5 -59.5t-44 -46t-54.5 -27z" />
<glyph unicode="&#x146;" horiz-adv-x="491" d="M9 0zM120 -324l-21 52q26 11 47.5 31t29.5 46q-26 -1 -42 13.5t-15 43.5q1 37 22 59.5t58 22.5q61 0 61 -69q-1 -34 -12 -66.5t-29.5 -59.5t-44 -46t-54.5 -27zM9 0l79 496h111l-3 -89q29 52 67.5 77.5t83.5 25.5q60 0 88 -37t28 -100q0 -14 -2 -28.5t-4 -29.5l-50 -315 h-136l46 288q3 22 3 38q0 55 -44 55q-31 0 -56.5 -33.5t-35.5 -98.5l-40 -249h-135z" />
<glyph unicode="&#x147;" horiz-adv-x="604" d="M22 0zM376 0l-162 412l-61 -412h-131l111 700h112l170 -433l65 433h131l-111 -700h-124zM326 775l-71 129v3h105l31 -59l56 59h104l-1 -3l-113 -129h-111z" />
<glyph unicode="&#x148;" horiz-adv-x="491" d="M9 0zM242 571l-71 129v3h105l31 -59l56 59h104l-1 -3l-113 -129h-111zM9 0l79 496h111l-3 -89q29 52 67.5 77.5t83.5 25.5q60 0 88 -37t28 -100q0 -14 -2 -28.5t-4 -29.5l-50 -315h-136l46 288q3 22 3 38q0 55 -44 55q-31 0 -56.5 -33.5t-35.5 -98.5l-40 -249h-135z" />
<glyph unicode="&#x14a;" horiz-adv-x="604" d="M364 -22l6 40l-156 394l-61 -412h-131l111 700h112l171 -434l64 434h132l-117 -737q-7 -47 -23.5 -81.5t-40 -57t-53.5 -33.5t-63 -11q-22 0 -46.5 4t-43.5 17l42 108q15 -11 37 -11q24 0 38 17.5t22 62.5z" />
<glyph unicode="&#x14b;" horiz-adv-x="493" d="M401 -40q-15 -93 -64.5 -136.5t-115.5 -43.5q-23 0 -47.5 4.5t-44.5 17.5l43 107q19 -11 36 -11q25 0 38.5 17.5t21.5 62.5l48 308q2 11 3 21.5t1 18.5q0 55 -44 55q-31 0 -57 -34t-36 -100l-38 -247h-136l78 496h112l-3 -88q29 51 67.5 76.5t82.5 25.5q60 0 88 -36.5 t28 -98.5q0 -14 -1.5 -28t-3.5 -30z" />
<glyph unicode="&#x14c;" horiz-adv-x="597" d="M42 0zM364 714q113 0 165 -59t52 -182q0 -28 -3 -58t-8 -65q-26 -186 -102 -275t-210 -89q-112 0 -164 59.5t-52 183.5q0 27 3 57t8 65q26 185 102 274t209 89zM349 585q-29 0 -53 -11.5t-43 -39.5t-33.5 -73.5t-24.5 -112.5q-5 -33 -8 -60t-3 -51q0 -69 23 -97.5 t66 -28.5q29 0 53 12t43 39.5t33.5 73.5t25.5 114q5 33 7.5 60.5t2.5 50.5q0 69 -22.5 96.5t-66.5 27.5zM501 879l-12 -85h-225l13 85h224z" />
<glyph unicode="&#x14d;" horiz-adv-x="464" d="M24 0zM406 675l-12 -85h-225l13 85h224zM24 172q0 17 2 36t5 41q19 135 81.5 198t156.5 63q85 0 128 -44t43 -139q0 -17 -2 -36.5t-5 -41.5q-20 -132 -80 -197.5t-158 -65.5q-171 0 -171 186zM207 104q39 0 62.5 33.5t35.5 110.5q6 37 6 65q0 42 -14 60t-43 18 q-40 0 -61.5 -33t-33.5 -110q-3 -20 -5 -36.5t-2 -30.5q0 -77 55 -77z" />
<glyph unicode="&#x14e;" horiz-adv-x="597" d="M42 0zM364 714q113 0 165 -59t52 -182q0 -28 -3 -58t-8 -65q-26 -186 -102 -275t-210 -89q-112 0 -164 59.5t-52 183.5q0 27 3 57t8 65q26 185 102 274t209 89zM349 585q-29 0 -53 -11.5t-43 -39.5t-33.5 -73.5t-24.5 -112.5q-5 -33 -8 -60t-3 -51q0 -69 23 -97.5 t66 -28.5q29 0 53 12t43 39.5t33.5 73.5t25.5 114q5 33 7.5 60.5t2.5 50.5q0 69 -22.5 96.5t-66.5 27.5zM447 906h80q-6 -39 -19 -65.5t-32.5 -42.5t-45.5 -23t-58 -7t-56 7t-39 23t-20.5 42.5t0.5 65.5h81q-6 -36 4.5 -49t38.5 -13q29 0 45 13t21 49z" />
<glyph unicode="&#x14f;" horiz-adv-x="464" d="M24 0zM24 172q0 17 2 36t5 41q19 135 81.5 198t156.5 63q85 0 128 -44t43 -139q0 -17 -2 -36.5t-5 -41.5q-20 -132 -80 -197.5t-158 -65.5q-171 0 -171 186zM207 104q39 0 62.5 33.5t35.5 110.5q6 37 6 65q0 42 -14 60t-43 18q-40 0 -61.5 -33t-33.5 -110 q-3 -20 -5 -36.5t-2 -30.5q0 -77 55 -77zM352 702h80q-6 -39 -19 -65.5t-32.5 -42.5t-45.5 -23t-58 -7t-56 7t-39 23t-20.5 42.5t0.5 65.5h81q-6 -36 4.5 -49t38.5 -13q29 0 45 13t21 49z" />
<glyph unicode="&#x150;" horiz-adv-x="597" d="M42 0zM364 714q113 0 165 -59t52 -182q0 -28 -3 -58t-8 -65q-26 -186 -102 -275t-210 -89q-112 0 -164 59.5t-52 183.5q0 27 3 57t8 65q26 185 102 274t209 89zM349 585q-29 0 -53 -11.5t-43 -39.5t-33.5 -73.5t-24.5 -112.5q-5 -33 -8 -60t-3 -51q0 -69 23 -97.5 t66 -28.5q29 0 53 12t43 39.5t33.5 73.5t25.5 114q5 33 7.5 60.5t2.5 50.5q0 69 -22.5 96.5t-66.5 27.5zM491 907h133l-1 -6l-121 -126h-91v5zM315 907h133l-1 -6l-122 -126h-91v5z" />
<glyph unicode="&#x151;" horiz-adv-x="463" d="M24 0zM391 703h133l-1 -6l-121 -126h-91v5zM215 703h133l-1 -6l-122 -126h-91v5zM24 172q0 17 2 36t5 41q19 135 81.5 198t156.5 63q85 0 128 -44t43 -139q0 -17 -2 -36.5t-5 -41.5q-20 -132 -80 -197.5t-158 -65.5q-171 0 -171 186zM207 104q39 0 62.5 33.5t35.5 110.5 q6 37 6 65q0 42 -14 60t-43 18q-40 0 -61.5 -33t-33.5 -110q-3 -20 -5 -36.5t-2 -30.5q0 -77 55 -77z" />
<glyph unicode="&#x152;" horiz-adv-x="816" d="M269 0q-113 0 -169 60t-56 186q0 23 2 48.5t6 53.5q25 177 101.5 264.5t213.5 87.5h479l-20 -121h-267l-25 -163h230l-20 -125h-231l-25 -169h275l-20 -122h-474zM279 124h73l70 451h-63q-32 0 -58 -11.5t-46.5 -38t-35.5 -69.5t-25 -106q-4 -26 -6.5 -51t-2.5 -47 q0 -128 94 -128z" />
<glyph unicode="&#x153;" horiz-adv-x="716" d="M196 -14q-173 0 -173 187q0 35 6 76q19 132 81.5 196.5t159.5 64.5q93 0 128 -80q61 80 155 80q38 0 65.5 -13t45 -37t26 -57t8.5 -72q0 -31 -5 -63.5t-13 -65.5h-246v-20q1 -43 17.5 -62t48.5 -19q26 0 45.5 14t31.5 40l91 -47q-15 -27 -32.5 -49t-40 -38.5t-52.5 -25.5 t-70 -9q-44 0 -77 18t-51 60q-60 -78 -149 -78zM534 396q-29 0 -52 -23.5t-33 -76.5h129q1 9 2 17t1 17q0 66 -47 66zM306 247q6 39 6 65q0 80 -57 80q-40 0 -62.5 -35t-33.5 -110q-6 -39 -6 -68q0 -78 54 -78q39 0 63 35.5t36 110.5z" />
<glyph unicode="&#x154;" horiz-adv-x="540" d="M22 0zM219 359h84q25 0 44.5 10.5t33 29.5t20 44.5t6.5 54.5q0 38 -17 57.5t-55 19.5h-83zM199 235l-37 -235h-140l111 700h242q89 0 131 -47.5t42 -128.5q0 -95 -33.5 -157.5t-93.5 -95.5l53 -271h-149l-39 235h-87zM386 907h139l-1 -7l-118 -125h-105v5z" />
<glyph unicode="&#x155;" horiz-adv-x="322" d="M9 0zM273 703h139l-1 -7l-118 -125h-105v5zM9 0l79 496h111l-3 -98q28 57 67 86.5t83 27.5l-21 -144q-60 6 -97.5 -39t-51.5 -127l-32 -202h-135z" />
<glyph unicode="&#x156;" horiz-adv-x="540" d="M22 0zM219 359h84q25 0 44.5 10.5t33 29.5t20 44.5t6.5 54.5q0 38 -17 57.5t-55 19.5h-83zM199 235l-37 -235h-140l111 700h242q89 0 131 -47.5t42 -128.5q0 -95 -33.5 -157.5t-93.5 -95.5l53 -271h-149l-39 235h-87zM158 -324l-21 52q26 11 47.5 31t29.5 46 q-26 -1 -42 13.5t-15 43.5q1 37 22 59.5t58 22.5q61 0 61 -69q-1 -34 -12 -66.5t-29.5 -59.5t-44 -46t-54.5 -27z" />
<glyph unicode="&#x157;" horiz-adv-x="323" d="M0 0zM-8 -324l-21 52q26 11 47.5 31t29.5 46q-26 -1 -42 13.5t-15 43.5q1 37 22 59.5t58 22.5q61 0 61 -69q-1 -34 -12 -66.5t-29.5 -59.5t-44 -46t-54.5 -27zM11 0l79 496h111l-3 -98q28 57 67 86.5t83 27.5l-21 -144q-60 6 -97.5 -39t-51.5 -127l-32 -202h-135z" />
<glyph unicode="&#x158;" horiz-adv-x="540" d="M22 0zM219 359h84q25 0 44.5 10.5t33 29.5t20 44.5t6.5 54.5q0 38 -17 57.5t-55 19.5h-83zM199 235l-37 -235h-140l111 700h242q89 0 131 -47.5t42 -128.5q0 -95 -33.5 -157.5t-93.5 -95.5l53 -271h-149l-39 235h-87zM307 775l-71 129v3h105l31 -59l56 59h104l-1 -3 l-113 -129h-111z" />
<glyph unicode="&#x159;" horiz-adv-x="321" d="M9 0zM193 571l-71 129v3h105l31 -59l56 59h104l-1 -3l-113 -129h-111zM9 0l79 496h111l-3 -98q28 57 67 86.5t83 27.5l-21 -144q-60 6 -97.5 -39t-51.5 -127l-32 -202h-135z" />
<glyph unicode="&#x15a;" horiz-adv-x="483" d="M0 0zM496 527l-126 -42q-6 57 -28.5 80t-59.5 23q-38 0 -58 -21t-19 -53q1 -26 17.5 -47t51.5 -38l36 -18q71 -35 104.5 -80.5t33.5 -118.5q0 -50 -16.5 -91.5t-47.5 -71.5t-75.5 -46.5t-100.5 -16.5q-94 0 -148.5 49.5t-68.5 138.5l126 47q7 -61 32.5 -88t67.5 -27 q39 0 63.5 21.5t24.5 59.5q0 30 -16 49t-48 36l-33 17q-78 41 -110 93.5t-32 114.5q0 42 15 81.5t44 69.5t71.5 48t97.5 18q45 0 82 -13.5t63 -38t41 -59t16 -76.5zM340 905h139l-1 -7l-118 -125h-105v5z" />
<glyph unicode="&#x15b;" horiz-adv-x="388" d="M0 0zM271 703h139l-1 -7l-118 -125h-105v5zM-11 117l101 43q13 -72 78 -72q29 0 43 12t14 30q0 15 -11 27t-37 25l-32 16q-46 23 -72.5 58t-26.5 88q0 36 12.5 66.5t36 53t56.5 35.5t74 13q134 0 164 -133l-103 -41q-4 31 -22.5 48.5t-45.5 17.5q-24 0 -37.5 -12.5 t-13.5 -29.5q0 -14 10.5 -25.5t40.5 -25.5l25 -12q22 -11 41.5 -24t34.5 -31t23.5 -40.5t8.5 -50.5q0 -35 -12.5 -65.5t-36 -53t-58 -35.5t-78.5 -13q-74 0 -120 33t-57 98z" />
<glyph unicode="&#x15c;" horiz-adv-x="483" d="M0 0zM496 527l-126 -42q-6 57 -28.5 80t-59.5 23q-38 0 -58 -21t-19 -53q1 -26 17.5 -47t51.5 -38l36 -18q71 -35 104.5 -80.5t33.5 -118.5q0 -50 -16.5 -91.5t-47.5 -71.5t-75.5 -46.5t-100.5 -16.5q-94 0 -148.5 49.5t-68.5 138.5l126 47q7 -61 32.5 -88t67.5 -27 q39 0 63.5 21.5t24.5 59.5q0 30 -16 49t-48 36l-33 17q-78 41 -110 93.5t-32 114.5q0 42 15 81.5t44 69.5t71.5 48t97.5 18q45 0 82 -13.5t63 -38t41 -59t16 -76.5zM281 905h110l72 -128v-4h-104l-35 59l-52 -59h-105l1 4z" />
<glyph unicode="&#x15d;" horiz-adv-x="388" d="M0 0zM210 702h110l72 -128v-4h-104l-35 59l-52 -59h-105l1 4zM-11 117l101 43q13 -72 78 -72q29 0 43 12t14 30q0 15 -11 27t-37 25l-32 16q-46 23 -72.5 58t-26.5 88q0 36 12.5 66.5t36 53t56.5 35.5t74 13q134 0 164 -133l-103 -41q-4 31 -22.5 48.5t-45.5 17.5 q-24 0 -37.5 -12.5t-13.5 -29.5q0 -14 10.5 -25.5t40.5 -25.5l25 -12q22 -11 41.5 -24t34.5 -31t23.5 -40.5t8.5 -50.5q0 -35 -12.5 -65.5t-36 -53t-58 -35.5t-78.5 -13q-74 0 -120 33t-57 98z" />
<glyph unicode="&#x15e;" horiz-adv-x="486" d="M157 -251q-39 0 -71.5 17.5t-43.5 59.5l64 38q15 -42 52 -42q22 0 33 12.5t11 29.5q0 18 -15 27t-32 3l-19 14l33 80q-76 11 -121 59t-57 127l126 47q7 -61 32.5 -88t67.5 -27q39 0 63.5 21.5t24.5 59.5q0 30 -16 49t-48 36l-33 17q-78 41 -110 93.5t-32 114.5 q0 42 15 81.5t44 69.5t71.5 48t97.5 18q45 0 82 -13.5t63 -38t41 -59t16 -76.5l-126 -42q-6 57 -28.5 80t-59.5 23q-38 0 -58 -21t-19 -53q1 -26 17.5 -47t51.5 -38l36 -18q71 -35 104.5 -80.5t33.5 -118.5q0 -47 -14.5 -86.5t-42 -69t-67 -47.5t-89.5 -22l-19 -41 q26 -4 46 -23.5t20 -56.5q0 -57 -35.5 -87t-89.5 -30z" />
<glyph unicode="&#x15f;" horiz-adv-x="388" d="M124 -249q-39 0 -71.5 17.5t-43.5 59.5l64 38q15 -42 52 -42q22 0 33 12.5t11 29.5q0 18 -15 27t-32 3l-19 14l32 78q-60 6 -98 38.5t-48 90.5l101 43q13 -72 78 -72q29 0 43 12t14 30q0 15 -11 27t-37 25l-32 16q-46 23 -72.5 58t-26.5 88q0 36 12.5 66.5t36 53 t56.5 35.5t74 13q134 0 164 -133l-103 -41q-4 31 -22.5 48.5t-45.5 17.5q-24 0 -37.5 -12.5t-13.5 -29.5q0 -14 10.5 -25.5t40.5 -25.5l25 -12q22 -11 41.5 -24t34.5 -31t23.5 -40.5t8.5 -50.5q0 -63 -38.5 -108.5t-110.5 -56.5l-19 -40q26 -4 46 -23.5t20 -56.5 q0 -57 -35.5 -87t-89.5 -30z" />
<glyph unicode="&#x160;" horiz-adv-x="483" d="M0 0zM496 527l-126 -42q-6 57 -28.5 80t-59.5 23q-38 0 -58 -21t-19 -53q1 -26 17.5 -47t51.5 -38l36 -18q71 -35 104.5 -80.5t33.5 -118.5q0 -50 -16.5 -91.5t-47.5 -71.5t-75.5 -46.5t-100.5 -16.5q-94 0 -148.5 49.5t-68.5 138.5l126 47q7 -61 32.5 -88t67.5 -27 q39 0 63.5 21.5t24.5 59.5q0 30 -16 49t-48 36l-33 17q-78 41 -110 93.5t-32 114.5q0 42 15 81.5t44 69.5t71.5 48t97.5 18q45 0 82 -13.5t63 -38t41 -59t16 -76.5zM262 773l-71 129v3h105l31 -59l56 59h104l-1 -3l-113 -129h-111z" />
<glyph unicode="&#x161;" horiz-adv-x="388" d="M0 0zM192 571l-71 129v3h105l31 -59l56 59h104l-1 -3l-113 -129h-111zM-11 117l101 43q13 -72 78 -72q29 0 43 12t14 30q0 15 -11 27t-37 25l-32 16q-46 23 -72.5 58t-26.5 88q0 36 12.5 66.5t36 53t56.5 35.5t74 13q134 0 164 -133l-103 -41q-4 31 -22.5 48.5 t-45.5 17.5q-24 0 -37.5 -12.5t-13.5 -29.5q0 -14 10.5 -25.5t40.5 -25.5l25 -12q22 -11 41.5 -24t34.5 -31t23.5 -40.5t8.5 -50.5q0 -35 -12.5 -65.5t-36 -53t-58 -35.5t-78.5 -13q-74 0 -120 33t-57 98z" />
<glyph unicode="&#x162;" horiz-adv-x="479" d="M59 0zM81 700h453l-20 -131h-157l-90 -569h-141l90 569h-157zM111 -324l-21 52q26 11 47.5 31t29.5 46q-26 -1 -42 13.5t-15 43.5q1 37 22 59.5t58 22.5q61 0 61 -69q-1 -34 -12 -66.5t-29.5 -59.5t-44 -46t-54.5 -27z" />
<glyph unicode="&#x163;" horiz-adv-x="322" d="M31 0zM69 -324l-21 52q26 11 47.5 31t29.5 46q-26 -1 -42 13.5t-15 43.5q1 37 22 59.5t58 22.5q61 0 61 -69q-1 -34 -12 -66.5t-29.5 -59.5t-44 -46t-54.5 -27zM267 112l8 -99q-18 -12 -44 -19t-54 -7q-60 0 -97.5 28.5t-37.5 91.5q0 11 2 23.5t4 23.5l38 231h-55l18 111 h54l22 142h134l-22 -142h97l-18 -111h-97l-35 -219q-5 -32 4.5 -49.5t33.5 -17.5q11 0 22.5 4t22.5 9z" />
<glyph unicode="&#x164;" horiz-adv-x="479" d="M59 0zM81 700h453l-20 -131h-157l-90 -569h-141l90 569h-157zM265 775l-71 129v3h105l31 -59l56 59h104l-1 -3l-113 -129h-111z" />
<glyph unicode="&#x165;" horiz-adv-x="332" d="M360 553h-80l36 197h99zM267 112l8 -99q-18 -12 -44 -19t-54 -7q-60 0 -97.5 28.5t-37.5 91.5q0 11 2 23.5t4 23.5l38 231h-55l18 111h54l22 142h134l-22 -142h97l-18 -111h-97l-35 -219q-5 -32 4.5 -49.5t33.5 -17.5q11 0 22.5 4t22.5 9z" />
<glyph unicode="&#x166;" horiz-adv-x="482" d="M71 394h118l28 175h-157l21 131h454l-20 -131h-157l-27 -175h118l-16 -108h-119l-46 -286h-141l45 286h-119z" />
<glyph unicode="&#x167;" horiz-adv-x="324" d="M273 114l7 -98q-15 -14 -44 -21.5t-59 -7.5q-27 0 -50.5 6t-41 20t-27.5 37.5t-10 58.5q0 9 1 20.5t3 23.5l14 85h-55l13 80h54l12 67h-55l17 111h54l23 142h134l-23 -142h100l-17 -111h-99l-11 -67h99l-13 -80h-99l-12 -72q-6 -37 6 -52t32 -15q11 0 23.5 3.5t23.5 11.5 z" />
<glyph unicode="&#x168;" horiz-adv-x="579" d="M46 0zM384 238l73 462h141l-71 -454q-21 -130 -91.5 -195t-181.5 -65q-100 0 -154 49.5t-54 148.5q0 15 1.5 30t3.5 32l71 454h142l-74 -462q-3 -18 -3 -35q0 -41 19.5 -63t61.5 -22q47 0 76.5 29t39.5 91zM454 903h76q-3 -35 -13 -58t-24 -37t-30 -20t-31 -6 q-17 0 -30.5 5.5t-25 12t-22 12t-21.5 5.5q-13 0 -18.5 -10.5t-7.5 -23.5h-79q3 34 13 57.5t23.5 37t29.5 19.5t31 6q18 0 32 -5.5t26 -12t22.5 -12t21.5 -5.5q14 0 19.5 10.5t7.5 24.5z" />
<glyph unicode="&#x169;" horiz-adv-x="488" d="M29 0zM147 -13q-62 0 -90 37.5t-28 100.5q0 14 1 29t3 30l50 312h137l-47 -292q-3 -23 -3 -39q0 -56 44 -56q30 0 53 31.5t35 97.5l41 258h136l-79 -496h-111l3 83q-28 -49 -65.5 -72.5t-79.5 -23.5zM376 699h76q-3 -35 -13 -58t-24 -37t-30 -20t-31 -6q-17 0 -30.5 5.5 t-25 12t-22 12t-21.5 5.5q-13 0 -18.5 -10.5t-7.5 -23.5h-79q3 34 13 57.5t23.5 37t29.5 19.5t31 6q18 0 32 -5.5t26 -12t22.5 -12t21.5 -5.5q14 0 19.5 10.5t7.5 24.5z" />
<glyph unicode="&#x16a;" horiz-adv-x="579" d="M46 0zM384 238l73 462h141l-71 -454q-21 -130 -91.5 -195t-181.5 -65q-100 0 -154 49.5t-54 148.5q0 15 1.5 30t3.5 32l71 454h142l-74 -462q-3 -18 -3 -35q0 -41 19.5 -63t61.5 -22q47 0 76.5 29t39.5 91zM499 879l-12 -85h-225l13 85h224z" />
<glyph unicode="&#x16b;" horiz-adv-x="488" d="M29 0zM147 -13q-62 0 -90 37.5t-28 100.5q0 14 1 29t3 30l50 312h137l-47 -292q-3 -23 -3 -39q0 -56 44 -56q30 0 53 31.5t35 97.5l41 258h136l-79 -496h-111l3 83q-28 -49 -65.5 -72.5t-79.5 -23.5zM422 675l-12 -85h-225l13 85h224z" />
<glyph unicode="&#x16c;" horiz-adv-x="579" d="M46 0zM384 238l73 462h141l-71 -454q-21 -130 -91.5 -195t-181.5 -65q-100 0 -154 49.5t-54 148.5q0 15 1.5 30t3.5 32l71 454h142l-74 -462q-3 -18 -3 -35q0 -41 19.5 -63t61.5 -22q47 0 76.5 29t39.5 91zM445 906h80q-6 -39 -19 -65.5t-32.5 -42.5t-45.5 -23t-58 -7 t-56 7t-39 23t-20.5 42.5t0.5 65.5h81q-6 -36 4.5 -49t38.5 -13q29 0 45 13t21 49z" />
<glyph unicode="&#x16d;" horiz-adv-x="488" d="M29 0zM147 -13q-62 0 -90 37.5t-28 100.5q0 14 1 29t3 30l50 312h137l-47 -292q-3 -23 -3 -39q0 -56 44 -56q30 0 53 31.5t35 97.5l41 258h136l-79 -496h-111l3 83q-28 -49 -65.5 -72.5t-79.5 -23.5zM367 702h80q-6 -39 -19 -65.5t-32.5 -42.5t-45.5 -23t-58 -7t-56 7 t-39 23t-20.5 42.5t0.5 65.5h81q-6 -36 4.5 -49t38.5 -13q29 0 45 13t21 49z" />
<glyph unicode="&#x16e;" horiz-adv-x="579" d="M46 0zM384 238l73 462h141l-71 -454q-21 -130 -91.5 -195t-181.5 -65q-100 0 -154 49.5t-54 148.5q0 15 1.5 30t3.5 32l71 454h142l-74 -462q-3 -18 -3 -35q0 -41 19.5 -63t61.5 -22q47 0 76.5 29t39.5 91zM396 957q35 0 58 -21t23 -62q0 -51 -30 -85t-78 -34 q-37 0 -60.5 21t-23.5 63q0 49 29.5 83.5t81.5 34.5zM389 902q-22 0 -34 -16t-12 -39q0 -37 32 -37q20 0 32.5 17t12.5 40q0 17 -8.5 26t-22.5 9z" />
<glyph unicode="&#x16f;" horiz-adv-x="488" d="M29 0zM318 753q35 0 58 -21t23 -62q0 -51 -30 -85t-78 -34q-37 0 -60.5 21t-23.5 63q0 49 29.5 83.5t81.5 34.5zM311 698q-22 0 -34 -16t-12 -39q0 -37 32 -37q20 0 32.5 17t12.5 40q0 17 -8.5 26t-22.5 9zM147 -13q-62 0 -90 37.5t-28 100.5q0 14 1 29t3 30l50 312h137 l-47 -292q-3 -23 -3 -39q0 -56 44 -56q30 0 53 31.5t35 97.5l41 258h136l-79 -496h-111l3 83q-28 -49 -65.5 -72.5t-79.5 -23.5z" />
<glyph unicode="&#x170;" horiz-adv-x="579" d="M46 0zM384 238l73 462h141l-71 -454q-21 -130 -91.5 -195t-181.5 -65q-100 0 -154 49.5t-54 148.5q0 15 1.5 30t3.5 32l71 454h142l-74 -462q-3 -18 -3 -35q0 -41 19.5 -63t61.5 -22q47 0 76.5 29t39.5 91zM489 907h133l-1 -6l-121 -126h-91v5zM313 907h133l-1 -6 l-122 -126h-91v5z" />
<glyph unicode="&#x171;" horiz-adv-x="488" d="M29 0zM147 -13q-62 0 -90 37.5t-28 100.5q0 14 1 29t3 30l50 312h137l-47 -292q-3 -23 -3 -39q0 -56 44 -56q30 0 53 31.5t35 97.5l41 258h136l-79 -496h-111l3 83q-28 -49 -65.5 -72.5t-79.5 -23.5zM411 703h133l-1 -6l-121 -126h-91v5zM235 703h133l-1 -6l-122 -126 h-91v5z" />
<glyph unicode="&#x172;" horiz-adv-x="579" d="M293 -227q-43 0 -73 24t-30 81q0 32 9 59.5t25 49.5q-85 8 -131.5 57t-46.5 140q0 15 1.5 30t3.5 32l71 454h142l-74 -462q-3 -18 -3 -35q0 -41 19.5 -63t61.5 -22q47 0 76.5 29t39.5 91l73 462h141l-71 -454q-18 -110 -71.5 -173.5t-137.5 -80.5q-24 -12 -36.5 -36 t-12.5 -50t12.5 -37t30.5 -11q27 0 46 17l26 -71q-44 -31 -91 -31z" />
<glyph unicode="&#x173;" horiz-adv-x="488" d="M415 -196q-23 -16 -44.5 -23.5t-47.5 -7.5q-43 0 -72.5 24.5t-29.5 80.5q0 48 19 84.5t50 58.5l2 62q-28 -49 -65.5 -72.5t-79.5 -23.5q-62 0 -90 37.5t-28 100.5q0 14 1 29t3 30l50 312h137l-47 -292q-3 -23 -3 -39q0 -56 44 -56q30 0 53 31.5t35 97.5l41 258h136 l-79 -496h-21q-39 -4 -59 -32.5t-20 -61.5q0 -26 12.5 -37t30.5 -11q27 0 46 17z" />
<glyph unicode="&#x174;" horiz-adv-x="741" d="M74 0zM106 0l-32 700h140l5 -474l151 473h138l5 -472l153 473h135l-254 -700h-146l1 468l-147 -468h-149zM413 906h110l72 -128v-4h-104l-35 59l-52 -59h-105l1 4z" />
<glyph unicode="&#x175;" horiz-adv-x="616" d="M49 0zM318 703h110l72 -128v-4h-104l-35 59l-52 -59h-105l1 4zM285 494h121l9 -312l102 314h124l-192 -496h-127l-6 312l-103 -312h-128l-36 496h125l6 -314z" />
<glyph unicode="&#x176;" horiz-adv-x="524" d="M69 0zM188 263l-119 437h148l62 -295l157 295h152l-259 -440l-41 -260h-141zM300 907h110l72 -128v-4h-104l-35 59l-52 -59h-105l1 4z" />
<glyph unicode="&#x177;" horiz-adv-x="447" d="M0 0zM99 -44l15 40l-67 500h140l22 -335l127 335h139l-265 -588q-17 -38 -37.5 -62.5t-44 -39t-48.5 -20.5t-51 -6q-28 0 -49.5 5t-40.5 16l38 106q25 -14 51 -14q25 0 41 14t30 49zM237 703h110l72 -128v-4h-104l-35 59l-52 -59h-105l1 4z" />
<glyph unicode="&#x178;" horiz-adv-x="524" d="M69 0zM188 263l-119 437h148l62 -295l157 295h152l-259 -440l-41 -260h-141zM185 834q0 38 20 62t58 24q61 0 61 -58q0 -38 -20 -62t-60 -24q-59 0 -59 58zM366 834q0 38 19.5 62t58.5 24q60 0 60 -58q0 -38 -19.5 -62t-59.5 -24q-59 0 -59 58z" />
<glyph unicode="&#x179;" horiz-adv-x="472" d="M0 0zM-23 0l15 98l342 479l-257 -3l21 126h419l-16 -97l-340 -481l271 4l-20 -126h-435zM341 907h139l-1 -7l-118 -125h-105v5z" />
<glyph unicode="&#x17a;" horiz-adv-x="390" d="M0 0zM268 703h139l-1 -7l-118 -125h-105v5zM-16 0l14 89l236 296h-186l18 111h331l-14 -93l-233 -292h194l-18 -111h-342z" />
<glyph unicode="&#x17b;" horiz-adv-x="472" d="M0 0zM-23 0l15 98l342 479l-257 -3l21 126h419l-16 -97l-340 -481l271 4l-20 -126h-435zM253 835q0 38 20.5 61t61.5 23q31 0 47 -15.5t16 -44.5q0 -39 -21 -62t-60 -23q-64 0 -64 61z" />
<glyph unicode="&#x17c;" horiz-adv-x="390" d="M0 0zM-16 0l14 89l236 296h-186l18 111h331l-14 -93l-233 -292h194l-18 -111h-342zM179 632q0 38 20.5 61t61.5 23q31 0 47 -15.5t16 -44.5q0 -39 -21 -62t-60 -23q-64 0 -64 61z" />
<glyph unicode="&#x17d;" horiz-adv-x="472" d="M0 0zM-23 0l15 98l342 479l-257 -3l21 126h419l-16 -97l-340 -481l271 4l-20 -126h-435zM262 775l-71 129v3h105l31 -59l56 59h104l-1 -3l-113 -129h-111z" />
<glyph unicode="&#x17e;" horiz-adv-x="390" d="M0 0zM189 571l-71 129v3h105l31 -59l56 59h104l-1 -3l-113 -129h-111zM-16 0l14 89l236 296h-186l18 111h331l-14 -93l-233 -292h194l-18 -111h-342z" />
<glyph unicode="&#x192;" horiz-adv-x="339" d="M15 -23l65 293h-59l27 108h56l12 54q22 100 68.5 146t116.5 46q31 0 55.5 -7t40.5 -18l-45 -98q-14 12 -37 12t-41.5 -18.5t-28.5 -66.5l-10 -50h95l-27 -108h-92l-66 -301q-22 -101 -71.5 -145t-114.5 -44q-20 0 -43.5 4.5t-38.5 16.5l41 101q15 -11 36 -11 q23 0 36.5 19t24.5 67z" />
<glyph unicode="&#x218;" horiz-adv-x="483" d="M0 0zM496 527l-126 -42q-6 57 -28.5 80t-59.5 23q-38 0 -58 -21t-19 -53q1 -26 17.5 -47t51.5 -38l36 -18q71 -35 104.5 -80.5t33.5 -118.5q0 -50 -16.5 -91.5t-47.5 -71.5t-75.5 -46.5t-100.5 -16.5q-94 0 -148.5 49.5t-68.5 138.5l126 47q7 -61 32.5 -88t67.5 -27 q39 0 63.5 21.5t24.5 59.5q0 30 -16 49t-48 36l-33 17q-78 41 -110 93.5t-32 114.5q0 42 15 81.5t44 69.5t71.5 48t97.5 18q45 0 82 -13.5t63 -38t41 -59t16 -76.5zM113 -326l-21 52q26 11 47.5 31t29.5 46q-26 -1 -42 13.5t-15 43.5q1 37 22 59.5t58 22.5q61 0 61 -69 q-1 -34 -12 -66.5t-29.5 -59.5t-44 -46t-54.5 -27z" />
<glyph unicode="&#x219;" horiz-adv-x="388" d="M0 0zM82 -324l-21 52q26 11 47.5 31t29.5 46q-26 -1 -42 13.5t-15 43.5q1 37 22 59.5t58 22.5q61 0 61 -69q-1 -34 -12 -66.5t-29.5 -59.5t-44 -46t-54.5 -27zM-11 117l101 43q13 -72 78 -72q29 0 43 12t14 30q0 15 -11 27t-37 25l-32 16q-46 23 -72.5 58t-26.5 88 q0 36 12.5 66.5t36 53t56.5 35.5t74 13q134 0 164 -133l-103 -41q-4 31 -22.5 48.5t-45.5 17.5q-24 0 -37.5 -12.5t-13.5 -29.5q0 -14 10.5 -25.5t40.5 -25.5l25 -12q22 -11 41.5 -24t34.5 -31t23.5 -40.5t8.5 -50.5q0 -35 -12.5 -65.5t-36 -53t-58 -35.5t-78.5 -13 q-74 0 -120 33t-57 98z" />
<glyph unicode="&#x237;" horiz-adv-x="233" d="M4 -27l83 523h135l-83 -533q-15 -94 -65 -138.5t-116 -44.5q-34 0 -56.5 6.5t-42.5 18.5l48 105q15 -12 35 -12q23 0 38.5 16.5t23.5 58.5z" />
<glyph unicode="&#x2c6;" horiz-adv-x="459" d="M210 703h110l72 -128v-4h-104l-35 59l-52 -59h-105l1 4z" />
<glyph unicode="&#x2c7;" horiz-adv-x="459" d="M183 571l-71 129v3h105l31 -59l56 59h104l-1 -3l-113 -129h-111z" />
<glyph unicode="&#x2d8;" horiz-adv-x="459" d="M318 702h80q-6 -39 -19 -65.5t-32.5 -42.5t-45.5 -23t-58 -7t-56 7t-39 23t-20.5 42.5t0.5 65.5h81q-6 -36 4.5 -49t38.5 -13q29 0 45 13t21 49z" />
<glyph unicode="&#x2d9;" horiz-adv-x="459" d="M180 632q0 38 20.5 61t61.5 23q31 0 47 -15.5t16 -44.5q0 -39 -21 -62t-60 -23q-64 0 -64 61z" />
<glyph unicode="&#x2da;" horiz-adv-x="459" d="M269 753q35 0 58 -21t23 -62q0 -51 -30 -85t-78 -34q-37 0 -60.5 21t-23.5 63q0 49 29.5 83.5t81.5 34.5zM262 698q-22 0 -34 -16t-12 -39q0 -37 32 -37q20 0 32.5 17t12.5 40q0 17 -8.5 26t-22.5 9z" />
<glyph unicode="&#x2db;" horiz-adv-x="459" d="M305 -196q-23 -16 -44.5 -23.5t-47.5 -7.5q-43 0 -72.5 24.5t-29.5 80.5q0 39 13 71t35 54.5t51.5 34.5t61.5 10l-3 -48q-39 -4 -59 -32.5t-20 -61.5q0 -26 12.5 -37t30.5 -11q27 0 46 17z" />
<glyph unicode="&#x2dc;" horiz-adv-x="459" d="M331 699h76q-3 -35 -13 -58t-24 -37t-30 -20t-31 -6q-17 0 -30.5 5.5t-25 12t-22 12t-21.5 5.5q-13 0 -18.5 -10.5t-7.5 -23.5h-79q3 34 13 57.5t23.5 37t29.5 19.5t31 6q18 0 32 -5.5t26 -12t22.5 -12t21.5 -5.5q14 0 19.5 10.5t7.5 24.5z" />
<glyph unicode="&#x2dd;" horiz-adv-x="459" d="M360 703h133l-1 -6l-121 -126h-91v5zM184 703h133l-1 -6l-122 -126h-91v5z" />
<glyph unicode="&#x1e80;" horiz-adv-x="741" d="M74 0zM106 0l-32 700h140l5 -474l151 473h138l5 -472l153 473h135l-254 -700h-146l1 468l-147 -468h-149zM404 774l-81 125l1 7h145l39 -127v-5h-104z" />
<glyph unicode="&#x1e81;" horiz-adv-x="616" d="M49 0zM285 494h121l9 -312l102 314h124l-192 -496h-127l-6 312l-103 -312h-128l-36 496h125l6 -314zM309 571l-81 125l1 7h145l39 -127v-5h-104z" />
<glyph unicode="&#x1e82;" horiz-adv-x="741" d="M74 0zM106 0l-32 700h140l5 -474l151 473h138l5 -472l153 473h135l-254 -700h-146l1 468l-147 -468h-149zM474 907h139l-1 -7l-118 -125h-105v5z" />
<glyph unicode="&#x1e83;" horiz-adv-x="616" d="M49 0zM285 494h121l9 -312l102 314h124l-192 -496h-127l-6 312l-103 -312h-128l-36 496h125l6 -314zM379 703h139l-1 -7l-118 -125h-105v5z" />
<glyph unicode="&#x1e84;" horiz-adv-x="741" d="M74 0zM106 0l-32 700h140l5 -474l151 473h138l5 -472l153 473h135l-254 -700h-146l1 468l-147 -468h-149zM298 834q0 38 20 62t58 24q61 0 61 -58q0 -38 -20 -62t-60 -24q-59 0 -59 58zM479 834q0 38 19.5 62t58.5 24q60 0 60 -58q0 -38 -19.5 -62t-59.5 -24 q-59 0 -59 58z" />
<glyph unicode="&#x1e85;" horiz-adv-x="616" d="M49 0zM285 494h121l9 -312l102 314h124l-192 -496h-127l-6 312l-103 -312h-128l-36 496h125l6 -314zM207 630q0 38 20 62t58 24q61 0 61 -58q0 -38 -20 -62t-60 -24q-59 0 -59 58zM388 630q0 38 19.5 62t58.5 24q60 0 60 -58q0 -38 -19.5 -62t-59.5 -24q-59 0 -59 58z " />
<glyph unicode="&#x2000;" horiz-adv-x="478" />
<glyph unicode="&#x2001;" horiz-adv-x="957" />
<glyph unicode="&#x2002;" horiz-adv-x="380" />
<glyph unicode="&#x2003;" horiz-adv-x="759" />
<glyph unicode="&#x2004;" horiz-adv-x="253" />
<glyph unicode="&#x2005;" horiz-adv-x="191" />
<glyph unicode="&#x2006;" horiz-adv-x="127" />
<glyph unicode="&#x2007;" horiz-adv-x="475" />
<glyph unicode="&#x2008;" horiz-adv-x="198" />
<glyph unicode="&#x2009;" horiz-adv-x="152" />
<glyph unicode="&#x200a;" horiz-adv-x="76" />
<glyph unicode="&#x200b;" horiz-adv-x="0" />
<glyph unicode="&#x2010;" horiz-adv-x="372" d="M344 325l-18 -117h-294l19 117h293z" />
<glyph unicode="&#x2011;" horiz-adv-x="372" d="M344 325l-18 -117h-294l19 117h293z" />
<glyph unicode="&#x2012;" horiz-adv-x="444" d="M417 325l-19 -117h-366l18 117h367z" />
<glyph unicode="&#x2013;" horiz-adv-x="444" d="M417 325l-19 -117h-366l18 117h367z" />
<glyph unicode="&#x2014;" horiz-adv-x="593" d="M565 325l-18 -117h-515l18 117h515z" />
<glyph unicode="&#x2015;" horiz-adv-x="814" d="M786 325l-18 -117h-736l18 117h736z" />
<glyph unicode="&#x2018;" horiz-adv-x="194" d="M206 749l21 -57q-32 -12 -53.5 -33.5t-29.5 -46.5q54 -5 54 -60q0 -38 -20 -64.5t-62 -26.5q-61 0 -61 67q0 34 10 68.5t29.5 64.5t47.5 53t64 35z" />
<glyph unicode="&#x2019;" horiz-adv-x="194" d="M77 451l-20 57q31 13 52.5 34t29.5 46q-54 4 -54 60q0 38 20 64.5t61 26.5q62 0 62 -67q0 -34 -10 -68.5t-29.5 -64.5t-47.5 -53t-64 -35z" />
<glyph unicode="&#x201a;" horiz-adv-x="196" d="M-7 -140l-20 56q31 12 52 33.5t29 45.5q-53 5 -53 59q0 38 20 64t61 26q29 0 45 -17t16 -49q0 -33 -10 -67t-29.5 -63.5t-47.5 -52.5t-63 -35z" />
<glyph unicode="&#x201c;" horiz-adv-x="366" d="M212 750l21 -57q-32 -12 -53.5 -33.5t-29.5 -46.5q54 -5 54 -60q0 -38 -20 -64.5t-62 -26.5q-61 0 -61 67q0 34 10 68.5t29.5 64.5t47.5 53t64 35zM384 750l21 -57q-32 -12 -53.5 -33.5t-29.5 -46.5q54 -5 54 -60q0 -38 -20 -64.5t-62 -26.5q-61 0 -61 67q0 34 10 68.5 t29.5 64.5t47.5 53t64 35z" />
<glyph unicode="&#x201d;" horiz-adv-x="366" d="M77 450l-20 57q31 13 52.5 34t29.5 46q-54 4 -54 60q0 38 20 64.5t61 26.5q62 0 62 -67q0 -34 -10 -68.5t-29.5 -64.5t-47.5 -53t-64 -35zM250 450l-20 57q31 13 52.5 34t29.5 46q-54 4 -54 60q0 38 20 64.5t61 26.5q62 0 62 -67q0 -34 -10 -68.5t-29.5 -64.5t-47.5 -53 t-64 -35z" />
<glyph unicode="&#x201e;" horiz-adv-x="365" d="M-7 -141l-20 56q31 12 52 33.5t29 45.5q-53 5 -53 59q0 38 20 64t61 26q29 0 45 -17t16 -49q0 -33 -10 -67t-29.5 -63.5t-47.5 -52.5t-63 -35zM165 -141l-20 56q31 12 52 33.5t29 45.5q-53 5 -53 59q0 38 20 64t61 26q29 0 45 -17t16 -49q0 -33 -10 -67t-29.5 -63.5 t-47.5 -52.5t-63 -35z" />
<glyph unicode="&#x2020;" horiz-adv-x="245" d="M235 499h-48l-37 -225h-100l36 225h-49l16 97h47l17 116h106l-19 -116h46z" />
<glyph unicode="&#x2021;" horiz-adv-x="245" d="M33 469h48l9 54h-48l15 97h47l13 92h106l-16 -92h47l-15 -97h-48l-9 -54h48l-15 -97h-47l-14 -98h-106l16 98h-46z" />
<glyph unicode="&#x2022;" horiz-adv-x="325" d="M308 349q0 -33 -10.5 -63t-30 -52t-47.5 -35t-63 -13q-56 0 -86 32.5t-30 86.5q0 34 10.5 64t30 52t47 34.5t62.5 12.5q57 0 87 -33t30 -86z" />
<glyph unicode="&#x2026;" horiz-adv-x="604" d="M551 87q0 -41 -21.5 -67.5t-65.5 -26.5q-31 0 -47 17t-16 46q0 38 20 66.5t65 28.5q65 0 65 -64zM351 87q0 -41 -21.5 -67.5t-65.5 -26.5q-32 0 -47.5 17t-15.5 46q0 38 20 66.5t65 28.5q65 0 65 -64zM151 87q0 -41 -21.5 -67.5t-65.5 -26.5q-32 0 -48 17t-16 46 q0 38 20 66.5t65 28.5q66 0 66 -64z" />
<glyph unicode="&#x202f;" horiz-adv-x="191" />
<glyph unicode="&#x2030;" horiz-adv-x="1155" d="M58 0zM678 421q121 0 121 -141q0 -32 -6 -74q-17 -110 -59.5 -162.5t-117.5 -52.5q-63 0 -92.5 34.5t-29.5 105.5q0 33 6 75q17 110 59 162.5t119 52.5zM669 339q-26 0 -43 -29t-28 -104q-4 -23 -6 -41.5t-2 -32.5q0 -33 9.5 -46.5t26.5 -13.5q23 0 40.5 29t29.5 105 q4 23 5.5 41t1.5 33q0 32 -8.5 45.5t-25.5 13.5zM242 714q121 0 121 -141q0 -32 -6 -74q-17 -110 -59.5 -162.5t-117.5 -52.5q-63 0 -92.5 34.5t-29.5 105.5q0 33 6 75q17 110 59 162.5t119 52.5zM233 632q-26 0 -43 -29t-28 -104q-4 -23 -6 -41.5t-2 -32.5q0 -33 9.5 -46.5 t26.5 -13.5q23 0 40.5 29t29.5 105q4 23 5.5 41t1.5 33q0 32 -8.5 45.5t-25.5 13.5zM1015 421q121 0 121 -141q0 -32 -6 -74q-17 -110 -59.5 -162.5t-117.5 -52.5q-63 0 -92.5 34.5t-29.5 105.5q0 33 6 75q17 110 59 162.5t119 52.5zM1006 339q-26 0 -43 -29t-28 -104 q-4 -23 -6 -41.5t-2 -32.5q0 -33 9.5 -46.5t26.5 -13.5q23 0 40.5 29t29.5 105q4 23 5.5 41t1.5 33q0 32 -8.5 45.5t-25.5 13.5zM677 700l-382 -700h-116l382 700h116z" />
<glyph unicode="&#x2039;" horiz-adv-x="335" d="M138 0l-108 246l1 3l185 247h135l-190 -250l109 -246h-132z" />
<glyph unicode="&#x203a;" horiz-adv-x="335" d="M196 496l108 -246l-1 -3l-185 -247h-135l190 250l-109 246h132z" />
<glyph unicode="&#x2044;" horiz-adv-x="432" d="M477 700l-382 -700h-116l382 700h116z" />
<glyph unicode="&#x205f;" horiz-adv-x="239" />
<glyph unicode="&#x2070;" horiz-adv-x="343" d="M58 285zM242 715q121 0 121 -141q0 -32 -6 -74q-17 -110 -59.5 -162.5t-117.5 -52.5q-63 0 -92.5 34.5t-29.5 105.5q0 33 6 75q17 110 59 162.5t119 52.5zM233 633q-26 0 -43 -29t-28 -104q-4 -23 -6 -41.5t-2 -32.5q0 -33 9.5 -46.5t26.5 -13.5q23 0 40.5 29t29.5 105 q4 23 5.5 41t1.5 33q0 32 -8.5 45.5t-25.5 13.5z" />
<glyph unicode="&#x2074;" horiz-adv-x="334" d="M39 294zM39 379l12 72l130 255h95l-125 -241h74l19 119h92l-20 -119h37l-15 -86h-36l-13 -85h-92l14 85h-172z" />
<glyph unicode="&#x2075;" horiz-adv-x="304" d="M27 285zM180 624l-16 -77q10 6 24.5 10t31.5 4q41 0 66.5 -24t25.5 -78q0 -40 -12.5 -72.5t-34.5 -55t-52.5 -34.5t-66.5 -12q-47 0 -77 20.5t-42 67.5l78 40q5 -27 17.5 -37.5t31.5 -10.5q29 0 45 23t16 56q0 23 -10.5 33.5t-26.5 10.5q-28 0 -49 -26l-63 31l49 213h228 l-14 -82h-149z" />
<glyph unicode="&#x2076;" horiz-adv-x="325" d="M57 285zM361 635l-77 -38q-3 20 -12 29.5t-27 9.5q-38 0 -56.5 -34.5t-29.5 -99.5l-1 -7q14 26 34.5 42t51.5 16q38 0 62 -25t24 -76q0 -34 -9.5 -64.5t-28 -53t-46 -36t-63.5 -13.5q-62 0 -94 35t-32 110q0 16 1 32.5t4 34.5q16 105 60.5 161.5t123.5 56.5q98 0 115 -80 zM203 481q-21 0 -34.5 -21t-13.5 -52q0 -21 8 -33t25 -12q23 0 34.5 22.5t11.5 50.5q0 45 -31 45z" />
<glyph unicode="&#x2077;" horiz-adv-x="272" d="M72 294zM72 294q19 115 62.5 197t94.5 129l-157 -3l15 89h252l-12 -72q-30 -32 -52.5 -66.5t-40 -75.5t-30.5 -89.5t-22 -108.5h-110z" />
<glyph unicode="&#x2078;" horiz-adv-x="316" d="M47 285zM317 431q0 -31 -9 -57.5t-28 -46t-47.5 -31t-67.5 -11.5q-59 0 -88.5 27t-29.5 75q0 44 20 76t55 48q-30 25 -30 72q0 27 8.5 51t26 42t43.5 28.5t62 10.5q51 0 78 -24.5t27 -69.5q0 -37 -15.5 -65.5t-44.5 -46.5q20 -11 30 -31.5t10 -46.5zM251 600q0 17 -7 28 t-24 11q-21 0 -33 -17.5t-12 -38.5q0 -15 7.5 -26t23.5 -11q19 0 32 15.5t13 38.5zM225 421q0 17 -8.5 29.5t-25.5 12.5q-22 0 -36 -18t-14 -44q0 -18 8.5 -30.5t26.5 -12.5q22 0 35.5 19t13.5 44z" />
<glyph unicode="&#x2079;" horiz-adv-x="323" d="M36 285zM196 514q23 0 36 23t13 52q0 21 -8 33.5t-23 12.5q-23 0 -35 -22.5t-12 -54.5q0 -20 7 -32t22 -12zM154 285q-45 0 -76 15.5t-42 50.5l71 48q7 -20 17.5 -28.5t29.5 -8.5q21 0 35 9t24 26.5t17 42t12 55.5l1 8q-14 -30 -35.5 -46.5t-51.5 -16.5q-38 0 -61 26.5 t-23 77.5q0 34 9 65.5t27.5 54.5t46.5 37t66 14q60 0 92 -35.5t32 -109.5q0 -20 -2 -40t-6 -41q-18 -99 -63 -151.5t-120 -52.5z" />
<glyph unicode="&#x207a;" horiz-adv-x="244" d="M51 354zM172 354h-71l14 89h-64l11 68h65l15 90h71l-15 -90h63l-11 -68h-63z" />
<glyph unicode="&#x207b;" horiz-adv-x="244" d="M51 442zM261 512l-11 -70h-199l12 70h198z" />
<glyph unicode="&#x207c;" horiz-adv-x="244" d="M44 392zM269 560l-11 -71h-199l11 71h199zM254 462l-11 -70h-199l11 70h199z" />
<glyph unicode="&#x207d;" horiz-adv-x="180" d="M38 211zM165 291l-25 -80q-102 24 -102 172q0 21 2 45t6 50q38 238 172 245l2 -83q-19 -3 -34 -12t-27.5 -28.5t-22.5 -50.5t-17 -77q-4 -23 -5.5 -43t-1.5 -37q0 -47 13.5 -70t39.5 -31z" />
<glyph unicode="&#x207e;" horiz-adv-x="180" d="M19 211zM74 643l25 80q103 -24 103 -172q0 -21 -2 -45t-6 -50q-38 -237 -173 -245l-2 83q19 3 34 12t27.5 28.5t22 50.5t17.5 77q4 23 5.5 43t1.5 37q0 47 -13.5 70t-39.5 31z" />
<glyph unicode="&#x2080;" horiz-adv-x="332" d="M191 421q121 0 121 -141q0 -32 -6 -74q-17 -110 -59.5 -162.5t-117.5 -52.5q-63 0 -92.5 34.5t-29.5 105.5q0 33 6 75q17 110 59 162.5t119 52.5zM182 339q-26 0 -43 -29t-28 -104q-4 -23 -6 -41.5t-2 -32.5q0 -33 9.5 -46.5t26.5 -13.5q23 0 40.5 29t29.5 105 q4 23 5.5 41t1.5 33q0 32 -8.5 45.5t-25.5 13.5z" />
<glyph unicode="&#x2081;" horiz-adv-x="206" d="M128 0h-98l47 291l-38 -25l-22 81l114 70h65z" />
<glyph unicode="&#x2082;" horiz-adv-x="284" d="M-20 0l12 68l133 152q26 28 37 48t11 37q0 14 -7.5 22t-23.5 8t-30.5 -10t-28.5 -36l-70 32q25 54 65 77t89 23q51 0 79.5 -25t28.5 -70q0 -20 -5 -37.5t-16.5 -36.5t-29 -41.5t-42.5 -50.5l-68 -77l129 4l-15 -87h-248z" />
<glyph unicode="&#x2083;" horiz-adv-x="292" d="M-20 86l77 35q6 -27 18 -38.5t32 -11.5q26 0 39 17t13 42q0 19 -11 29t-29 10h-29l12 76h29q22 0 35.5 17t13.5 40q0 36 -35 36q-16 0 -30.5 -9.5t-24.5 -31.5l-67 32q38 92 147 92q57 0 84 -26t27 -68q0 -33 -17 -64t-52 -52q41 -24 41 -78q0 -30 -11 -56t-30.5 -45 t-48 -30t-62.5 -11q-45 0 -77.5 22.5t-43.5 72.5z" />
<glyph unicode="&#x2084;" horiz-adv-x="329" d="M-12 85l12 72l130 255h95l-125 -241h74l19 119h92l-20 -119h37l-15 -86h-36l-13 -85h-92l14 85h-172z" />
<glyph unicode="&#x2085;" horiz-adv-x="304" d="M130 330l-16 -77q10 6 24.5 10t31.5 4q41 0 66.5 -24t25.5 -78q0 -40 -12.5 -72.5t-34.5 -55t-52.5 -34.5t-66.5 -12q-47 0 -77 20.5t-42 67.5l78 40q5 -27 17.5 -37.5t31.5 -10.5q29 0 45 23t16 56q0 23 -10.5 33.5t-26.5 10.5q-28 0 -49 -26l-63 31l49 213h228l-14 -82 h-149z" />
<glyph unicode="&#x2086;" horiz-adv-x="315" d="M311 341l-77 -38q-3 20 -12 29.5t-27 9.5q-38 0 -56.5 -34.5t-29.5 -99.5l-1 -7q14 26 34.5 42t51.5 16q38 0 62 -25t24 -76q0 -34 -9.5 -64.5t-28 -53t-46 -36t-63.5 -13.5q-62 0 -94 35t-32 110q0 16 1 32.5t4 34.5q16 105 60.5 161.5t123.5 56.5q98 0 115 -80z M153 187q-21 0 -34.5 -21t-13.5 -52q0 -21 8 -33t25 -12q23 0 34.5 22.5t11.5 50.5q0 45 -31 45z" />
<glyph unicode="&#x2087;" horiz-adv-x="269" d="M22 0q19 115 62.5 197t94.5 129l-157 -3l15 89h252l-12 -72q-30 -32 -52.5 -66.5t-40 -75.5t-30.5 -89.5t-22 -108.5h-110z" />
<glyph unicode="&#x2088;" horiz-adv-x="310" d="M267 137q0 -31 -9 -57.5t-28 -46t-47.5 -31t-67.5 -11.5q-59 0 -88.5 27t-29.5 75q0 44 20 76t55 48q-30 25 -30 72q0 27 8.5 51t26 42t43.5 28.5t62 10.5q51 0 78 -24.5t27 -69.5q0 -37 -15.5 -65.5t-44.5 -46.5q20 -11 30 -31.5t10 -46.5zM201 306q0 17 -7 28t-24 11 q-21 0 -33 -17.5t-12 -38.5q0 -15 7.5 -26t23.5 -11q19 0 32 15.5t13 38.5zM175 127q0 17 -8.5 29.5t-25.5 12.5q-22 0 -36 -18t-14 -44q0 -18 8.5 -30.5t26.5 -12.5q22 0 35.5 19t13.5 44z" />
<glyph unicode="&#x2089;" horiz-adv-x="313" d="M146 220q23 0 36 23t13 52q0 21 -8 33.5t-23 12.5q-23 0 -35 -22.5t-12 -54.5q0 -20 7 -32t22 -12zM104 -9q-45 0 -76 15.5t-42 50.5l71 48q7 -20 17.5 -28.5t29.5 -8.5q21 0 35 9t24 26.5t17 42t12 55.5l1 8q-14 -30 -35.5 -46.5t-51.5 -16.5q-38 0 -61 26.5t-23 77.5 q0 34 9 65.5t27.5 54.5t46.5 37t66 14q60 0 92 -35.5t32 -109.5q0 -20 -2 -40t-6 -41q-18 -99 -63 -151.5t-120 -52.5z" />
<glyph unicode="&#x208a;" horiz-adv-x="244" d="M125 58h-71l14 89h-64l11 68h65l15 90h71l-15 -90h63l-11 -68h-63z" />
<glyph unicode="&#x208b;" horiz-adv-x="244" d="M214 216l-11 -70h-199l12 70h198z" />
<glyph unicode="&#x208c;" horiz-adv-x="244" d="M222 264l-11 -71h-199l11 71h199zM207 166l-11 -70h-199l11 70h199z" />
<glyph unicode="&#x208d;" horiz-adv-x="180" d="M118 -7l-25 -80q-102 24 -102 172q0 21 2 45t6 50q38 238 172 245l2 -83q-19 -3 -34 -12t-27.5 -28.5t-22.5 -50.5t-17 -77q-4 -23 -5.5 -43t-1.5 -37q0 -47 13.5 -70t39.5 -31z" />
<glyph unicode="&#x208e;" horiz-adv-x="180" d="M27 345l25 80q103 -24 103 -172q0 -21 -2 -45t-6 -50q-38 -237 -173 -245l-2 83q19 3 34 12t27.5 28.5t22 50.5t17.5 77q4 23 5.5 43t1.5 37q0 47 -13.5 70t-39.5 31z" />
<glyph unicode="&#x20ac;" horiz-adv-x="556" d="M525 160q-38 -94 -100.5 -134t-150.5 -40q-109 0 -157.5 59.5t-47.5 186.5h-63l12 81h55q2 11 3 23t3 23h-54l13 79h56q34 142 106 209t179 67q87 0 137.5 -45t58.5 -150l-129 -32q-5 58 -26.5 80.5t-57.5 22.5q-41 0 -74.5 -33.5t-55.5 -118.5h169l-29 -79h-157 q-3 -14 -4.5 -25.5t-2.5 -20.5h147l-29 -81h-120q0 -69 21.5 -97t62.5 -28q38 0 70 24.5t51 81.5z" />
<glyph unicode="&#x2122;" horiz-adv-x="567" d="M82 700h212l-12 -72h-66l-35 -222h-73l35 222h-73zM272 406l47 294h81l30 -204l94 204h79l-47 -294h-67l27 155l-71 -155h-60l-21 154l-24 -154h-68z" />
<glyph unicode="&#x2153;" horiz-adv-x="701" d="M69 0zM180 293h-98l47 291l-38 -25l-22 81l114 70h65zM577 700l-382 -700h-116l382 700h116zM388 86l77 35q6 -27 18 -38.5t32 -11.5q26 0 39 17t13 42q0 19 -11 29t-29 10h-29l12 76h29q22 0 35.5 17t13.5 40q0 36 -35 36q-16 0 -30.5 -9.5t-24.5 -31.5l-67 32 q38 92 147 92q57 0 84 -26t27 -68q0 -33 -17 -64t-52 -52q41 -24 41 -78q0 -30 -11 -56t-30.5 -45t-48 -30t-62.5 -11q-45 0 -77.5 22.5t-43.5 72.5z" />
<glyph unicode="&#x2154;" horiz-adv-x="792" d="M27 0zM480 86l77 35q6 -27 18 -38.5t32 -11.5q26 0 39 17t13 42q0 19 -11 29t-29 10h-29l12 76h29q22 0 35.5 17t13.5 40q0 36 -35 36q-16 0 -30.5 -9.5t-24.5 -31.5l-67 32q38 92 147 92q57 0 84 -26t27 -68q0 -33 -17 -64t-52 -52q41 -24 41 -78q0 -30 -11 -56 t-30.5 -45t-48 -30t-62.5 -11q-45 0 -77.5 22.5t-43.5 72.5zM27 293l12 68l133 152q26 28 37 48t11 37q0 14 -7.5 22t-23.5 8t-30.5 -10t-28.5 -36l-70 32q25 54 65 77t89 23q51 0 79.5 -25t28.5 -70q0 -20 -5 -37.5t-16.5 -36.5t-29 -41.5t-42.5 -50.5l-68 -77l129 4 l-15 -87h-248zM667 700l-382 -700h-116l382 700h116z" />
<glyph unicode="&#x2155;" horiz-adv-x="719" d="M68 0zM179 293h-98l47 291l-38 -25l-22 81l114 70h65zM545 330l-16 -77q10 6 24.5 10t31.5 4q41 0 66.5 -24t25.5 -78q0 -40 -12.5 -72.5t-34.5 -55t-52.5 -34.5t-66.5 -12q-47 0 -77 20.5t-42 67.5l78 40q5 -27 17.5 -37.5t31.5 -10.5q29 0 45 23t16 56q0 23 -10.5 33.5 t-26.5 10.5q-28 0 -49 -26l-63 31l49 213h228l-14 -82h-149zM577 700l-382 -700h-116l382 700h116z" />
<glyph unicode="&#x2156;" horiz-adv-x="808" d="M29 0zM29 293l12 68l133 152q26 28 37 48t11 37q0 14 -7.5 22t-23.5 8t-30.5 -10t-28.5 -36l-70 32q25 54 65 77t89 23q51 0 79.5 -25t28.5 -70q0 -20 -5 -37.5t-16.5 -36.5t-29 -41.5t-42.5 -50.5l-68 -77l129 4l-15 -87h-248zM635 330l-16 -77q10 6 24.5 10t31.5 4 q41 0 66.5 -24t25.5 -78q0 -40 -12.5 -72.5t-34.5 -55t-52.5 -34.5t-66.5 -12q-47 0 -77 20.5t-42 67.5l78 40q5 -27 17.5 -37.5t31.5 -10.5q29 0 45 23t16 56q0 23 -10.5 33.5t-26.5 10.5q-28 0 -49 -26l-63 31l49 213h228l-14 -82h-149zM667 700l-382 -700h-116l382 700 h116z" />
<glyph unicode="&#x2157;" horiz-adv-x="789" d="M30 0zM30 379l77 35q6 -27 18 -38.5t32 -11.5q26 0 39 17t13 42q0 19 -11 29t-29 10h-29l12 76h29q22 0 35.5 17t13.5 40q0 36 -35 36q-16 0 -30.5 -9.5t-24.5 -31.5l-67 32q38 92 147 92q57 0 84 -26t27 -68q0 -33 -17 -64t-52 -52q41 -24 41 -78q0 -30 -11 -56 t-30.5 -45t-48 -30t-62.5 -11q-45 0 -77.5 22.5t-43.5 72.5zM616 330l-16 -77q10 6 24.5 10t31.5 4q41 0 66.5 -24t25.5 -78q0 -40 -12.5 -72.5t-34.5 -55t-52.5 -34.5t-66.5 -12q-47 0 -77 20.5t-42 67.5l78 40q5 -27 17.5 -37.5t31.5 -10.5q29 0 45 23t16 56 q0 23 -10.5 33.5t-26.5 10.5q-28 0 -49 -26l-63 31l49 213h228l-14 -82h-149zM648 700l-382 -700h-116l382 700h116z" />
<glyph unicode="&#x2158;" horiz-adv-x="826" d="M39 0zM653 330l-16 -77q10 6 24.5 10t31.5 4q41 0 66.5 -24t25.5 -78q0 -40 -12.5 -72.5t-34.5 -55t-52.5 -34.5t-66.5 -12q-47 0 -77 20.5t-42 67.5l78 40q5 -27 17.5 -37.5t31.5 -10.5q29 0 45 23t16 56q0 23 -10.5 33.5t-26.5 10.5q-28 0 -49 -26l-63 31l49 213h228 l-14 -82h-149zM685 700l-382 -700h-116l382 700h116zM39 379l12 72l130 255h95l-125 -241h74l19 119h92l-20 -119h37l-15 -86h-36l-13 -85h-92l14 85h-172z" />
<glyph unicode="&#x2159;" horiz-adv-x="712" d="M68 0zM179 293h-98l47 291l-38 -25l-22 81l114 70h65zM708 341l-77 -38q-3 20 -12 29.5t-27 9.5q-38 0 -56.5 -34.5t-29.5 -99.5l-1 -7q14 26 34.5 42t51.5 16q38 0 62 -25t24 -76q0 -34 -9.5 -64.5t-28 -53t-46 -36t-63.5 -13.5q-62 0 -94 35t-32 110q0 16 1 32.5 t4 34.5q16 105 60.5 161.5t123.5 56.5q98 0 115 -80zM550 187q-21 0 -34.5 -21t-13.5 -52q0 -21 8 -33t25 -12q23 0 34.5 22.5t11.5 50.5q0 45 -31 45zM577 700l-382 -700h-116l382 700h116z" />
<glyph unicode="&#x215a;" horiz-adv-x="783" d="M27 0zM180 623l-16 -77q10 6 24.5 10t31.5 4q41 0 66.5 -24t25.5 -78q0 -40 -12.5 -72.5t-34.5 -55t-52.5 -34.5t-66.5 -12q-47 0 -77 20.5t-42 67.5l78 40q5 -27 17.5 -37.5t31.5 -10.5q29 0 45 23t16 56q0 23 -10.5 33.5t-26.5 10.5q-28 0 -49 -26l-63 31l49 213h228 l-14 -82h-149zM778 341l-77 -38q-3 20 -12 29.5t-27 9.5q-38 0 -56.5 -34.5t-29.5 -99.5l-1 -7q14 26 34.5 42t51.5 16q38 0 62 -25t24 -76q0 -34 -9.5 -64.5t-28 -53t-46 -36t-63.5 -13.5q-62 0 -94 35t-32 110q0 16 1 32.5t4 34.5q16 105 60.5 161.5t123.5 56.5 q98 0 115 -80zM620 187q-21 0 -34.5 -21t-13.5 -52q0 -21 8 -33t25 -12q23 0 34.5 22.5t11.5 50.5q0 45 -31 45zM648 700l-382 -700h-116l382 700h116z" />
<glyph unicode="&#x215b;" horiz-adv-x="711" d="M69 0zM180 293h-98l47 291l-38 -25l-22 81l114 70h65zM578 700l-382 -700h-116l382 700h116zM669 137q0 -31 -9 -57.5t-28 -46t-47.5 -31t-67.5 -11.5q-59 0 -88.5 27t-29.5 75q0 44 20 76t55 48q-30 25 -30 72q0 27 8.5 51t26 42t43.5 28.5t62 10.5q51 0 78 -24.5 t27 -69.5q0 -37 -15.5 -65.5t-44.5 -46.5q20 -11 30 -31.5t10 -46.5zM603 306q0 17 -7 28t-24 11q-21 0 -33 -17.5t-12 -38.5q0 -15 7.5 -26t23.5 -11q19 0 32 15.5t13 38.5zM577 127q0 17 -8.5 29.5t-25.5 12.5q-22 0 -36 -18t-14 -44q0 -18 8.5 -30.5t26.5 -12.5 q22 0 35.5 19t13.5 44z" />
<glyph unicode="&#x215c;" horiz-adv-x="780" d="M30 0zM30 379l77 35q6 -27 18 -38.5t32 -11.5q26 0 39 17t13 42q0 19 -11 29t-29 10h-29l12 76h29q22 0 35.5 17t13.5 40q0 36 -35 36q-16 0 -30.5 -9.5t-24.5 -31.5l-67 32q38 92 147 92q57 0 84 -26t27 -68q0 -33 -17 -64t-52 -52q41 -24 41 -78q0 -30 -11 -56 t-30.5 -45t-48 -30t-62.5 -11q-45 0 -77.5 22.5t-43.5 72.5zM737 137q0 -31 -9 -57.5t-28 -46t-47.5 -31t-67.5 -11.5q-59 0 -88.5 27t-29.5 75q0 44 20 76t55 48q-30 25 -30 72q0 27 8.5 51t26 42t43.5 28.5t62 10.5q51 0 78 -24.5t27 -69.5q0 -37 -15.5 -65.5t-44.5 -46.5 q20 -11 30 -31.5t10 -46.5zM671 306q0 17 -7 28t-24 11q-21 0 -33 -17.5t-12 -38.5q0 -15 7.5 -26t23.5 -11q19 0 32 15.5t13 38.5zM645 127q0 17 -8.5 29.5t-25.5 12.5q-22 0 -36 -18t-14 -44q0 -18 8.5 -30.5t26.5 -12.5q22 0 35.5 19t13.5 44zM648 700l-382 -700h-116 l382 700h116z" />
<glyph unicode="&#x215d;" horiz-adv-x="781" d="M27 0zM738 137q0 -31 -9 -57.5t-28 -46t-47.5 -31t-67.5 -11.5q-59 0 -88.5 27t-29.5 75q0 44 20 76t55 48q-30 25 -30 72q0 27 8.5 51t26 42t43.5 28.5t62 10.5q51 0 78 -24.5t27 -69.5q0 -37 -15.5 -65.5t-44.5 -46.5q20 -11 30 -31.5t10 -46.5zM672 306q0 17 -7 28 t-24 11q-21 0 -33 -17.5t-12 -38.5q0 -15 7.5 -26t23.5 -11q19 0 32 15.5t13 38.5zM646 127q0 17 -8.5 29.5t-25.5 12.5q-22 0 -36 -18t-14 -44q0 -18 8.5 -30.5t26.5 -12.5q22 0 35.5 19t13.5 44zM180 623l-16 -77q10 6 24.5 10t31.5 4q41 0 66.5 -24t25.5 -78 q0 -40 -12.5 -72.5t-34.5 -55t-52.5 -34.5t-66.5 -12q-47 0 -77 20.5t-42 67.5l78 40q5 -27 17.5 -37.5t31.5 -10.5q29 0 45 23t16 56q0 23 -10.5 33.5t-26.5 10.5q-28 0 -49 -26l-63 31l49 213h228l-14 -82h-149zM649 700l-382 -700h-116l382 700h116z" />
<glyph unicode="&#x215e;" horiz-adv-x="726" d="M72 0zM683 137q0 -31 -9 -57.5t-28 -46t-47.5 -31t-67.5 -11.5q-59 0 -88.5 27t-29.5 75q0 44 20 76t55 48q-30 25 -30 72q0 27 8.5 51t26 42t43.5 28.5t62 10.5q51 0 78 -24.5t27 -69.5q0 -37 -15.5 -65.5t-44.5 -46.5q20 -11 30 -31.5t10 -46.5zM617 306q0 17 -7 28 t-24 11q-21 0 -33 -17.5t-12 -38.5q0 -15 7.5 -26t23.5 -11q19 0 32 15.5t13 38.5zM591 127q0 17 -8.5 29.5t-25.5 12.5q-22 0 -36 -18t-14 -44q0 -18 8.5 -30.5t26.5 -12.5q22 0 35.5 19t13.5 44zM72 293q19 115 62.5 197t94.5 129l-157 -3l15 89h252l-12 -72 q-30 -32 -52.5 -66.5t-40 -75.5t-30.5 -89.5t-22 -108.5h-110zM593 700l-382 -700h-116l382 700h116z" />
<glyph unicode="&#x215f;" horiz-adv-x="660" d="M69 0zM180 293h-98l47 291l-38 -25l-22 81l114 70h65zM576 700l-382 -700h-116l382 700h116z" />
<glyph unicode="&#x2212;" horiz-adv-x="390" d="M358 355l-14 -89h-306l14 89h306z" />
<glyph unicode="&#x2248;" horiz-adv-x="389" d="M286 408q15 0 39 6t47 23l-15 -91q-19 -13 -45 -19.5t-47 -6.5q-20 0 -36 5.5t-30 11.5t-29 11.5t-33 5.5q-17 0 -41.5 -5.5t-48.5 -22.5l15 91q19 13 44 19t47 6q21 0 37 -5.5t31 -11.5t30 -11.5t35 -5.5zM261 257q15 0 40 6t47 23l-14 -92q-20 -13 -45.5 -19.5 t-47.5 -6.5q-20 0 -36 5.5t-30 11.5t-29 11.5t-33 5.5q-17 0 -41.5 -5.5t-47.5 -22.5l15 92q18 13 43 19t46 6t37 -5.5t31 -11.5t30.5 -11.5t34.5 -5.5z" />
<glyph unicode="&#x2260;" horiz-adv-x="389" d="M332 190h-177l-50 -73h-76l50 73h-53l15 91h100l38 57h-130l14 91h179l50 73h76l-51 -73h53l-15 -91h-99l-41 -57h132z" />
<glyph unicode="&#x2264;" horiz-adv-x="449" d="M363 537l34 -76l-183 -119l145 -119l-58 -77l-207 168l8 55zM37 0l15 91h291l-14 -91h-292z" />
<glyph unicode="&#x2265;" horiz-adv-x="447" d="M114 146l-35 75l183 120l-144 117l58 79l207 -168l-9 -54zM343 91l-14 -91h-292l15 91h291z" />
<glyph unicode="&#x25fc;" horiz-adv-x="495" d="M0 495h495v-495h-495v495z" />
<glyph unicode="&#xf6c3;" horiz-adv-x="459" d="M141 -324l-21 52q26 11 47.5 31t29.5 46q-26 -1 -42 13.5t-15 43.5q1 37 22 59.5t58 22.5q61 0 61 -69q-1 -34 -12 -66.5t-29.5 -59.5t-44 -46t-54.5 -27z" />
<glyph horiz-adv-x="418" d="M10 -65l131 831h123l-132 -831h-122zM179 -65l131 831h123l-131 -831h-123z" />
<glyph horiz-adv-x="194" d="M174 452q-58 20 -88.5 73t-30.5 124q0 90 72 90q34 0 53 -19t19 -57q0 -35 -17.5 -53.5t-46.5 -20.5q6 -28 24.5 -48t44.5 -33z" />
<glyph horiz-adv-x="365" d="M174 452q-58 20 -88.5 73t-30.5 124q0 90 72 90q34 0 53 -19t19 -57q0 -35 -17.5 -53.5t-46.5 -20.5q6 -28 24.5 -48t44.5 -33zM346 452q-58 20 -88.5 73t-30.5 124q0 90 72 90q34 0 53 -19t19 -57q0 -35 -17.5 -53.5t-46.5 -20.5q6 -28 24.5 -48t44.5 -33z" />
<glyph horiz-adv-x="483" d="M24 0zM205 99q33 0 58 35.5t37 111.5q6 40 6 67q0 45 -13.5 65t-38.5 20q-33 0 -56.5 -35t-36.5 -116q-6 -39 -6 -68q0 -80 50 -80zM286 70q-27 -42 -59.5 -63t-77.5 -21q-58 0 -91.5 45t-33.5 134q0 34 6 78q19 137 73.5 202t128.5 65q42 0 71 -21.5t40 -63.5l22 71h108 l-78 -496h-110zM416 -196q-23 -16 -44.5 -23.5t-47.5 -7.5q-43 0 -72.5 24.5t-29.5 80.5q0 39 13 71t35 54.5t51.5 34.5t61.5 10l-3 -48q-39 -4 -59 -32.5t-20 -61.5q0 -26 12.5 -37t30.5 -11q27 0 46 17z" />
<glyph horiz-adv-x="483" d="M205 99q33 0 58 35.5t37 111.5q6 40 6 67q0 45 -13.5 65t-38.5 20q-33 0 -56.5 -35t-36.5 -116q-6 -39 -6 -68q0 -80 50 -80zM286 70q-27 -42 -59.5 -63t-77.5 -21q-58 0 -91.5 45t-33.5 134q0 34 6 78q19 137 73.5 202t128.5 65q42 0 71 -21.5t40 -63.5l22 71h108 l-78 -496h-110z" />
<glyph horiz-adv-x="483" d="M24 0zM205 99q33 0 58 35.5t37 111.5q6 40 6 67q0 45 -13.5 65t-38.5 20q-33 0 -56.5 -35t-36.5 -116q-6 -39 -6 -68q0 -80 50 -80zM286 70q-27 -42 -59.5 -63t-77.5 -21q-58 0 -91.5 45t-33.5 134q0 34 6 78q19 137 73.5 202t128.5 65q42 0 71 -21.5t40 -63.5l22 71h108 l-78 -496h-110zM232 572l-81 125l1 7h145l39 -127v-5h-104z" />
<glyph horiz-adv-x="483" d="M24 0zM205 99q33 0 58 35.5t37 111.5q6 40 6 67q0 45 -13.5 65t-38.5 20q-33 0 -56.5 -35t-36.5 -116q-6 -39 -6 -68q0 -80 50 -80zM286 70q-27 -42 -59.5 -63t-77.5 -21q-58 0 -91.5 45t-33.5 134q0 34 6 78q19 137 73.5 202t128.5 65q42 0 71 -21.5t40 -63.5l22 71h108 l-78 -496h-110zM300 703h139l-1 -7l-118 -125h-105v5z" />
<glyph horiz-adv-x="481" d="M24 0zM239 703h110l72 -128v-4h-104l-35 59l-52 -59h-105l1 4zM205 99q33 0 58 35.5t37 111.5q6 40 6 67q0 45 -13.5 65t-38.5 20q-33 0 -56.5 -35t-36.5 -116q-6 -39 -6 -68q0 -80 50 -80zM286 70q-27 -42 -59.5 -63t-77.5 -21q-58 0 -91.5 45t-33.5 134q0 34 6 78 q19 137 73.5 202t128.5 65q42 0 71 -21.5t40 -63.5l22 71h108l-78 -496h-110z" />
<glyph horiz-adv-x="481" d="M24 0zM126 630q0 38 20 62t58 24q61 0 61 -58q0 -38 -20 -62t-60 -24q-59 0 -59 58zM307 630q0 38 19.5 62t58.5 24q60 0 60 -58q0 -38 -19.5 -62t-59.5 -24q-59 0 -59 58zM205 99q33 0 58 35.5t37 111.5q6 40 6 67q0 45 -13.5 65t-38.5 20q-33 0 -56.5 -35t-36.5 -116 q-6 -39 -6 -68q0 -80 50 -80zM286 70q-27 -42 -59.5 -63t-77.5 -21q-58 0 -91.5 45t-33.5 134q0 34 6 78q19 137 73.5 202t128.5 65q42 0 71 -21.5t40 -63.5l22 71h108l-78 -496h-110z" />
<glyph horiz-adv-x="483" d="M24 0zM205 99q33 0 58 35.5t37 111.5q6 40 6 67q0 45 -13.5 65t-38.5 20q-33 0 -56.5 -35t-36.5 -116q-6 -39 -6 -68q0 -80 50 -80zM286 70q-27 -42 -59.5 -63t-77.5 -21q-58 0 -91.5 45t-33.5 134q0 34 6 78q19 137 73.5 202t128.5 65q42 0 71 -21.5t40 -63.5l22 71h108 l-78 -496h-110zM360 699h76q-3 -35 -13 -58t-24 -37t-30 -20t-31 -6q-17 0 -30.5 5.5t-25 12t-22 12t-21.5 5.5q-13 0 -18.5 -10.5t-7.5 -23.5h-79q3 34 13 57.5t23.5 37t29.5 19.5t31 6q18 0 32 -5.5t26 -12t22.5 -12t21.5 -5.5q14 0 19.5 10.5t7.5 24.5z" />
<glyph horiz-adv-x="483" d="M24 0zM205 99q33 0 58 35.5t37 111.5q6 40 6 67q0 45 -13.5 65t-38.5 20q-33 0 -56.5 -35t-36.5 -116q-6 -39 -6 -68q0 -80 50 -80zM286 70q-27 -42 -59.5 -63t-77.5 -21q-58 0 -91.5 45t-33.5 134q0 34 6 78q19 137 73.5 202t128.5 65q42 0 71 -21.5t40 -63.5l22 71h108 l-78 -496h-110zM302 753q35 0 58 -21t23 -62q0 -51 -30 -85t-78 -34q-37 0 -60.5 21t-23.5 63q0 49 29.5 83.5t81.5 34.5zM295 698q-22 0 -34 -16t-12 -39q0 -37 32 -37q20 0 32.5 17t12.5 40q0 17 -8.5 26t-22.5 9z" />
<glyph horiz-adv-x="483" d="M24 0zM205 99q33 0 58 35.5t37 111.5q6 40 6 67q0 45 -13.5 65t-38.5 20q-33 0 -56.5 -35t-36.5 -116q-6 -39 -6 -68q0 -80 50 -80zM286 70q-27 -42 -59.5 -63t-77.5 -21q-58 0 -91.5 45t-33.5 134q0 34 6 78q19 137 73.5 202t128.5 65q42 0 71 -21.5t40 -63.5l22 71h108 l-78 -496h-110zM405 675l-12 -85h-225l13 85h224z" />
<glyph horiz-adv-x="483" d="M24 0zM205 99q33 0 58 35.5t37 111.5q6 40 6 67q0 45 -13.5 65t-38.5 20q-33 0 -56.5 -35t-36.5 -116q-6 -39 -6 -68q0 -80 50 -80zM286 70q-27 -42 -59.5 -63t-77.5 -21q-58 0 -91.5 45t-33.5 134q0 34 6 78q19 137 73.5 202t128.5 65q42 0 71 -21.5t40 -63.5l22 71h108 l-78 -496h-110zM351 702h80q-6 -39 -19 -65.5t-32.5 -42.5t-45.5 -23t-58 -7t-56 7t-39 23t-20.5 42.5t0.5 65.5h81q-6 -36 4.5 -49t38.5 -13q29 0 45 13t21 49z" />
<glyph horiz-adv-x="484" d="M272 70q-26 -37 -58.5 -53.5t-67.5 -16.5q-62 0 -89.5 37.5t-27.5 96.5q0 27 5 55l48 307h137l-44 -275q-4 -23 -4 -45q0 -29 11 -41.5t31 -12.5q31 0 54 33.5t35 100.5l38 240h136l-75 -478q-20 -119 -87 -178t-165 -60q-78 0 -120 31.5t-58 93.5l110 58q8 -35 25 -53 t50 -18q87 0 108 128z" />
<glyph horiz-adv-x="484" d="M0 0zM272 70q-26 -37 -58.5 -53.5t-67.5 -16.5q-62 0 -89.5 37.5t-27.5 96.5q0 27 5 55l48 307h137l-44 -275q-4 -23 -4 -45q0 -29 11 -41.5t31 -12.5q31 0 54 33.5t35 100.5l38 240h136l-75 -478q-20 -119 -87 -178t-165 -60q-78 0 -120 31.5t-58 93.5l110 58 q8 -35 25 -53t50 -18q87 0 108 128zM316 703h139l-1 -7l-118 -125h-105v5z" />
<glyph horiz-adv-x="484" d="M0 0zM251 703h110l72 -128v-4h-104l-35 59l-52 -59h-105l1 4zM272 70q-26 -37 -58.5 -53.5t-67.5 -16.5q-62 0 -89.5 37.5t-27.5 96.5q0 27 5 55l48 307h137l-44 -275q-4 -23 -4 -45q0 -29 11 -41.5t31 -12.5q31 0 54 33.5t35 100.5l38 240h136l-75 -478 q-20 -119 -87 -178t-165 -60q-78 0 -120 31.5t-58 93.5l110 58q8 -35 25 -53t50 -18q87 0 108 128z" />
<glyph horiz-adv-x="484" d="M0 0zM138 630q0 38 20 62t58 24q61 0 61 -58q0 -38 -20 -62t-60 -24q-59 0 -59 58zM319 630q0 38 19.5 62t58.5 24q60 0 60 -58q0 -38 -19.5 -62t-59.5 -24q-59 0 -59 58zM272 70q-26 -37 -58.5 -53.5t-67.5 -16.5q-62 0 -89.5 37.5t-27.5 96.5q0 27 5 55l48 307h137 l-44 -275q-4 -23 -4 -45q0 -29 11 -41.5t31 -12.5q31 0 54 33.5t35 100.5l38 240h136l-75 -478q-20 -119 -87 -178t-165 -60q-78 0 -120 31.5t-58 93.5l110 58q8 -35 25 -53t50 -18q87 0 108 128z" />
<glyph horiz-adv-x="303" d="M241 470l63 -46q-46 -84 -136 -84q-55 0 -86 32t-31 101q0 12 1.5 25t3.5 28q14 99 58 143.5t110 44.5q47 0 74.5 -20t35.5 -68l-78 -44q-5 22 -14 33.5t-28 11.5q-24 0 -40.5 -23.5t-24.5 -77.5q-2 -14 -3 -25t-1 -22q0 -29 9.5 -42t32.5 -13q17 0 30.5 10.5t23.5 35.5z " />
<glyph horiz-adv-x="348" d="M183 424q21 0 38 24.5t25 78.5q2 12 3 23t1 21q0 32 -9 46t-26 14q-23 0 -40.5 -24.5t-25.5 -80.5q-4 -23 -4 -45q0 -57 38 -57zM54 523q13 98 52.5 144.5t92.5 46.5q29 0 49 -15.5t28 -47.5l15 52h80l-56 -352h-82l1 52q-35 -63 -93 -63q-42 0 -67 32t-25 96 q0 13 1.5 26.5t3.5 28.5z" />
<glyph horiz-adv-x="459" d="M285 445h-88l46 255h107z" />
<glyph horiz-adv-x="201" d="M-23 0l98 485h96l-56 -485h-138zM70 613q0 41 21.5 67.5t65.5 26.5q32 0 48 -17t16 -46q0 -38 -20 -66.5t-65 -28.5q-66 0 -66 64z" />
<glyph horiz-adv-x="411" d="M285 491l-22 -173h-39q-25 0 -45.5 -11t-35 -29.5t-22.5 -42.5t-8 -50q0 -41 18.5 -62t52.5 -21q36 0 63 20.5t44 67.5l93 -43q-28 -85 -86.5 -122.5t-136.5 -37.5q-87 0 -130 45.5t-43 127.5q0 52 14.5 94t38.5 72.5t56 51t68 29.5l21 84h99zM184 619q0 41 21.5 67.5 t65.5 26.5q32 0 48 -17t16 -46q0 -38 -19.5 -66.5t-64.5 -28.5q-67 0 -67 64z" />
<glyph horiz-adv-x="289" d="M261 325l-18 -117h-211l19 117h210z" />
<glyph horiz-adv-x="522" d="M495 325l-18 -117h-445l19 117h444z" />
<glyph horiz-adv-x="566" d="M255 -14q-104 0 -158 62t-54 191q0 50 9 112q27 190 104 276.5t208 86.5q91 0 140 -44.5t57 -147.5l-128 -34q-6 56 -27.5 77t-58.5 21q-27 0 -50.5 -11.5t-43 -38.5t-35 -72.5t-25.5 -113.5q-5 -33 -7.5 -61t-2.5 -51q0 -73 23.5 -102.5t66.5 -29.5q21 0 40.5 8.5 t36 26.5t28.5 47t18 71h-99l19 115h238l-13 -86q-46 -302 -286 -302z" />
<glyph horiz-adv-x="544" d="M337 0l-122 322l-51 -322h-142l111 700h141l-54 -345l227 345h161l-249 -353l146 -347h-168z" />
<glyph horiz-adv-x="452" d="M261 1l-84 211l-34 -212h-136l111 700h137l-69 -431l154 227h139l-171 -243l103 -252h-150z" />
<glyph horiz-adv-x="607" d="M36 4zM482 100q-84 -96 -214 -96q-109 0 -170.5 72t-61.5 200q0 97 26 175t70.5 132.5t104.5 84t128 29.5q109 0 168.5 -66.5t59.5 -182.5q0 -59 -12.5 -107t-35 -83t-54 -54t-69.5 -19q-57 0 -73 48q-22 -27 -45.5 -40.5t-52.5 -13.5q-35 0 -56.5 20.5t-21.5 58.5 q0 27 11 51t31 42t47.5 28.5t60.5 10.5h30q1 5 1.5 9.5t0.5 8.5q0 27 -13.5 38t-30.5 11q-37 0 -60 -43l-52 45q21 34 55 54t82 20t78 -25t30 -79q0 -17 -3 -38l-15 -100q-1 -5 -1.5 -11t-0.5 -11q0 -31 25 -31q18 0 34.5 15t30 42t21.5 65t8 85q0 103 -50.5 155t-131.5 52 q-54 0 -104 -24.5t-88 -72.5t-61 -118t-23 -161q0 -57 14 -100t39.5 -71.5t59.5 -42.5t75 -14q51 0 96 19t80 61zM254 273q0 -14 7.5 -21.5t18.5 -7.5q25 0 41.5 19.5t21.5 57.5l1 14h-18q-34 0 -53 -18t-19 -44z" />
<glyph horiz-adv-x="539" d="M338 714q98 0 144 -56t46 -177q0 -29 -2.5 -61.5t-7.5 -69.5q-27 -188 -95.5 -276t-189.5 -88q-100 0 -146.5 57.5t-46.5 176.5q0 29 3 61.5t8 68.5q27 187 95.5 275.5t191.5 88.5zM324 594q-24 0 -44 -12.5t-36.5 -41t-30 -75t-23.5 -114.5q-7 -41 -10.5 -74t-3.5 -59 q0 -63 18.5 -88t50.5 -25q24 0 44 12t36.5 40.5t30 75.5t24.5 116q7 41 9.5 73.5t2.5 58.5q0 62 -17 87.5t-51 25.5z" />
<glyph horiz-adv-x="319" d="M210 0h-139l82 520l-66 -47l-34 117l177 116h92z" />
<glyph horiz-adv-x="456" d="M-8 0l17 103l228 265q45 53 65.5 90.5t20.5 70.5q0 29 -16 45t-45 16q-32 0 -59 -19.5t-52 -66.5l-99 48q42 88 104 125t138 37q84 0 128 -41.5t44 -113.5q0 -33 -8 -62.5t-25.5 -61t-45.5 -67.5t-68 -82l-142 -164l236 5l-20 -127h-401z" />
<glyph horiz-adv-x="474" d="M-4 144l111 49q9 -48 31 -69.5t57 -21.5q51 0 77 35t26 87q0 37 -19.5 55t-54.5 18h-49l19 118h48q20 0 37 9t29 24t19 35t7 42q0 32 -17 50.5t-49 18.5q-34 0 -58.5 -18.5t-44.5 -59.5l-99 47q34 77 91 114t144 37q88 0 132 -42t44 -113q0 -57 -28.5 -110t-84.5 -88 q32 -18 50 -50.5t18 -81.5q0 -52 -17 -96.5t-49 -77.5t-77.5 -51.5t-102.5 -18.5q-35 0 -66.5 9t-56.5 28.5t-42.5 49.5t-24.5 72z" />
<glyph horiz-adv-x="526" d="M8 155l17 104l222 441h134l-214 -419h145l37 235h131l-37 -235h64l-20 -126h-64l-24 -155h-131l24 155h-284z" />
<glyph horiz-adv-x="488" d="M229 579l-34 -156q18 14 45 21t58 7q33 0 60 -10t47 -31t31 -53.5t11 -78.5q0 -63 -18.5 -117t-53 -93t-83.5 -61t-110 -22q-78 0 -127 39t-61 117l112 52q8 -49 31 -70t57 -21q27 0 48.5 12t36.5 33t22.5 49.5t7.5 61.5q0 43 -20 63t-51 20q-55 0 -95 -46l-89 44l81 361 h359l-19 -121h-246z" />
<glyph horiz-adv-x="511" d="M533 581l-116 -55q-16 73 -73 73q-35 0 -59.5 -17t-42 -49t-30 -78t-24.5 -104l-3 -15q23 47 62.5 75.5t93.5 28.5q60 0 98 -43.5t38 -128.5q0 -57 -15.5 -108.5t-46 -90t-75.5 -61.5t-104 -23q-94 0 -144 57.5t-50 183.5q0 54 9 120q27 181 101.5 274.5t201.5 93.5 q152 0 179 -133zM277 332q-20 0 -37.5 -11t-30.5 -30t-20.5 -45t-7.5 -56q0 -42 16.5 -66t48.5 -24q24 0 42 12t29.5 32t17.5 45.5t6 52.5q0 90 -64 90z" />
<glyph horiz-adv-x="427" d="M60 0q15 96 42.5 182t62.5 159.5t76.5 132.5t84.5 101l-264 -4l21 129h400l-18 -111q-48 -49 -89 -113t-73.5 -139.5t-55 -160.5t-33.5 -176h-154z" />
<glyph horiz-adv-x="506" d="M457 230q0 -52 -15.5 -96.5t-46.5 -77.5t-76.5 -51.5t-106.5 -18.5q-92 0 -138.5 46.5t-46.5 124.5t33.5 132.5t91.5 79.5q-25 20 -39 51.5t-14 73.5q0 44 14 84t42 70t70 48t98 18q81 0 124 -41t43 -116q0 -63 -27 -112.5t-75 -78.5q33 -19 51 -54t18 -82zM366 528 q0 32 -14.5 53.5t-47.5 21.5q-19 0 -34.5 -8.5t-27 -23.5t-17.5 -34.5t-6 -40.5q0 -30 15 -52t45 -22q18 0 33.5 8t27.5 22.5t19 33.5t7 42zM326 218q0 35 -17 59t-52 24q-21 0 -39 -9.5t-30.5 -26t-19.5 -38t-7 -46.5q0 -38 17 -60.5t51 -22.5q20 0 37.5 9.5t30.5 25.5 t21 38t8 47z" />
<glyph horiz-adv-x="507" d="M258 363q22 0 40.5 11.5t32 31.5t21 46t7.5 56q0 42 -16.5 66.5t-46.5 24.5q-23 0 -41 -11.5t-30 -31.5t-18.5 -47.5t-6.5 -59.5q0 -86 58 -86zM188 -15q-78 0 -121 34t-60 100l115 54q9 -35 27 -54t48 -19q35 0 60.5 17t43.5 49t30.5 77.5t21.5 103.5l2 16 q-25 -50 -64 -79.5t-94 -29.5q-61 0 -98 43.5t-37 128.5q0 58 14.5 110t44.5 91.5t76 63t110 23.5q92 0 141.5 -58t49.5 -184q0 -31 -3 -65t-10 -70q-29 -175 -103 -263.5t-194 -88.5z" />
<glyph d="M313 614q87 0 133.5 -51.5t46.5 -161.5q0 -23 -1.5 -48t-6.5 -54q-23 -160 -90.5 -236.5t-172.5 -76.5q-85 0 -132 52t-47 161q0 23 2.5 48t6.5 53q24 162 90.5 238t170.5 76zM237 104q20 0 37 10t31 33t25.5 60.5t20.5 92.5q9 58 9 98q0 53 -16 75t-45 22 q-20 0 -36.5 -9.5t-30.5 -32t-25 -60t-20 -93.5q-5 -30 -7.5 -55t-2.5 -45q0 -52 15.5 -74t44.5 -22z" />
<glyph d="M440 0h-421l19 121h137l47 299l-64 -47l-32 117l173 116h90l-77 -485h147z" />
<glyph d="M25 0l15 89l198 206q55 57 80.5 90.5t25.5 61.5q0 24 -15 35.5t-41 11.5q-29 0 -53.5 -18t-42.5 -56l-95 46q39 81 97 114.5t128 33.5q75 0 118 -34t43 -100q0 -29 -9 -56t-27.5 -55.5t-47 -61t-67.5 -73.5l-117 -124l223 5l-19 -115h-394z" />
<glyph d="M15 42l112 53q10 -51 31.5 -72.5t55.5 -21.5q48 0 74.5 35t26.5 89q0 36 -19.5 54t-54.5 18h-50l19 118h48q21 0 38.5 8.5t29.5 23.5t19 35t7 42q0 32 -18 51.5t-49 19.5q-35 0 -59.5 -20t-42.5 -60l-100 45q36 85 96.5 119.5t140.5 34.5q89 0 131.5 -42t42.5 -110 q0 -27 -6.5 -55t-21 -54.5t-35.5 -50.5t-49 -42q66 -35 66 -127q0 -51 -16 -96t-46.5 -79t-76 -53.5t-105.5 -19.5q-73 0 -121 39t-68 118z" />
<glyph d="M0 55l16 102l216 443h131l-210 -420h137l36 234h128l-38 -234h60l-19 -125h-59l-25 -155h-127l25 155h-271z" />
<glyph d="M240 480l-32 -157q20 14 44 21t50 7q34 0 61.5 -9.5t47 -30t30.5 -53t11 -78.5q0 -68 -18 -123t-52 -93t-82.5 -58.5t-108.5 -20.5q-76 0 -122.5 38t-62.5 118l111 52q8 -50 30 -71t57 -21q26 0 46.5 12t35 33.5t22 50.5t7.5 62q0 43 -17.5 62.5t-50.5 19.5 q-25 0 -48 -12t-43 -34l-88 44l81 361h354l-19 -120h-244z" />
<glyph d="M476 269q0 -59 -15 -110.5t-45 -90t-76 -61t-108 -22.5q-92 0 -140.5 57t-48.5 181q0 30 3 65t9 73q30 179 101.5 266t194.5 87q78 0 120 -34.5t56 -100.5l-111 -53q-10 38 -29 55.5t-48 17.5q-34 0 -58 -17t-42 -49.5t-30.5 -79t-22.5 -106.5l-2 -13q24 50 62.5 78 t92.5 28q63 0 100 -43t37 -128zM339 247q0 41 -14.5 63t-44.5 22q-21 0 -39 -10t-31.5 -29t-21.5 -45t-8 -57q0 -41 16.5 -66t47.5 -25q44 0 69.5 40.5t25.5 106.5z" />
<glyph d="M98 -100q15 96 41 181.5t60 159t74.5 132.5t84.5 102l-261 -4l20 129h395l-17 -111q-48 -49 -88.5 -113t-72 -139.5t-53 -160.5t-32.5 -176h-151z" />
<glyph d="M470 230q0 -54 -16 -98.5t-47 -77t-77 -50.5t-106 -18q-91 0 -138.5 44.5t-46.5 125.5q0 77 33 132t92 81q-24 20 -39 50.5t-15 69.5q0 46 14.5 87t43 72t70.5 48.5t97 17.5q82 0 124.5 -41.5t42.5 -119.5q0 -67 -28 -113t-73 -74q33 -19 51 -52t18 -84zM233 494 q0 -29 14 -50.5t43 -21.5q19 0 35 9t28 24.5t18.5 35.5t6.5 42q0 28 -14 49t-45 21q-20 0 -35.5 -9t-27 -24t-17.5 -34.5t-6 -41.5zM174 177q0 -32 17.5 -55.5t49.5 -23.5q22 0 40.5 9.5t31 26t19.5 39t7 47.5q0 35 -17 58t-52 23q-21 0 -38.5 -9.5t-30.5 -26t-20 -39 t-7 -49.5z" />
<glyph d="M287 499q-44 0 -69.5 -40.5t-25.5 -106.5q0 -41 14.5 -63t44.5 -22q21 0 39 10t31.5 29t21.5 44.5t8 57.5q0 41 -16.5 66t-47.5 25zM180 -115q-78 0 -120 34.5t-56 100.5l111 53q10 -38 29 -55.5t48 -17.5q34 0 58 17t42 49.5t30.5 79t22.5 106.5l2 13q-24 -50 -62.5 -78 t-92.5 -28q-63 0 -100 43t-37 128q0 59 15 110.5t45 90t76 61t108 22.5q92 0 140.5 -57t48.5 -181q0 -30 -3 -65t-9 -73q-30 -179 -101.5 -266t-194.5 -87z" />
<glyph horiz-adv-x="491" d="M295 614q87 0 133.5 -51.5t46.5 -161.5q0 -23 -1.5 -48t-6.5 -54q-23 -160 -90.5 -236.5t-172.5 -76.5q-85 0 -132 52t-47 161q0 23 2.5 48t6.5 53q24 162 90.5 238t170.5 76zM219 104q20 0 37 10t31 33t25.5 60.5t20.5 92.5q9 58 9 98q0 53 -16 75t-45 22 q-20 0 -36.5 -9.5t-30.5 -32t-25 -60t-20 -93.5q-5 -30 -7.5 -55t-2.5 -45q0 -52 15.5 -74t44.5 -22z" />
<glyph horiz-adv-x="297" d="M204 0h-137l66 420l-64 -47l-32 117l173 116h90z" />
<glyph horiz-adv-x="434" d="M-19 0l15 89l193 206q52 56 76.5 90t24.5 62q0 24 -14 35.5t-37 11.5q-55 0 -91 -74l-95 46q39 81 95 114.5t125 33.5q72 0 114 -34t42 -100q0 -29 -8.5 -56t-26.5 -55.5t-45.5 -61.5t-65.5 -73l-117 -124l218 5l-19 -115h-384z" />
<glyph horiz-adv-x="459" d="M-28 42l112 53q10 -51 31.5 -72.5t55.5 -21.5q48 0 74.5 35t26.5 89q0 36 -19.5 54t-54.5 18h-50l19 118h48q21 0 38.5 8.5t29.5 23.5t19 35t7 42q0 32 -18 51.5t-49 19.5q-35 0 -59.5 -20t-42.5 -60l-100 45q36 85 96.5 119.5t140.5 34.5q89 0 131.5 -42t42.5 -110 q0 -27 -6.5 -55t-21 -54.5t-35.5 -50.5t-49 -42q66 -35 66 -127q0 -51 -16 -96t-46.5 -79t-76 -53.5t-105.5 -19.5q-73 0 -121 39t-68 118z" />
<glyph horiz-adv-x="500" d="M-8 55l16 102l216 443h131l-210 -420h137l36 234h128l-38 -234h60l-19 -125h-59l-25 -155h-127l25 155h-271z" />
<glyph horiz-adv-x="469" d="M199 480l-32 -157q20 14 44 21t50 7q34 0 61.5 -9.5t47 -30t30.5 -53t11 -78.5q0 -68 -18 -123t-52 -93t-82.5 -58.5t-108.5 -20.5q-76 0 -122.5 38t-62.5 118l111 52q8 -50 30 -71t57 -21q26 0 46.5 12t35 33.5t22 50.5t7.5 62q0 43 -17.5 62.5t-50.5 19.5 q-25 0 -48 -12t-43 -34l-88 44l81 361h354l-19 -120h-244z" />
<glyph horiz-adv-x="491" d="M462 269q0 -59 -15 -110.5t-45 -90t-76 -61t-108 -22.5q-92 0 -140.5 57t-48.5 181q0 30 3 65t9 73q30 179 101.5 266t194.5 87q78 0 120 -34.5t56 -100.5l-111 -53q-10 38 -29 55.5t-48 17.5q-34 0 -58 -17t-42 -49.5t-30.5 -79t-22.5 -106.5l-2 -13q24 50 62.5 78 t92.5 28q63 0 100 -43t37 -128zM325 247q0 41 -14.5 63t-44.5 22q-21 0 -39 -10t-31.5 -29t-21.5 -45t-8 -57q0 -41 16.5 -66t47.5 -25q44 0 69.5 40.5t25.5 106.5z" />
<glyph horiz-adv-x="420" d="M49 -100q15 96 41 181.5t60 159t74.5 132.5t84.5 102l-261 -4l20 129h395l-17 -111q-48 -49 -88.5 -113t-72 -139.5t-53 -160.5t-32.5 -176h-151z" />
<glyph horiz-adv-x="486" d="M449 230q0 -54 -16 -98.5t-47 -77t-77 -50.5t-106 -18q-91 0 -138.5 44.5t-46.5 125.5q0 77 33 132t92 81q-24 20 -39 50.5t-15 69.5q0 46 14.5 87t43 72t70.5 48.5t97 17.5q82 0 124.5 -41.5t42.5 -119.5q0 -67 -28 -113t-73 -74q33 -19 51 -52t18 -84zM212 494 q0 -29 14 -50.5t43 -21.5q19 0 35 9t28 24.5t18.5 35.5t6.5 42q0 28 -14 49t-45 21q-20 0 -35.5 -9t-27 -24t-17.5 -34.5t-6 -41.5zM153 177q0 -32 17.5 -55.5t49.5 -23.5q22 0 40.5 9.5t31 26t19.5 39t7 47.5q0 35 -17 58t-52 23q-21 0 -38.5 -9.5t-30.5 -26t-20 -39 t-7 -49.5z" />
<glyph horiz-adv-x="492" d="M268 499q-44 0 -69.5 -40.5t-25.5 -106.5q0 -41 14.5 -63t44.5 -22q21 0 39 10t31.5 29t21.5 44.5t8 57.5q0 41 -16.5 66t-47.5 25zM161 -115q-78 0 -120 34.5t-56 100.5l111 53q10 -38 29 -55.5t48 -17.5q34 0 58 17t42 49.5t30.5 79t22.5 106.5l2 13q-24 -50 -62.5 -78 t-92.5 -28q-63 0 -100 43t-37 128q0 59 15 110.5t45 90t76 61t108 22.5q92 0 140.5 -57t48.5 -181q0 -30 -3 -65t-9 -73q-30 -179 -101.5 -266t-194.5 -87z" />
<glyph horiz-adv-x="342" d="M0 0zM160 221q121 0 121 -141q0 -32 -6 -74q-17 -110 -59.5 -162.5t-117.5 -52.5q-63 0 -92.5 34.5t-29.5 105.5q0 33 6 75q17 110 59 162.5t119 52.5zM151 139q-26 0 -43 -29t-28 -104q-4 -23 -6 -41.5t-2 -32.5q0 -33 9.5 -46.5t26.5 -13.5q23 0 40.5 29t29.5 105 q4 23 5.5 41t1.5 33q0 32 -8.5 45.5t-25.5 13.5z" />
<glyph horiz-adv-x="211" d="M0 0zM98 -200h-98l47 291l-38 -25l-22 81l114 70h65z" />
<glyph horiz-adv-x="296" d="M0 0zM-50 -200l12 68l133 152q26 28 37 48t11 37q0 14 -7.5 22t-23.5 8t-30.5 -10t-28.5 -36l-70 32q25 54 65 77t89 23q51 0 79.5 -25t28.5 -70q0 -20 -5 -37.5t-16.5 -36.5t-29 -41.5t-42.5 -50.5l-68 -77l129 4l-15 -87h-248z" />
<glyph horiz-adv-x="298" d="M0 0zM-51 -114l77 35q6 -27 18 -38.5t32 -11.5q26 0 39 17t13 42q0 19 -11 29t-29 10h-29l12 76h29q22 0 35.5 17t13.5 40q0 36 -35 36q-16 0 -30.5 -9.5t-24.5 -31.5l-67 32q38 92 147 92q57 0 84 -26t27 -68q0 -33 -17 -64t-52 -52q41 -24 41 -78q0 -30 -11 -56 t-30.5 -45t-48 -30t-62.5 -11q-45 0 -77.5 22.5t-43.5 72.5z" />
<glyph horiz-adv-x="332" d="M0 0zM-42 -115l12 72l130 255h95l-125 -241h74l19 119h92l-20 -119h37l-15 -86h-36l-13 -85h-92l14 85h-172z" />
<glyph horiz-adv-x="295" d="M0 0zM98 130l-16 -77q10 6 24.5 10t31.5 4q41 0 66.5 -24t25.5 -78q0 -40 -12.5 -72.5t-34.5 -55t-52.5 -34.5t-66.5 -12q-47 0 -77 20.5t-42 67.5l78 40q5 -27 17.5 -37.5t31.5 -10.5q29 0 45 23t16 56q0 23 -10.5 33.5t-26.5 10.5q-28 0 -49 -26l-63 31l49 213h228 l-14 -82h-149z" />
<glyph horiz-adv-x="324" d="M0 0zM281 141l-77 -38q-3 20 -12 29.5t-27 9.5q-38 0 -56.5 -34.5t-29.5 -99.5l-1 -7q14 26 34.5 42t51.5 16q38 0 62 -25t24 -76q0 -34 -9.5 -64.5t-28 -53t-46 -36t-63.5 -13.5q-62 0 -94 35t-32 110q0 16 1 32.5t4 34.5q16 105 60.5 161.5t123.5 56.5q98 0 115 -80z M123 -13q-21 0 -34.5 -21t-13.5 -52q0 -21 8 -33t25 -12q23 0 34.5 22.5t11.5 50.5q0 45 -31 45z" />
<glyph horiz-adv-x="272" d="M0 0zM-8 -200q19 115 62.5 197t94.5 129l-157 -3l15 89h252l-12 -72q-30 -32 -52.5 -66.5t-40 -75.5t-30.5 -89.5t-22 -108.5h-110z" />
<glyph horiz-adv-x="316" d="M0 0zM236 -63q0 -31 -9 -57.5t-28 -46t-47.5 -31t-67.5 -11.5q-59 0 -88.5 27t-29.5 75q0 44 20 76t55 48q-30 25 -30 72q0 27 8.5 51t26 42t43.5 28.5t62 10.5q51 0 78 -24.5t27 -69.5q0 -37 -15.5 -65.5t-44.5 -46.5q20 -11 30 -31.5t10 -46.5zM170 106q0 17 -7 28 t-24 11q-21 0 -33 -17.5t-12 -38.5q0 -15 7.5 -26t23.5 -11q19 0 32 15.5t13 38.5zM144 -73q0 17 -8.5 29.5t-25.5 12.5q-22 0 -36 -18t-14 -44q0 -18 8.5 -30.5t26.5 -12.5q22 0 35.5 19t13.5 44z" />
<glyph horiz-adv-x="323" d="M0 0zM115 20q23 0 36 23t13 52q0 21 -8 33.5t-23 12.5q-23 0 -35 -22.5t-12 -54.5q0 -20 7 -32t22 -12zM73 -209q-45 0 -76 15.5t-42 50.5l71 48q7 -20 17.5 -28.5t29.5 -8.5q21 0 35 9t24 26.5t17 42t12 55.5l1 8q-14 -30 -35.5 -46.5t-51.5 -16.5q-38 0 -61 26.5 t-23 77.5q0 34 9 65.5t27.5 54.5t46.5 37t66 14q60 0 92 -35.5t32 -109.5q0 -20 -2 -40t-6 -41q-18 -99 -63 -151.5t-120 -52.5z" />
<glyph horiz-adv-x="244" d="M0 0zM93 -142h-71l14 89h-64l11 68h65l15 90h71l-15 -90h63l-11 -68h-63z" />
<glyph horiz-adv-x="244" d="M0 0zM181 16l-11 -70h-199l12 70h198z" />
<glyph horiz-adv-x="244" d="M0 0zM189 64l-11 -71h-199l11 71h199zM174 -34l-11 -70h-199l11 70h199z" />
<glyph horiz-adv-x="180" d="M0 0zM86 -207l-25 -80q-102 24 -102 172q0 21 2 45t6 50q38 238 172 245l2 -83q-19 -3 -34 -12t-27.5 -28.5t-22.5 -50.5t-17 -77q-4 -23 -5.5 -43t-1.5 -37q0 -47 13.5 -70t39.5 -31z" />
<glyph horiz-adv-x="180" d="M0 0zM-5 145l25 80q103 -24 103 -172q0 -21 -2 -45t-6 -50q-38 -237 -173 -245l-2 83q19 3 34 12t27.5 28.5t22 50.5t17.5 77q4 23 5.5 43t1.5 37q0 47 -13.5 70t-39.5 31z" />
<glyph horiz-adv-x="233" d="M101 633q0 42 21.5 68t65.5 26q33 0 51 -16.5t18 -47.5q0 -43 -23.5 -69t-65.5 -26q-33 0 -50 17.5t-17 47.5zM88 496h136l-78 -496h-137z" />
<glyph horiz-adv-x="452" d="M7 0zM261 1l-84 211l-34 -212h-136l111 700h137l-69 -431l154 227h139l-171 -243l103 -252h-150zM119 -324l-21 52q26 11 47.5 31t29.5 46q-26 -1 -42 13.5t-15 43.5q1 37 22 59.5t58 22.5q61 0 61 -69q-1 -34 -12 -66.5t-29.5 -59.5t-44 -46t-54.5 -27z" />
<glyph horiz-adv-x="566" d="M43 0zM255 -14q-104 0 -158 62t-54 191q0 50 9 112q27 190 104 276.5t208 86.5q91 0 140 -44.5t57 -147.5l-128 -34q-6 56 -27.5 77t-58.5 21q-27 0 -50.5 -11.5t-43 -38.5t-35 -72.5t-25.5 -113.5q-5 -33 -7.5 -61t-2.5 -51q0 -73 23.5 -102.5t66.5 -29.5q21 0 40.5 8.5 t36 26.5t28.5 47t18 71h-99l19 115h238l-13 -86q-46 -302 -286 -302zM450 906h80q-6 -39 -19 -65.5t-32.5 -42.5t-45.5 -23t-58 -7t-56 7t-39 23t-20.5 42.5t0.5 65.5h81q-6 -36 4.5 -49t38.5 -13q29 0 45 13t21 49z" />
<glyph horiz-adv-x="566" d="M43 0zM255 -14q-104 0 -158 62t-54 191q0 50 9 112q27 190 104 276.5t208 86.5q91 0 140 -44.5t57 -147.5l-128 -34q-6 56 -27.5 77t-58.5 21q-27 0 -50.5 -11.5t-43 -38.5t-35 -72.5t-25.5 -113.5q-5 -33 -7.5 -61t-2.5 -51q0 -73 23.5 -102.5t66.5 -29.5q21 0 40.5 8.5 t36 26.5t28.5 47t18 71h-99l19 115h238l-13 -86q-46 -302 -286 -302zM340 907h110l72 -128v-4h-104l-35 59l-52 -59h-105l1 4z" />
<glyph horiz-adv-x="566" d="M43 0zM255 -14q-104 0 -158 62t-54 191q0 50 9 112q27 190 104 276.5t208 86.5q91 0 140 -44.5t57 -147.5l-128 -34q-6 56 -27.5 77t-58.5 21q-27 0 -50.5 -11.5t-43 -38.5t-35 -72.5t-25.5 -113.5q-5 -33 -7.5 -61t-2.5 -51q0 -73 23.5 -102.5t66.5 -29.5q21 0 40.5 8.5 t36 26.5t28.5 47t18 71h-99l19 115h238l-13 -86q-46 -302 -286 -302zM177 -324l-21 52q26 11 47.5 31t29.5 46q-26 -1 -42 13.5t-15 43.5q1 37 22 59.5t58 22.5q61 0 61 -69q-1 -34 -12 -66.5t-29.5 -59.5t-44 -46t-54.5 -27z" />
<glyph horiz-adv-x="566" d="M43 0zM255 -14q-104 0 -158 62t-54 191q0 50 9 112q27 190 104 276.5t208 86.5q91 0 140 -44.5t57 -147.5l-128 -34q-6 56 -27.5 77t-58.5 21q-27 0 -50.5 -11.5t-43 -38.5t-35 -72.5t-25.5 -113.5q-5 -33 -7.5 -61t-2.5 -51q0 -73 23.5 -102.5t66.5 -29.5q21 0 40.5 8.5 t36 26.5t28.5 47t18 71h-99l19 115h238l-13 -86q-46 -302 -286 -302zM313 836q0 38 20.5 61t61.5 23q31 0 47 -15.5t16 -44.5q0 -39 -21 -62t-60 -23q-64 0 -64 61z" />
<glyph horiz-adv-x="544" d="M22 0zM337 0l-122 322l-51 -322h-142l111 700h141l-54 -345l227 345h161l-249 -353l146 -347h-168zM170 -324l-21 52q26 11 47.5 31t29.5 46q-26 -1 -42 13.5t-15 43.5q1 37 22 59.5t58 22.5q61 0 61 -69q-1 -34 -12 -66.5t-29.5 -59.5t-44 -46t-54.5 -27z" />
<glyph horiz-adv-x="372" d="M45 293zM357 410l-18 -117h-294l19 117h293z" />
<glyph horiz-adv-x="444" d="M45 293zM430 410l-19 -117h-366l18 117h367z" />
<glyph horiz-adv-x="593" d="M46 293zM579 410l-18 -117h-515l18 117h515z" />
<glyph horiz-adv-x="444" d="M46 293zM431 410l-19 -117h-366l18 117h367z" />
<glyph horiz-adv-x="232" d="M255 700l-111 -700h-135l111 700h135z" />
<glyph horiz-adv-x="529" d="M317 385h-94l-60 -385h-135l61 385h-58l18 111h58l9 50q14 94 64 139t119 45q24 0 49 -6.5t42 -20.5l-48 -102q-14 11 -36 11q-20 0 -36.5 -16t-21.5 -56l-7 -44h94zM556 700l-111 -700h-135l111 700h135z" />
<glyph horiz-adv-x="529" d="M0 0z" />
</font>
</defs>
</svg>
