<?xml version="1.0" standalone="no"?>
<!DOCTYPE svg PUBLIC "-//W3C//DTD SVG 1.1//EN" "http://www.w3.org/Graphics/SVG/1.1/DTD/svg11.dtd" >
<svg xmlns="http://www.w3.org/2000/svg" xmlns:xlink="http://www.w3.org/1999/xlink" version="1.1">
<metadata></metadata>
<defs>
<font id="honeywell_cond_webextrabold" horiz-adv-x="535" >
<font-face units-per-em="1000" ascent="780" descent="-220" />
<missing-glyph horiz-adv-x="178" />
<glyph unicode="fi" horiz-adv-x="544" d="M427 564q-37 0 -57.5 20.5t-20.5 58.5q0 39 20.5 59t57.5 20q38 0 58 -20t20 -59q0 -38 -20 -58.5t-58 -20.5zM304 385h-96v-385h-136v385h-59v111h59v50q0 47 12 81.5t33.5 57.5t50.5 34t64 11q55 0 92 -28l-34 -102q-17 11 -37 11t-32.5 -15.5t-12.5 -54.5v-45h96v-111 zM358 496h138v-496h-138v496z" />
<glyph unicode="fl" horiz-adv-x="562" d="M304 385h-96v-385h-136v385h-59v111h59v50q0 47 12 81.5t33.5 57.5t50.5 34t64 11q55 0 92 -28l-34 -102q-17 11 -37 11t-32.5 -15.5t-12.5 -54.5v-45h96v-111zM484 0q-58 0 -92 30t-34 104v566h137v-555q0 -20 8.5 -30t20.5 -10h29v-105h-69z" />
<glyph horiz-adv-x="134" />
<glyph horiz-adv-x="134" />
<glyph unicode="&#xd;" horiz-adv-x="134" />
<glyph unicode=" "  horiz-adv-x="178" />
<glyph unicode="&#x09;" horiz-adv-x="178" />
<glyph unicode="&#xa0;" horiz-adv-x="178" />
<glyph unicode="!" horiz-adv-x="206" d="M172 700l-21 -486h-97l-20 486h138zM103 -7q-36 0 -56 21t-20 58q0 38 20 58.5t56 20.5t55.5 -20.5t19.5 -58.5q0 -37 -19.5 -58t-55.5 -21z" />
<glyph unicode="&#x22;" horiz-adv-x="332" d="M192 450l-8 264h112l-17 -264h-87zM141 450h-88l-17 264h112z" />
<glyph unicode="#" horiz-adv-x="606" d="M338 294l28 125h-89l-29 -125h90zM275 0l43 192h-91l-43 -192h-128l42 192h-83l26 102h77l28 125h-84l26 101h79l39 180l129 -1l-38 -179h90l39 180h129l-39 -180h83l-25 -101h-79l-28 -125h86l-26 -102h-81l-42 -192h-129z" />
<glyph unicode="$" horiz-adv-x="467" d="M203 431v150q-30 -5 -43 -25t-13 -46q0 -53 56 -79zM261 113q29 6 43 25.5t14 46.5q0 29 -12.5 48t-44.5 36v-156zM203 -62v67q-71 4 -121 41.5t-73 120.5l111 39q22 -80 83 -93v176l-4 3q-94 36 -131 89t-37 121q0 78 44.5 129.5t127.5 59.5v75h58v-75q69 -6 114 -44 t62 -115l-110 -40q-10 38 -26.5 58t-39.5 28v-168l18 -7q86 -32 124 -80t38 -123q0 -85 -46 -135t-134 -58v-69h-58z" />
<glyph unicode="%" horiz-adv-x="829" d="M22 0zM506 206q0 110 35.5 162.5t113.5 52.5t113 -52.5t35 -162.5t-35 -162.5t-113 -52.5t-113.5 53t-35.5 162zM705 206q0 76 -13 104.5t-37 28.5q-25 0 -38 -29t-13 -104q0 -76 13 -105t39 -29q23 0 36 29t13 105zM22 499q0 110 35.5 162.5t113.5 52.5t113 -52.5 t35 -162.5t-35 -162.5t-113 -52.5t-113.5 53t-35.5 162zM221 499q0 76 -13 104.5t-37 28.5q-25 0 -38 -29t-13 -104q0 -76 13 -105t39 -29q23 0 36 29t13 105zM602 700l-265 -700h-115l266 700h114z" />
<glyph unicode="&#x26;" horiz-adv-x="562" d="M491 -18q-47 27 -96 63q-71 -59 -171 -59q-101 0 -155 49t-54 142q0 52 21 98t69 90q-23 45 -36.5 88.5t-13.5 85.5q0 86 44.5 130.5t127.5 44.5q78 0 117.5 -38.5t39.5 -109.5q0 -28 -5.5 -54.5t-19 -53t-36.5 -53.5t-58 -56q25 -32 53.5 -63.5t59.5 -60.5 q20 50 30.5 115t10.5 142h122q0 -107 -17.5 -191t-49.5 -147q22 -17 43 -30t41 -24zM174 545q0 -46 31 -103q33 28 48 54.5t15 58.5q0 25 -12.5 38t-34.5 13q-20 0 -33.5 -14t-13.5 -47zM234 98q38 0 69 23q-36 33 -69.5 69.5t-62.5 74.5q-13 -18 -19.5 -38t-6.5 -44 q0 -39 23.5 -62t65.5 -23z" />
<glyph unicode="'" horiz-adv-x="184" d="M49 450l-13 264h112l-13 -264h-86z" />
<glyph unicode="(" horiz-adv-x="290" d="M270 -14l-26 -120q-221 39 -221 431t218 431l29 -120q-32 -9 -55.5 -29t-40 -56t-24.5 -91.5t-8 -134.5q0 -80 8 -135t24.5 -91t40 -56t55.5 -29z" />
<glyph unicode=")" horiz-adv-x="290" d="M17 -14q31 9 55 29t40.5 56t24.5 91t8 135q0 79 -8 134.5t-24.5 91.5t-40.5 56t-55 29l29 120q218 -39 218 -431t-221 -431z" />
<glyph unicode="*" horiz-adv-x="342" d="M116 347l-84 56l63 91l-84 35l38 98l72 -34l-6 121h111l-5 -121l74 34l36 -99l-83 -34l63 -91l-85 -56l-55 86z" />
<glyph unicode="+" horiz-adv-x="391" d="M241 124h-91v142h-110v89h110v143h91v-143h110v-89h-110v-142z" />
<glyph unicode="," horiz-adv-x="207" d="M54 -146l-32 58q28 12 47.5 33t25.5 50q-31 2 -49 21.5t-18 55.5q0 38 20 58.5t56 20.5q76 0 76 -94q0 -73 -32.5 -127.5t-93.5 -75.5z" />
<glyph unicode="-" horiz-adv-x="377" d="M337 325v-117h-298v117h298z" />
<glyph unicode="." horiz-adv-x="206" d="M103 -7q-36 0 -55.5 21t-19.5 58q0 38 19.5 58.5t55.5 20.5q37 0 56.5 -20.5t19.5 -58.5q0 -37 -19.5 -58t-56.5 -21z" />
<glyph unicode="/" horiz-adv-x="439" d="M436 700l-284 -700h-149l285 700h148z" />
<glyph unicode="0" d="M31 0zM31 350q0 187 56 275.5t181 88.5q123 0 180 -88.5t57 -275.5q0 -188 -57 -276t-180 -88q-125 0 -181 89.5t-56 274.5zM365 349q0 69 -6.5 116t-18.5 75.5t-30 41t-42 12.5t-42 -12.5t-30 -41t-18.5 -75t-6.5 -114.5q0 -70 6.5 -117t18.5 -75.5t30 -41t42 -12.5 t42 12t30 40.5t18.5 75.5t6.5 116z" />
<glyph unicode="1" d="M488 0h-441v124h154v396l-60 -47l-53 117l160 116h94v-582h146v-124z" />
<glyph unicode="2" d="M51 0zM77 0v103l196 273q31 44 45 77t14 60q0 38 -19 57t-51 19q-35 0 -60 -20t-42 -69l-109 45q29 92 87.5 130.5t136.5 38.5q91 0 143.5 -47.5t52.5 -135.5q0 -29 -6.5 -56t-19.5 -56t-33.5 -61.5t-48.5 -71.5l-119 -165l240 6v-127h-407z" />
<glyph unicode="3" d="M46 0zM257 103q38 0 61.5 25.5t23.5 74.5q0 47 -24 70.5t-65 23.5h-50v118h49q32 0 55.5 24t23.5 67q0 41 -22 64t-59 23t-58 -22.5t-33 -60.5l-108 43q24 86 79.5 123.5t136.5 37.5q101 0 152 -50.5t51 -132.5q0 -56 -22 -97t-64 -72q45 -20 70 -62.5t25 -105.5 q0 -46 -14 -84.5t-41.5 -66t-68 -43t-92.5 -15.5q-76 0 -133.5 35.5t-83.5 116.5l107 54q17 -50 43 -69t61 -19z" />
<glyph unicode="4" d="M24 0zM24 155v104l156 441h137l-153 -419h149v235h133v-235h66v-126h-66v-155h-133v155h-289z" />
<glyph unicode="5" d="M41 0zM255 -15q-77 0 -132.5 35.5t-81.5 116.5l107 54q17 -50 43 -69t61 -19q46 0 70 34t24 90q0 60 -24.5 87t-65.5 27q-27 0 -49 -12t-39 -34l-97 44l23 361h364v-121h-249l-10 -156q20 14 45.5 21t52.5 7q40 0 74.5 -13t59.5 -40t39 -69t14 -100q0 -53 -14.5 -97.5 t-43.5 -77t-72 -51t-99 -18.5z" />
<glyph unicode="6" d="M43 0zM281 -15q-116 0 -177 87.5t-61 275.5q0 183 61 274.5t192 91.5q76 0 123.5 -32.5t72.5 -98.5l-108 -56q-14 35 -34.5 53.5t-52.5 18.5q-28 0 -49.5 -12.5t-36.5 -42t-22.5 -77t-7.5 -116.5v-19q16 50 52 79t91 29q36 0 67 -14t53.5 -41.5t35 -68.5t12.5 -95 q0 -52 -13 -95t-39.5 -74.5t-66 -49t-92.5 -17.5zM277 101q36 0 57 29t21 87q0 56 -19 85.5t-57 29.5t-60 -31.5t-22 -85.5q0 -53 21 -83.5t59 -30.5z" />
<glyph unicode="7" d="M65 0zM155 0q0 96 13.5 182t36.5 159t55 132t70 101l-265 -3v129h406v-108q-81 -103 -123.5 -251t-37.5 -341h-155z" />
<glyph unicode="8" d="M51 0zM267 -14q-106 0 -161 55.5t-55 152.5q0 63 25.5 107.5t69.5 66.5q-34 23 -55 62t-21 89q0 94 51.5 144.5t145.5 50.5q95 0 146.5 -50.5t51.5 -144.5q0 -50 -21 -89t-55 -62q44 -22 69.5 -66t25.5 -108q0 -97 -55.5 -152.5t-161.5 -55.5zM341 513q0 37 -19 63.5 t-54 26.5q-37 0 -55.5 -26.5t-18.5 -63.5t19 -63.5t54 -26.5t54.5 26t19.5 64zM268 98q40 0 61 28t21 74q0 43 -21.5 72t-59.5 29q-42 0 -63 -29t-21 -72q0 -45 21.5 -73.5t61.5 -28.5z" />
<glyph unicode="9" d="M43 0zM259 599q-37 0 -57.5 -30t-20.5 -89q0 -57 19 -87t57 -30q37 0 59.5 32.5t22.5 86.5t-21.5 85.5t-58.5 31.5zM255 714q115 0 176.5 -87.5t61.5 -275.5q0 -183 -61.5 -274.5t-192.5 -91.5q-75 0 -122.5 32.5t-72.5 98.5l107 56q14 -35 35 -53t52 -18q28 0 50 12.5 t37 41t22.5 75.5t7.5 116v19q-16 -51 -52 -80.5t-91 -29.5q-37 0 -68 14t-53.5 41.5t-35 69t-12.5 96.5q0 52 13 96t39.5 75.5t66 49t93.5 17.5z" />
<glyph unicode=":" horiz-adv-x="206" d="M28 0zM103 -7q-36 0 -55.5 21t-19.5 58q0 38 19.5 58.5t55.5 20.5q37 0 56.5 -20.5t19.5 -58.5q0 -37 -19.5 -58t-56.5 -21zM103 337q-36 0 -55.5 21t-19.5 58q0 38 19.5 58.5t55.5 20.5q37 0 56.5 -20.5t19.5 -58.5q0 -37 -19.5 -58t-56.5 -21z" />
<glyph unicode=";" horiz-adv-x="207" d="M22 0zM54 -146l-32 58q28 12 47.5 33t25.5 50q-31 2 -49 21.5t-18 55.5q0 38 20 58.5t56 20.5q76 0 76 -94q0 -73 -32.5 -127.5t-93.5 -75.5zM104 337q-36 0 -55.5 21t-19.5 58q0 38 19.5 58.5t55.5 20.5q37 0 56.5 -20.5t19.5 -58.5q0 -37 -19.5 -58t-56.5 -21z" />
<glyph unicode="&#x3c;" horiz-adv-x="386" d="M273 538l54 -74l-164 -153l166 -153l-56 -78l-215 200v58z" />
<glyph unicode="=" horiz-adv-x="391" d="M351 429v-91h-311v91h311zM351 281v-91h-311v91h311z" />
<glyph unicode="&#x3e;" horiz-adv-x="386" d="M113 80l-53 73l164 153l-166 154l56 78l214 -200v-58z" />
<glyph unicode="?" horiz-adv-x="414" d="M149 214l-7 174h40q43 0 69 28t26 85q0 51 -22.5 77t-64.5 26q-76 0 -98 -89l-99 43q10 45 29.5 76t47 49.5t61 27t71.5 8.5q99 0 148.5 -55t49.5 -156q0 -46 -11 -81.5t-30.5 -61.5t-45.5 -42.5t-56 -23.5l-8 -85h-100zM195 -7q-35 0 -54.5 21t-19.5 58q0 38 19.5 58.5 t54.5 20.5q38 0 57.5 -20.5t19.5 -58.5q0 -37 -19.5 -58t-57.5 -21z" />
<glyph unicode="@" horiz-adv-x="623" d="M316 -104q-65 0 -116.5 24.5t-88 69.5t-56 109t-19.5 143q0 80 19.5 144.5t55.5 109.5t88 69t117 24q64 0 114.5 -22t85 -63t52.5 -99t18 -129q0 -95 -36 -147t-101 -52q-59 0 -84 48q-35 -54 -91 -54q-40 0 -65 25.5t-25 70.5q0 27 10 48.5t28 36t42.5 22.5t52.5 8h31 q-1 40 -18.5 53.5t-35.5 13.5q-38 0 -56 -43l-57 45q16 34 47 54t82 20q57 0 91.5 -33.5t34.5 -108.5v-101q0 -26 7.5 -39t27.5 -13q26 0 45.5 36t19.5 109q0 67 -17 117.5t-46.5 84t-69.5 50t-87 16.5q-49 0 -91 -19t-73 -56.5t-48.5 -94t-17.5 -131.5q0 -76 18 -132.5 t49.5 -94t73 -56t89.5 -18.5q54 0 97 18.5t74 61.5l36 -29q-35 -49 -87 -72.5t-120 -23.5zM296 136q23 0 37.5 19.5t14.5 54.5v17h-21q-31 0 -47.5 -15.5t-16.5 -38.5q0 -17 9 -27t24 -10z" />
<glyph unicode="A" horiz-adv-x="544" d="M270 533l-66 -301h132zM388 0l-26 116h-184l-26 -116h-144l179 700h171l178 -700h-148z" />
<glyph unicode="B" horiz-adv-x="542" d="M64 0v700h255q46 0 80 -14t56 -38.5t33 -57.5t11 -71q0 -57 -22 -96t-57 -60q48 -17 70.5 -62t22.5 -100q0 -99 -50.5 -150t-148.5 -51h-250zM284 582h-82v-172h81q40 0 60 25t20 62q0 42 -22.5 63.5t-56.5 21.5zM289 295h-87v-179h85q42 0 64 22t22 70q0 41 -21 64 t-63 23z" />
<glyph unicode="C" horiz-adv-x="549" d="M301 -14q-135 0 -197.5 88t-62.5 277q0 191 65.5 277t199.5 86q42 0 77.5 -9.5t64 -32t49.5 -59t34 -91.5l-122 -41q-14 58 -39.5 80.5t-64.5 22.5q-29 0 -51 -11t-37.5 -38t-23.5 -72t-8 -114q0 -68 8 -113.5t23.5 -73t38 -39t51.5 -11.5q39 0 67 25.5t43 84.5l121 -48 q-26 -97 -85.5 -142.5t-150.5 -45.5z" />
<glyph unicode="D" horiz-adv-x="586" d="M266 0h-202v700h212q136 0 202.5 -83.5t66.5 -261.5q0 -177 -68.5 -266t-210.5 -89zM264 125q32 0 57.5 11.5t43.5 38.5t27.5 70t9.5 106q0 120 -32 172.5t-94 52.5h-69v-451h57z" />
<glyph unicode="E" horiz-adv-x="518" d="M64 0v700h419v-122h-281v-164h239v-125h-239v-167h279v-122h-417z" />
<glyph unicode="F" horiz-adv-x="485" d="M64 0v700h406v-126h-263v-170h227v-130h-227v-274h-143z" />
<glyph unicode="G" horiz-adv-x="579" d="M279 -14q-111 0 -174.5 89.5t-63.5 275.5q0 95 16.5 163.5t49.5 113t82.5 65.5t116.5 21q42 0 78.5 -9.5t65.5 -31t49.5 -56.5t32.5 -87l-123 -43q-15 56 -41 77t-63 21q-30 0 -52.5 -11t-37.5 -38t-23 -72.5t-8 -113.5q0 -69 8.5 -115.5t24 -75t38.5 -40.5t53 -12 q18 0 35 7t30.5 23.5t22.5 42.5t10 65v14h-99v116h227v-375h-95l-12 78q-21 -45 -59 -68.5t-89 -23.5z" />
<glyph unicode="H" horiz-adv-x="618" d="M411 0v284h-204v-284h-143v700h143v-284h204v284h143v-700h-143z" />
<glyph unicode="I" horiz-adv-x="270" d="M64 0v700h143v-700h-143z" />
<glyph unicode="J" horiz-adv-x="426" d="M373 250q0 -74 -16.5 -124t-45.5 -81.5t-70 -45t-89 -13.5q-38 0 -80.5 13t-75.5 46l63 105q20 -18 42 -27t44 -9q39 0 62 30t23 102v454h143v-450z" />
<glyph unicode="K" horiz-adv-x="558" d="M208 188v-188h-144v700h144l-2 -312l183 312h162l-196 -293l200 -407h-168l-126 268z" />
<glyph unicode="L" horiz-adv-x="493" d="M208 129h264v-129h-408v700h144v-571z" />
<glyph unicode="M" horiz-adv-x="750" d="M315 0l-129 424l6 -424h-128v700h160l150 -500l147 500h166v-700h-134l6 433l-131 -433h-113z" />
<glyph unicode="N" horiz-adv-x="613" d="M424 0l-230 401l3 -401h-133v700h113l244 -420l-4 420h133v-700h-126z" />
<glyph unicode="O" horiz-adv-x="608" d="M303 -14q-139 0 -200.5 90t-61.5 275t64 274t200 89q140 0 201.5 -89t61.5 -275t-64.5 -275t-200.5 -89zM305 585q-30 0 -52.5 -11.5t-37.5 -39.5t-22.5 -73.5t-7.5 -112.5q0 -66 7.5 -111.5t22.5 -73t37.5 -40t52.5 -12.5t52 12t36.5 39.5t22 73.5t7.5 114 q0 66 -7.5 111t-22 72.5t-36.5 39.5t-52 12z" />
<glyph unicode="P" horiz-adv-x="542" d="M64 0v700h244q51 0 90 -17t64.5 -48.5t38.5 -75t13 -97.5q0 -62 -16 -109t-45.5 -79t-70.5 -48t-91 -16h-84v-210h-143zM282 570h-75v-233h76q42 0 65.5 30.5t23.5 89.5q0 54 -21.5 83.5t-68.5 29.5z" />
<glyph unicode="Q" horiz-adv-x="608" d="M303 -14q-139 0 -200.5 90t-61.5 275t64 274t200 89q140 0 201.5 -89t61.5 -275q0 -114 -23.5 -190.5t-73.5 -118.5l65 -129h-123l-41 81q-29 -7 -69 -7zM304 585q-30 0 -52 -11.5t-37 -39.5t-22.5 -73.5t-7.5 -112.5q0 -66 7.5 -111.5t22.5 -73t37 -40t52 -12.5h9 l-58 114h123l22 -44q22 54 22 169q0 66 -7.5 111t-22 72.5t-36.5 39.5t-52 12z" />
<glyph unicode="R" horiz-adv-x="550" d="M288 575h-83v-216h83q42 0 66 27.5t24 82.5q0 51 -22 78.5t-68 27.5zM205 235v-235h-141v700h249q52 0 91 -16t65 -46t38.5 -72.5t12.5 -94.5q0 -72 -24.5 -122t-70.5 -77l98 -272h-153l-79 235h-86z" />
<glyph unicode="S" horiz-adv-x="491" d="M458 539l-120 -47q-14 50 -39 73t-63 23q-34 0 -54 -18t-20 -47q0 -30 21 -51t66 -40l41 -17q88 -36 131 -88t43 -133q0 -96 -58 -152t-166 -56q-91 0 -151 40.5t-86 135.5l120 49q29 -104 117 -104q38 0 59.5 22t21.5 52t-17.5 49.5t-61.5 37.5l-40 17q-49 21 -82.5 45 t-54.5 52t-30.5 60t-9.5 68q0 43 13.5 80.5t40.5 65t66.5 43t91.5 15.5q92 0 148.5 -47t72.5 -128z" />
<glyph unicode="T" horiz-adv-x="487" d="M13 700h461v-131h-160v-569h-143v569h-158v131z" />
<glyph unicode="U" horiz-adv-x="588" d="M394 237v463h143v-454q0 -130 -64 -195t-178 -65q-115 0 -178.5 65t-63.5 195v454h143v-463q0 -61 26 -90t73 -29q46 0 72.5 29t26.5 90z" />
<glyph unicode="V" horiz-adv-x="541" d="M273 177l117 523h144l-181 -700h-167l-179 700h147z" />
<glyph unicode="W" horiz-adv-x="753" d="M306 699h144l81 -475l79 476h136l-146 -700h-149l-75 471l-73 -471h-149l-147 700h141l82 -475z" />
<glyph unicode="X" horiz-adv-x="548" d="M375 0l-108 224l-103 -224h-157l183 353l-175 347h167l98 -219l95 219h157l-175 -344l185 -356h-167z" />
<glyph unicode="Y" horiz-adv-x="541" d="M199 263l-192 437h155l111 -296l113 296h148l-192 -440v-260h-143v263z" />
<glyph unicode="Z" horiz-adv-x="479" d="M17 0v98l271 479l-261 -3v126h426v-97l-269 -480l275 3v-126h-442z" />
<glyph unicode="[" horiz-adv-x="283" d="M48 -121v837h211v-108h-87v-620h89v-109h-213z" />
<glyph unicode="\" horiz-adv-x="444" d="M286 0l-283 700h149l283 -700h-149z" />
<glyph unicode="]" horiz-adv-x="283" d="M19 -121v109h89v620h-87v108h211v-837h-213z" />
<glyph unicode="^" horiz-adv-x="389" d="M132 700h126l110 -329v-3h-111l-65 219l-64 -219h-107v3z" />
<glyph unicode="_" horiz-adv-x="366" d="M369 0v-112h-372v112h372z" />
<glyph unicode="`" horiz-adv-x="459" d="M190 571l-102 125v7h147l61 -127v-5h-106z" />
<glyph unicode="a" horiz-adv-x="449" d="M198 85q32 0 52.5 28t20.5 80v15h-29q-45 0 -69 -20t-24 -50q0 -25 13 -39t36 -14zM290 0l-8 74q-18 -39 -50.5 -63t-74.5 -24q-59 0 -93.5 37t-34.5 104q0 41 15.5 73t42 53.5t62.5 33t78 11.5h44v5q-1 26 -7.5 43t-16.5 27.5t-23 14.5t-26 4q-28 0 -49 -13t-33 -42 l-88 64q24 51 70 79.5t117 28.5q43 0 77.5 -11t59.5 -36t38.5 -65t13.5 -98v-300h-114z" />
<glyph unicode="b" horiz-adv-x="490" d="M289 -14q-83 0 -129 81l-7 -67h-103v700h137v-264q21 36 52.5 55t68.5 19q70 0 111 -63.5t41 -191.5q0 -125 -43 -197t-128 -72zM185 245q0 -78 19 -112.5t52 -34.5q36 0 54 36t18 112q0 80 -18.5 115t-50.5 35q-34 0 -54 -35t-20 -116z" />
<glyph unicode="c" horiz-adv-x="422" d="M232 -14q-46 0 -83.5 15t-63.5 46.5t-40.5 81.5t-14.5 119q0 137 54.5 199.5t151.5 62.5q68 0 111 -35t62 -109l-110 -45q-11 37 -25.5 53t-37.5 16q-19 0 -33 -7t-23.5 -23.5t-14.5 -44t-5 -68.5q0 -73 16.5 -107.5t58.5 -34.5q24 0 40.5 16.5t27.5 54.5l106 -47 q-20 -72 -62.5 -107.5t-114.5 -35.5z" />
<glyph unicode="d" horiz-adv-x="489" d="M305 245q0 82 -19.5 117.5t-52.5 35.5q-35 0 -52.5 -36.5t-17.5 -114.5q0 -76 17.5 -112t52.5 -36q32 0 52 35t20 111zM329 0l-10 75q-22 -43 -52 -66t-77 -23q-71 0 -115.5 65t-44.5 192q0 132 46.5 199.5t120.5 67.5q35 0 61 -18.5t46 -51.5v260h137v-700h-112z" />
<glyph unicode="e" horiz-adv-x="444" d="M232 -14q-45 0 -82 15.5t-64 48t-41.5 81.5t-14.5 115q0 125 52.5 194.5t148.5 69.5q48 0 83 -19.5t57.5 -53t33 -79.5t10.5 -98q0 -30 -3 -58h-252q4 -55 25.5 -78t58.5 -23q54 0 71 58l99 -46q-11 -28 -27 -51.5t-37.5 -40t-50.5 -26t-67 -9.5zM230 393 q-30 0 -49.5 -22t-21.5 -73h132q0 48 -16 71.5t-45 23.5z" />
<glyph unicode="f" horiz-adv-x="315" d="M305 385h-96v-385h-136v385h-59v111h59v46q0 48 12.5 83.5t35 59t52 34.5t64.5 11q29 0 54 -7t42 -19l-34 -103q-8 6 -18.5 8t-21.5 2q-22 0 -36 -14.5t-14 -51.5v-49h96v-111z" />
<glyph unicode="g" horiz-adv-x="489" d="M305 257q0 70 -20 105t-52 35q-35 0 -53 -34t-18 -107q0 -74 18.5 -109t50.5 -35q35 0 54.5 36.5t19.5 108.5zM220 -220q-79 0 -127 31.5t-72 93.5l107 58q23 -71 86 -71q89 0 89 127v63q-17 -37 -46.5 -57t-67.5 -20q-70 0 -114.5 61t-44.5 188q0 128 47.5 192t127.5 64 q75 0 116 -82l8 68h111v-462q0 -128 -59 -191t-161 -63z" />
<glyph unicode="h" horiz-adv-x="499" d="M317 284q0 54 -15 75.5t-42 21.5q-33 0 -52.5 -33.5t-20.5 -99.5v-248h-137v700h137v-295q20 53 54.5 79t76.5 26q70 0 103 -52.5t33 -138.5v-319h-137v284z" />
<glyph unicode="i" horiz-adv-x="236" d="M40 648q0 39 20.5 59t57.5 20t57.5 -20t20.5 -59q0 -38 -20.5 -59t-57.5 -21t-57.5 21t-20.5 59zM50 496h137v-496h-137v496z" />
<glyph unicode="j" horiz-adv-x="236" d="M118 568q-37 0 -57.5 21t-20.5 59q0 39 20.5 59t57.5 20t57.5 -20t20.5 -59q0 -38 -20.5 -59t-57.5 -21zM50 -27v523h137v-533q0 -94 -43.5 -138.5t-111.5 -44.5q-33 0 -57.5 6.5t-46.5 19.5l33 104q16 -12 39 -12q24 0 37 16.5t13 58.5z" />
<glyph unicode="k" horiz-adv-x="463" d="M185 110v-110h-135v700h137l-5 -430l127 226h146l-144 -214l147 -282h-151l-80 173z" />
<glyph unicode="l" horiz-adv-x="252" d="M174 0q-58 0 -92 30t-34 104v566h137v-555q0 -20 8.5 -30t20.5 -10h29v-105h-69z" />
<glyph unicode="m" horiz-adv-x="733" d="M300 0v286q0 51 -12.5 72.5t-36.5 21.5q-29 0 -46 -30t-18 -93v-257h-137v496h112l11 -87q22 53 55.5 77t74.5 24q48 0 75 -30.5t40 -76.5q20 55 54.5 81t78.5 26q72 0 104.5 -51.5t32.5 -136.5v-322h-137v289q0 50 -12.5 70.5t-35.5 20.5q-29 0 -46.5 -28t-19.5 -86 v-266h-137z" />
<glyph unicode="n" horiz-adv-x="499" d="M50 496h113l11 -91q22 54 57.5 79.5t81.5 25.5q37 0 63.5 -13.5t44 -38.5t25.5 -60.5t8 -78.5v-319h-137v286q0 53 -15 74t-42 21q-32 0 -52.5 -33.5t-20.5 -99.5v-248h-137v496z" />
<glyph unicode="o" horiz-adv-x="470" d="M30 249q0 134 55 197.5t150 63.5q103 0 154 -62.5t51 -198.5q0 -132 -52.5 -197.5t-152.5 -65.5q-103 0 -154 64.5t-51 198.5zM309 248q0 77 -17.5 110t-57.5 33t-57 -33t-17 -110t18 -110.5t56 -33.5t56.5 33.5t18.5 110.5z" />
<glyph unicode="p" horiz-adv-x="490" d="M185 246q0 -78 20 -113t51 -35q36 0 54 36t18 113q0 79 -18 114t-52 35q-32 0 -52.5 -34.5t-20.5 -115.5zM163 496l11 -80q23 48 57 71t76 23q73 0 113 -65t40 -190q0 -62 -10.5 -111.5t-32 -84.5t-54 -54t-76.5 -19q-62 0 -100 58v-231h-137v683h113z" />
<glyph unicode="q" horiz-adv-x="489" d="M199 510q38 0 70.5 -20t51.5 -60l9 66h111v-682h-138v241q-20 -35 -49.5 -52t-63.5 -17q-73 0 -116.5 64t-43.5 193q0 136 46 201.5t123 65.5zM305 247q0 81 -20 116t-51 35q-35 0 -53.5 -35t-18.5 -116q0 -76 17.5 -112t51.5 -36q33 0 53.5 36t20.5 112z" />
<glyph unicode="r" horiz-adv-x="325" d="M50 0v496h112l12 -99q20 57 55 86.5t81 27.5l1 -143q-63 6 -93.5 -39t-30.5 -127v-202h-137z" />
<glyph unicode="s" horiz-adv-x="389" d="M189 89q26 0 40 10.5t14 28.5q0 19 -14 30.5t-43 22.5l-28 11q-62 24 -97.5 63t-35.5 104q0 66 45 109t127 43q69 0 111 -31t62 -89l-98 -48q-8 29 -28.5 44t-46.5 15q-21 0 -36 -9t-15 -30q0 -15 11.5 -26.5t42.5 -23.5l37 -14q64 -24 98 -61.5t34 -98.5 q0 -31 -11 -58.5t-33 -48.5t-55.5 -33t-78.5 -12q-80 0 -124.5 31.5t-61.5 87.5l96 48q20 -65 88 -65z" />
<glyph unicode="t" horiz-adv-x="327" d="M315 15q-17 -13 -43 -21t-56 -8q-66 0 -107.5 37t-41.5 118v244h-56v111h56v142h136v-142h98v-111h-98v-224q0 -34 13 -48t33 -14q11 0 22.5 3t20.5 11z" />
<glyph unicode="u" horiz-adv-x="496" d="M447 0h-113l-10 84q-21 -50 -56 -74t-77 -24q-39 0 -66.5 14t-45 39t-25.5 59.5t-8 75.5v322h138v-293q0 -50 14 -72t43 -22t48 31t20 97v259h138v-496z" />
<glyph unicode="v" horiz-adv-x="448" d="M7 496h144l75 -336l76 336h139l-147 -496h-140z" />
<glyph unicode="w" horiz-adv-x="622" d="M253 494h122l60 -312l53 314h124l-116 -496h-129l-56 312l-55 -312h-129l-117 496h129l55 -312z" />
<glyph unicode="x" horiz-adv-x="448" d="M286 0l-68 151l-69 -151h-146l140 252l-132 244h159l59 -148l60 148h146l-133 -246l143 -250h-159z" />
<glyph unicode="y" horiz-adv-x="450" d="M147 -44l9 40l-149 500h144l76 -333l76 333h140l-176 -588q-11 -37 -27 -61.5t-36.5 -39.5t-45.5 -21t-53 -6q-31 0 -53 5t-44 16l23 107q17 -8 32 -11.5t24 -3.5q26 0 39 14t21 49z" />
<glyph unicode="z" horiz-adv-x="392" d="M22 0v89l191 296h-188v111h337v-93l-188 -292h196v-111h-348z" />
<glyph unicode="{" horiz-adv-x="309" d="M258 -132q-34 2 -62.5 13t-49.5 30.5t-33 48.5t-12 67q0 35 4 64t4 60q0 48 -20.5 70.5t-62.5 22.5h-16v107h16q42 0 62.5 22t20.5 72q0 30 -4 59.5t-4 64.5q0 38 12 66.5t33 48.5t49.5 31t62.5 13l28 -116q-35 -3 -53.5 -22t-18.5 -60q0 -28 4 -54t4 -55 q0 -43 -18 -73.5t-50 -50.5q32 -19 49.5 -49.5t17.5 -72.5q0 -29 -3.5 -55.5t-3.5 -53.5q0 -40 18.5 -59.5t53.5 -21.5z" />
<glyph unicode="|" horiz-adv-x="247" d="M62 -65v831h123v-831h-123z" />
<glyph unicode="}" horiz-adv-x="308" d="M18 -15q35 2 53.5 21.5t18.5 59.5q0 27 -3.5 53.5t-3.5 55.5q0 42 17.5 72.5t49.5 49.5q-32 20 -50 50.5t-18 73.5q0 29 4 55t4 54q0 41 -18.5 60t-53.5 22l28 116q34 -2 62.5 -13t49.5 -31t33 -48.5t12 -66.5q0 -35 -4 -64.5t-4 -59.5q0 -50 20.5 -72t62.5 -22h16v-107 h-16q-42 0 -62.5 -22.5t-20.5 -70.5q0 -31 4 -60t4 -64q0 -38 -12 -67t-33 -48.5t-49.5 -30.5t-62.5 -13z" />
<glyph unicode="~" horiz-adv-x="437" d="M325 424l91 -16q-5 -78 -37 -117t-81 -39q-23 0 -44 10t-40 21q-17 10 -32.5 18.5t-32.5 8.5q-15 0 -25 -13t-12 -43l-91 16q5 78 37.5 116.5t82.5 38.5q23 0 44 -9.5t39 -21.5q17 -10 33 -18t31 -8t25 13t12 43z" />
<glyph unicode="&#xa1;" horiz-adv-x="204" d="M29 -193l21 486h97l20 -486h-138zM98 514q36 0 56 -21t20 -58q0 -38 -20 -58.5t-56 -20.5t-55.5 20.5t-19.5 58.5q0 37 19.5 58t55.5 21z" />
<glyph unicode="&#xa2;" horiz-adv-x="416" d="M397 136q-20 -50 -53.5 -84.5t-91.5 -42.5v-71h-63v70q-76 10 -120 69t-44 181q0 118 43 178t121 71v72h63v-71q111 -14 143 -130l-93 -48q-15 50 -50 62v-274q39 14 54 65zM135 256q0 -58 13 -90.5t41 -44.5v270q-27 -11 -40.5 -42.5t-13.5 -92.5z" />
<glyph unicode="&#xa3;" horiz-adv-x="480" d="M480 87q-28 -48 -70 -67.5t-102 -19.5h-284v117h23q20 0 27 25.5t5 68.5l-1 78h-54v98h51l-3 99q-2 66 15 110t45 70.5t64.5 37t74.5 10.5q79 0 126 -36t72 -111l-106 -53q-14 38 -34 57.5t-51 19.5q-75 0 -70 -117l2 -87h114v-98h-110l2 -74q0 -29 -3 -55t-12 -43h109 q27 0 51.5 13.5t42.5 43.5z" />
<glyph unicode="&#xa5;" horiz-adv-x="541" d="M478 209h-136v-209h-144v209h-134v81h121l-20 46h-101v81h66l-123 283h160l109 -299l106 299h152l-124 -283h68v-81h-103l-19 -46h122v-81z" />
<glyph unicode="&#xa6;" horiz-adv-x="247" d="M62 384v382h123v-382h-123zM62 -65v383h123v-383h-123z" />
<glyph unicode="&#xa7;" horiz-adv-x="397" d="M137 348q0 -23 10.5 -37.5t34.5 -24.5l14 -6q12 -5 23 -3.5t20 8.5t14 19t5 27q0 24 -9.5 38t-33.5 24l-15 6q-25 10 -44 -4.5t-19 -46.5zM191 -31q-74 0 -115 31.5t-61 82.5l88 46q24 -68 82 -68q30 0 43.5 13t13.5 36q0 24 -12 37.5t-42 22.5l-28 10q-55 18 -90 55 t-35 100q0 36 15 66t41 48q-22 22 -34 50t-12 63q0 31 10 59t30 48t49 32t67 12q63 0 104 -26t64 -83l-92 -47q-8 28 -27 43.5t-46 15.5q-25 0 -39 -12.5t-14 -35.5q0 -20 11 -35t44 -26l39 -13q63 -20 91 -55t28 -92q0 -34 -15 -65t-46 -50q28 -21 40 -48.5t12 -64.5 q0 -29 -9 -56t-29 -48t-51 -33.5t-75 -12.5z" />
<glyph unicode="&#xa8;" horiz-adv-x="459" d="M255 646q0 34 18 52t51 18q71 0 71 -70q0 -74 -71 -74q-33 0 -51 19t-18 55zM74 646q0 34 18.5 52t51.5 18q70 0 70 -70q0 -74 -70 -74q-33 0 -51.5 19t-18.5 55z" />
<glyph unicode="&#xa9;" horiz-adv-x="638" d="M39 350q0 82 19.5 146.5t56 109t88.5 68t116 23.5t115.5 -23.5t87.5 -68t55.5 -109t19.5 -146.5t-19.5 -146.5t-55.5 -109t-87.5 -68t-115.5 -23.5t-116 23.5t-88.5 68t-56 109t-19.5 146.5zM90 350q0 -76 17.5 -132.5t48.5 -94t73 -56t90 -18.5q49 0 90.5 18.5t72 56 t48 94t17.5 132.5t-17.5 132.5t-48 94t-72 56t-90.5 18.5q-48 0 -90 -18.5t-73 -56t-48.5 -94t-17.5 -132.5zM457 272q-20 -55 -53.5 -80.5t-81.5 -25.5q-32 0 -59 10t-46.5 32.5t-30.5 58.5t-11 88q0 101 41.5 145.5t110.5 44.5q48 0 79 -23t49 -73l-78 -42q-15 52 -53 52 q-27 0 -42 -22.5t-15 -83.5q0 -59 16 -80.5t43 -21.5q41 0 55 53z" />
<glyph unicode="&#xaa;" horiz-adv-x="321" d="M145 411q23 0 35.5 23t12.5 63v8h-32q-22 0 -36.5 -14.5t-14.5 -37.5q0 -20 9 -31t26 -11zM200 403q-13 -29 -34.5 -45t-53.5 -16q-39 0 -65 25.5t-26 75.5q0 27 10 49.5t27.5 38t41 24t50.5 8.5h43q-1 41 -17 54.5t-39 13.5q-25 0 -43 -11t-31 -31l-45 59q46 66 139 66 q28 0 52.5 -7.5t42.5 -25.5t28.5 -47t10.5 -72v-211h-85z" />
<glyph unicode="&#xab;" horiz-adv-x="539" d="M179 0l-150 246v3l149 247h134l-151 -246l154 -250h-136zM382 0l-156 248v3l150 245h134l-151 -244l159 -252h-136z" />
<glyph unicode="&#xad;" horiz-adv-x="316" d="M277 325v-117h-238v117h238z" />
<glyph unicode="&#xae;" horiz-adv-x="362" d="M181 333q-72 0 -113.5 51.5t-41.5 139.5q0 87 41.5 139t113.5 52q36 0 64.5 -13.5t49 -38.5t31 -60.5t10.5 -78.5q0 -87 -41.5 -139t-113.5 -52zM181 361q51 0 87.5 40.5t36.5 122.5q0 40 -10 70.5t-26.5 51t-39.5 31t-48 10.5q-52 0 -88 -41t-36 -122q0 -82 36 -122.5 t88 -40.5zM180 581h-19v-52h19q24 0 24 26t-24 26zM118 432v190h70q28 0 43.5 -18t15.5 -50q0 -38 -25 -55l27 -67h-48l-18 56h-22v-56h-43z" />
<glyph unicode="&#xaf;" horiz-adv-x="459" d="M338 675v-85h-228v85h228z" />
<glyph unicode="&#xb0;" horiz-adv-x="361" d="M181 351q-70 0 -108.5 50t-38.5 131q0 82 38.5 131.5t108.5 49.5q69 0 107.5 -49.5t38.5 -131.5q0 -81 -38.5 -131t-107.5 -50zM181 632q-30 0 -48.5 -25t-18.5 -75t18.5 -75t48.5 -25q28 0 47 25t19 75t-19 75t-47 25z" />
<glyph unicode="&#xb1;" horiz-adv-x="391" d="M241 155h-91v129h-110v88h110v131h91v-131h110v-88h-110v-129zM351 88v-88h-311v88h311z" />
<glyph unicode="&#xb2;" horiz-adv-x="287" d="M3 294zM20 294v68l117 158q32 44 32 70q0 39 -36 39q-18 0 -31 -10.5t-23 -36.5l-76 30q17 55 53.5 79t86.5 24q57 0 90.5 -29t33.5 -83q0 -36 -17 -68.5t-52 -80.5l-56 -77l130 4v-87h-252z" />
<glyph unicode="&#xb3;" horiz-adv-x="297" d="M7 285zM144 285q-48 0 -83.5 21t-53.5 71l72 37q11 -29 25.5 -39t33.5 -10q43 0 43 49q0 24 -13 37t-35 13h-29v75h29q18 0 30 12.5t12 34.5t-11 33.5t-31 11.5q-37 0 -49 -43l-73 30q14 51 48.5 74t86.5 23q63 0 95.5 -31t32.5 -79q0 -33 -13.5 -56.5t-39.5 -43.5 q26 -13 41.5 -37.5t15.5 -59.5q0 -56 -35.5 -89.5t-98.5 -33.5z" />
<glyph unicode="&#xb4;" horiz-adv-x="459" d="M364 696l-101 -125h-104v5l63 127h142v-7z" />
<glyph unicode="&#xb6;" horiz-adv-x="539" d="M324 333h42v240h-42v-240zM138 457q0 -58 21.5 -91t59.5 -33h1v240h-1q-42 0 -61.5 -33t-19.5 -83zM324 210v-210h-104v211q-42 4 -77.5 22t-61 49t-39.5 74.5t-14 99.5q0 115 54.5 179.5t149.5 64.5h239v-700h-105v210h-42z" />
<glyph unicode="&#xb7;" horiz-adv-x="204" d="M28 259zM103 259q-36 0 -55.5 21t-19.5 58q0 38 19.5 58.5t55.5 20.5q37 0 56.5 -20.5t19.5 -58.5q0 -37 -19.5 -58t-56.5 -21z" />
<glyph unicode="&#xb8;" horiz-adv-x="459" d="M243 -249q-38 0 -72 17t-51 59l59 39q20 -42 58 -42q17 0 28.5 9.5t11.5 27.5q0 17 -10.5 27t-28.5 10q-7 0 -17 -2l-20 14l22 90h67l-14 -51h1q31 -2 55.5 -24.5t24.5 -65.5q0 -28 -9 -48t-24.5 -33.5t-36.5 -20t-44 -6.5z" />
<glyph unicode="&#xb9;" horiz-adv-x="211" d="M5 294zM175 294h-99v291l-34 -25l-37 81l103 70h67v-417z" />
<glyph unicode="&#xba;" horiz-adv-x="338" d="M22 528q0 97 39 141.5t108 44.5q73 0 109.5 -44.5t36.5 -141.5q0 -94 -37 -140.5t-109 -46.5q-73 0 -110 45.5t-37 141.5zM221 528q0 55 -12.5 79t-39.5 24q-28 0 -40 -24t-12 -79q0 -57 12.5 -81.5t39.5 -24.5q26 0 39 24.5t13 81.5z" />
<glyph unicode="&#xbb;" horiz-adv-x="539" d="M357 496l150 -246v-3l-149 -247h-134l151 246l-154 250h136zM154 496l156 -248v-3l-150 -245h-134l151 244l-159 252h136z" />
<glyph unicode="&#xbc;" horiz-adv-x="712" d="M5 0zM175 293h-99v291l-34 -25l-37 81l103 70h67v-417zM502 700l-265 -700h-115l266 700h114zM395 85v72l90 255h96l-89 -241h78v119h92v-119h37v-86h-37v-85h-92v85h-175z" />
<glyph unicode="&#xbd;" horiz-adv-x="718" d="M5 0zM440 0v68l117 158q32 44 32 70q0 39 -36 39q-18 0 -31 -10.5t-23 -36.5l-76 30q17 55 53.5 79t86.5 24q57 0 90.5 -29t33.5 -83q0 -36 -17 -68.5t-52 -80.5l-56 -77l130 4v-87h-252zM175 293h-99v291l-34 -25l-37 81l103 70h67v-417zM502 700l-265 -700h-115 l266 700h114z" />
<glyph unicode="&#xbe;" horiz-adv-x="775" d="M7 0zM144 284q-48 0 -83.5 21t-53.5 71l72 37q11 -29 25.5 -39t33.5 -10q43 0 43 49q0 24 -13 37t-35 13h-29v75h29q18 0 30 12.5t12 34.5t-11 33.5t-31 11.5q-37 0 -49 -43l-73 30q14 51 48.5 74t86.5 23q63 0 95.5 -31t32.5 -79q0 -33 -13.5 -56.5t-39.5 -43.5 q26 -13 41.5 -37.5t15.5 -59.5q0 -56 -35.5 -89.5t-98.5 -33.5zM572 700l-265 -700h-115l266 700h114zM458 85v72l90 255h96l-89 -241h78v119h92v-119h37v-86h-37v-85h-92v85h-175z" />
<glyph unicode="&#xbf;" horiz-adv-x="406" d="M248 292l7 -174h-40q-43 0 -69 -28t-26 -85q0 -51 22.5 -77t64.5 -26q76 0 98 89l99 -43q-10 -45 -29.5 -76t-47 -49.5t-61.5 -27t-71 -8.5q-99 0 -148.5 55t-49.5 156q0 46 11 81.5t30.5 61.5t45.5 42t56 24l8 85h100zM202 513q35 0 54.5 -21t19.5 -58 q0 -38 -19.5 -58.5t-54.5 -20.5q-38 0 -57.5 20.5t-19.5 58.5q0 37 19.5 58t57.5 21z" />
<glyph unicode="&#xc0;" horiz-adv-x="544" d="M8 0zM270 533l-66 -301h132zM388 0l-26 116h-184l-26 -116h-144l179 700h171l178 -700h-148zM229 776l-102 125v7h147l61 -127v-5h-106z" />
<glyph unicode="&#xc1;" horiz-adv-x="544" d="M8 0zM270 533l-66 -301h132zM388 0l-26 116h-184l-26 -116h-144l179 700h171l178 -700h-148zM415 900l-101 -125h-104v5l63 127h142v-7z" />
<glyph unicode="&#xc2;" horiz-adv-x="544" d="M8 0zM270 533l-66 -301h132zM388 0l-26 116h-184l-26 -116h-144l179 700h171l178 -700h-148zM269 834l-43 -59h-103v4l94 128h111l95 -128v-4h-108z" />
<glyph unicode="&#xc3;" horiz-adv-x="544" d="M8 0zM270 533l-66 -301h132zM388 0l-26 116h-184l-26 -116h-144l179 700h171l178 -700h-148zM337 902h78q2 -34 -4.5 -57t-18.5 -37t-27 -20t-30 -6q-18 0 -32.5 5.5t-27.5 12t-24.5 12t-22.5 5.5q-13 0 -17 -10.5t-4 -23.5h-78q-2 34 4.5 57.5t18 37t26.5 19.5t30 6 q18 0 33 -5.5t28 -12t24.5 -12t22.5 -5.5q14 0 17.5 10t3.5 24z" />
<glyph unicode="&#xc4;" horiz-adv-x="544" d="M8 0zM270 533l-66 -301h132zM388 0l-26 116h-184l-26 -116h-144l179 700h171l178 -700h-148zM298 850q0 34 18 52t51 18q71 0 71 -70q0 -74 -71 -74q-33 0 -51 19t-18 55zM117 850q0 34 18.5 52t51.5 18q70 0 70 -70q0 -74 -70 -74q-33 0 -51.5 19t-18.5 55z" />
<glyph unicode="&#xc5;" horiz-adv-x="544" d="M8 0zM270 533l-66 -301h132zM388 0l-26 116h-184l-26 -116h-144l179 700h171l178 -700h-148zM174 857q0 48 27.5 74t70.5 26q42 0 69 -26t27 -74q0 -50 -27 -76t-69 -26q-43 0 -70.5 26t-27.5 76zM233 857q0 -22 11 -34.5t28 -12.5q16 0 27.5 12.5t11.5 34.5 q0 21 -11.5 33t-27.5 12q-17 0 -28 -12t-11 -33z" />
<glyph unicode="&#xc6;" horiz-adv-x="782" d="M272 544l-71 -312h138zM392 0l-25 114h-194l-27 -114h-140l190 700h547v-121h-343l38 -163h267v-125h-240l38 -169h248v-122h-359z" />
<glyph unicode="&#xc7;" horiz-adv-x="549" d="M298 -249q-38 0 -73 17t-52 59l60 39q22 -42 58 -42q17 0 28.5 9.5t11.5 27.5q0 17 -10.5 27t-28.5 10q-5 0 -8.5 -0.5t-8.5 -1.5l-20 14l19 77q-121 8 -177 96.5t-56 267.5q0 191 65.5 277t199.5 86q42 0 77.5 -9.5t64 -32t49.5 -59t34 -91.5l-122 -41 q-14 58 -39.5 80.5t-64.5 22.5q-29 0 -51 -11t-37.5 -38t-23.5 -72t-8 -114q0 -68 8 -113.5t23.5 -73t38 -39t51.5 -11.5q39 0 67 25.5t43 84.5l121 -48q-23 -86 -72.5 -131t-124.5 -55l-11 -39h1q32 -2 57 -24.5t25 -65.5q0 -28 -9 -48t-25 -33.5t-36.5 -20t-43.5 -6.5z " />
<glyph unicode="&#xc8;" horiz-adv-x="518" d="M64 0zM64 0v700h419v-122h-281v-164h239v-125h-239v-167h279v-122h-417zM233 776l-102 125v7h147l61 -127v-5h-106z" />
<glyph unicode="&#xc9;" horiz-adv-x="518" d="M64 0zM64 0v700h419v-122h-281v-164h239v-125h-239v-167h279v-122h-417zM419 900l-101 -125h-104v5l63 127h142v-7z" />
<glyph unicode="&#xca;" horiz-adv-x="518" d="M64 0zM64 0v700h419v-122h-281v-164h239v-125h-239v-167h279v-122h-417zM273 834l-43 -59h-103v4l94 128h111l95 -128v-4h-108z" />
<glyph unicode="&#xcb;" horiz-adv-x="518" d="M64 0zM64 0v700h419v-122h-281v-164h239v-125h-239v-167h279v-122h-417zM302 850q0 34 18 52t51 18q71 0 71 -70q0 -74 -71 -74q-33 0 -51 19t-18 55zM121 850q0 34 18.5 52t51.5 18q70 0 70 -70q0 -74 -70 -74q-33 0 -51.5 19t-18.5 55z" />
<glyph unicode="&#xcc;" horiz-adv-x="270" d="M0 0zM64 0v700h143v-700h-143zM93 776l-102 125v7h147l61 -127v-5h-106z" />
<glyph unicode="&#xcd;" horiz-adv-x="270" d="M64 0zM64 0v700h143v-700h-143zM279 900l-101 -125h-104v5l63 127h142v-7z" />
<glyph unicode="&#xce;" horiz-adv-x="270" d="M0 0zM64 0v700h143v-700h-143zM133 834l-43 -59h-103v4l94 128h111l95 -128v-4h-108z" />
<glyph unicode="&#xcf;" horiz-adv-x="270" d="M0 0zM64 0v700h143v-700h-143zM162 850q0 34 18 52t51 18q71 0 71 -70q0 -74 -71 -74q-33 0 -51 19t-18 55zM-19 850q0 34 18.5 52t51.5 18q70 0 70 -70q0 -74 -70 -74q-33 0 -51.5 19t-18.5 55z" />
<glyph unicode="&#xd0;" horiz-adv-x="601" d="M281 0h-202v292h-52v116h52v292h212q136 0 202.5 -83.5t66.5 -261.5q0 -355 -279 -355zM222 125h57q32 0 57.5 11.5t43.5 38.5t27.5 70t9.5 106q0 120 -32.5 172.5t-93.5 52.5h-69v-168h81v-116h-81v-167z" />
<glyph unicode="&#xd1;" horiz-adv-x="613" d="M64 0zM424 0l-230 401l3 -401h-133v700h113l244 -420l-4 420h133v-700h-126zM372 902h78q2 -34 -4.5 -57t-18.5 -37t-27 -20t-30 -6q-18 0 -32.5 5.5t-27.5 12t-24.5 12t-22.5 5.5q-13 0 -17 -10.5t-4 -23.5h-78q-2 34 4.5 57.5t18 37t26.5 19.5t30 6q18 0 33 -5.5 t28 -12t24.5 -12t22.5 -5.5q14 0 17.5 10t3.5 24z" />
<glyph unicode="&#xd2;" horiz-adv-x="608" d="M41 0zM303 -14q-139 0 -200.5 90t-61.5 275t64 274t200 89q140 0 201.5 -89t61.5 -275t-64.5 -275t-200.5 -89zM305 585q-30 0 -52.5 -11.5t-37.5 -39.5t-22.5 -73.5t-7.5 -112.5q0 -66 7.5 -111.5t22.5 -73t37.5 -40t52.5 -12.5t52 12t36.5 39.5t22 73.5t7.5 114 q0 66 -7.5 111t-22 72.5t-36.5 39.5t-52 12zM258 776l-102 125v7h147l61 -127v-5h-106z" />
<glyph unicode="&#xd3;" horiz-adv-x="608" d="M41 0zM303 -14q-139 0 -200.5 90t-61.5 275t64 274t200 89q140 0 201.5 -89t61.5 -275t-64.5 -275t-200.5 -89zM305 585q-30 0 -52.5 -11.5t-37.5 -39.5t-22.5 -73.5t-7.5 -112.5q0 -66 7.5 -111.5t22.5 -73t37.5 -40t52.5 -12.5t52 12t36.5 39.5t22 73.5t7.5 114 q0 66 -7.5 111t-22 72.5t-36.5 39.5t-52 12zM444 900l-101 -125h-104v5l63 127h142v-7z" />
<glyph unicode="&#xd4;" horiz-adv-x="608" d="M41 0zM303 -14q-139 0 -200.5 90t-61.5 275t64 274t200 89q140 0 201.5 -89t61.5 -275t-64.5 -275t-200.5 -89zM305 585q-30 0 -52.5 -11.5t-37.5 -39.5t-22.5 -73.5t-7.5 -112.5q0 -66 7.5 -111.5t22.5 -73t37.5 -40t52.5 -12.5t52 12t36.5 39.5t22 73.5t7.5 114 q0 66 -7.5 111t-22 72.5t-36.5 39.5t-52 12zM297 834l-43 -59h-103v4l94 128h111l95 -128v-4h-108z" />
<glyph unicode="&#xd5;" horiz-adv-x="608" d="M41 0zM303 -14q-139 0 -200.5 90t-61.5 275t64 274t200 89q140 0 201.5 -89t61.5 -275t-64.5 -275t-200.5 -89zM305 585q-30 0 -52.5 -11.5t-37.5 -39.5t-22.5 -73.5t-7.5 -112.5q0 -66 7.5 -111.5t22.5 -73t37.5 -40t52.5 -12.5t52 12t36.5 39.5t22 73.5t7.5 114 q0 66 -7.5 111t-22 72.5t-36.5 39.5t-52 12zM365 902h78q2 -34 -4.5 -57t-18.5 -37t-27 -20t-30 -6q-18 0 -32.5 5.5t-27.5 12t-24.5 12t-22.5 5.5q-13 0 -17 -10.5t-4 -23.5h-78q-2 34 4.5 57.5t18 37t26.5 19.5t30 6q18 0 33 -5.5t28 -12t24.5 -12t22.5 -5.5q14 0 17.5 10 t3.5 24z" />
<glyph unicode="&#xd6;" horiz-adv-x="608" d="M41 0zM303 -14q-139 0 -200.5 90t-61.5 275t64 274t200 89q140 0 201.5 -89t61.5 -275t-64.5 -275t-200.5 -89zM305 585q-30 0 -52.5 -11.5t-37.5 -39.5t-22.5 -73.5t-7.5 -112.5q0 -66 7.5 -111.5t22.5 -73t37.5 -40t52.5 -12.5t52 12t36.5 39.5t22 73.5t7.5 114 q0 66 -7.5 111t-22 72.5t-36.5 39.5t-52 12zM326 850q0 34 18 52t51 18q71 0 71 -70q0 -74 -71 -74q-33 0 -51 19t-18 55zM145 850q0 34 18.5 52t51.5 18q70 0 70 -70q0 -74 -70 -74q-33 0 -51.5 19t-18.5 55z" />
<glyph unicode="&#xd7;" horiz-adv-x="387" d="M105 136l-64 59l98 116l-100 119l66 61l90 -109l86 107l63 -59l-97 -115l97 -116l-66 -62l-86 107z" />
<glyph unicode="&#xd8;" horiz-adv-x="611" d="M308 -14q-102 0 -162 51l-24 -37h-92l65 98q-26 45 -37.5 108t-11.5 145q0 185 64 274t200 89q51 0 90.5 -11.5t70.5 -37.5l23 35h93l-64 -98q50 -87 50 -252q0 -186 -64.5 -275t-200.5 -89zM190 348q0 -30 2 -54t6 -43l194 292q-14 23 -35 32.5t-48 9.5q-30 0 -52 -11.5 t-37 -39.5t-22.5 -73.5t-7.5 -112.5zM309 111q30 0 52 12t36.5 39.5t22 73.5t7.5 114q0 30 -2 55t-6 45l-195 -295q15 -24 36 -34t49 -10z" />
<glyph unicode="&#xd9;" horiz-adv-x="588" d="M53 0zM394 237v463h143v-454q0 -130 -64 -195t-178 -65q-115 0 -178.5 65t-63.5 195v454h143v-463q0 -61 26 -90t73 -29q46 0 72.5 29t26.5 90zM253 776l-102 125v7h147l61 -127v-5h-106z" />
<glyph unicode="&#xda;" horiz-adv-x="588" d="M53 0zM394 237v463h143v-454q0 -130 -64 -195t-178 -65q-115 0 -178.5 65t-63.5 195v454h143v-463q0 -61 26 -90t73 -29q46 0 72.5 29t26.5 90zM439 900l-101 -125h-104v5l63 127h142v-7z" />
<glyph unicode="&#xdb;" horiz-adv-x="588" d="M53 0zM394 237v463h143v-454q0 -130 -64 -195t-178 -65q-115 0 -178.5 65t-63.5 195v454h143v-463q0 -61 26 -90t73 -29q46 0 72.5 29t26.5 90zM292 834l-43 -59h-103v4l94 128h111l95 -128v-4h-108z" />
<glyph unicode="&#xdc;" horiz-adv-x="588" d="M53 0zM394 237v463h143v-454q0 -130 -64 -195t-178 -65q-115 0 -178.5 65t-63.5 195v454h143v-463q0 -61 26 -90t73 -29q46 0 72.5 29t26.5 90zM321 850q0 34 18 52t51 18q71 0 71 -70q0 -74 -71 -74q-33 0 -51 19t-18 55zM140 850q0 34 18.5 52t51.5 18q70 0 70 -70 q0 -74 -70 -74q-33 0 -51.5 19t-18.5 55z" />
<glyph unicode="&#xdd;" horiz-adv-x="541" d="M7 0zM199 263l-192 437h155l111 -296l113 296h148l-192 -440v-260h-143v263zM419 900l-101 -125h-104v5l63 127h142v-7z" />
<glyph unicode="&#xde;" horiz-adv-x="532" d="M207 0h-143v700h143v-111h110q48 0 83.5 -16.5t59 -47t35.5 -73.5t12 -96q0 -58 -15 -102t-42.5 -74t-65.5 -45.5t-83 -15.5h-94v-119zM292 459h-85v-213h85q35 0 55 26.5t20 81.5q0 49 -18.5 77t-56.5 28z" />
<glyph unicode="&#xdf;" horiz-adv-x="526" d="M270 303h-29v124h25q31 0 50 24.5t19 66.5q0 39 -19.5 62t-54.5 23q-37 0 -56.5 -26t-19.5 -76v-501h-135v491q0 109 53.5 170.5t159.5 61.5q99 0 152.5 -51.5t53.5 -142.5q0 -51 -22 -87.5t-56 -58.5q51 -18 77.5 -66.5t26.5 -116.5q0 -101 -52 -154.5t-136 -53.5 q-23 0 -44.5 4.5t-39.5 13.5l21 105q18 -9 41 -9q31 0 52 23t21 75q0 45 -21.5 72t-66.5 27z" />
<glyph unicode="&#xe0;" horiz-adv-x="450" d="M28 0zM198 85q32 0 52.5 28t20.5 80v15h-29q-45 0 -69 -20t-24 -50q0 -25 13 -39t36 -14zM290 0l-8 74q-18 -39 -50.5 -63t-74.5 -24q-59 0 -93.5 37t-34.5 104q0 41 15.5 73t42 53.5t62.5 33t78 11.5h44v5q-1 26 -7.5 43t-16.5 27.5t-23 14.5t-26 4q-28 0 -49 -13 t-33 -42l-88 64q24 51 70 79.5t117 28.5q43 0 77.5 -11t59.5 -36t38.5 -65t13.5 -98v-300h-114zM173 573l-102 125v7h147l61 -127v-5h-106z" />
<glyph unicode="&#xe1;" horiz-adv-x="450" d="M28 0zM198 85q32 0 52.5 28t20.5 80v15h-29q-45 0 -69 -20t-24 -50q0 -25 13 -39t36 -14zM290 0l-8 74q-18 -39 -50.5 -63t-74.5 -24q-59 0 -93.5 37t-34.5 104q0 41 15.5 73t42 53.5t62.5 33t78 11.5h44v5q-1 26 -7.5 43t-16.5 27.5t-23 14.5t-26 4q-28 0 -49 -13 t-33 -42l-88 64q24 51 70 79.5t117 28.5q43 0 77.5 -11t59.5 -36t38.5 -65t13.5 -98v-300h-114zM359 697l-101 -125h-104v5l63 127h142v-7z" />
<glyph unicode="&#xe2;" horiz-adv-x="450" d="M28 0zM198 85q32 0 52.5 28t20.5 80v15h-29q-45 0 -69 -20t-24 -50q0 -25 13 -39t36 -14zM290 0l-8 74q-18 -39 -50.5 -63t-74.5 -24q-59 0 -93.5 37t-34.5 104q0 41 15.5 73t42 53.5t62.5 33t78 11.5h44v5q-1 26 -7.5 43t-16.5 27.5t-23 14.5t-26 4q-28 0 -49 -13 t-33 -42l-88 64q24 51 70 79.5t117 28.5q43 0 77.5 -11t59.5 -36t38.5 -65t13.5 -98v-300h-114zM213 631l-43 -59h-103v4l94 128h111l95 -128v-4h-108z" />
<glyph unicode="&#xe3;" horiz-adv-x="450" d="M28 0zM198 85q32 0 52.5 28t20.5 80v15h-29q-45 0 -69 -20t-24 -50q0 -25 13 -39t36 -14zM290 0l-8 74q-18 -39 -50.5 -63t-74.5 -24q-59 0 -93.5 37t-34.5 104q0 41 15.5 73t42 53.5t62.5 33t78 11.5h44v5q-1 26 -7.5 43t-16.5 27.5t-23 14.5t-26 4q-28 0 -49 -13 t-33 -42l-88 64q24 51 70 79.5t117 28.5q43 0 77.5 -11t59.5 -36t38.5 -65t13.5 -98v-300h-114zM281 699h78q2 -34 -4.5 -57t-18.5 -37t-27 -20t-30 -6q-18 0 -32.5 5.5t-27.5 12t-24.5 12t-22.5 5.5q-13 0 -17 -10.5t-4 -23.5h-78q-2 34 4.5 57.5t18 37t26.5 19.5t30 6 q18 0 33 -5.5t28 -12t24.5 -12t22.5 -5.5q14 0 17.5 10t3.5 24z" />
<glyph unicode="&#xe4;" horiz-adv-x="450" d="M28 0zM198 85q32 0 52.5 28t20.5 80v15h-29q-45 0 -69 -20t-24 -50q0 -25 13 -39t36 -14zM290 0l-8 74q-18 -39 -50.5 -63t-74.5 -24q-59 0 -93.5 37t-34.5 104q0 41 15.5 73t42 53.5t62.5 33t78 11.5h44v5q-1 26 -7.5 43t-16.5 27.5t-23 14.5t-26 4q-28 0 -49 -13 t-33 -42l-88 64q24 51 70 79.5t117 28.5q43 0 77.5 -11t59.5 -36t38.5 -65t13.5 -98v-300h-114zM242 647q0 34 18 52t51 18q71 0 71 -70q0 -74 -71 -74q-33 0 -51 19t-18 55zM61 647q0 34 18.5 52t51.5 18q70 0 70 -70q0 -74 -70 -74q-33 0 -51.5 19t-18.5 55z" />
<glyph unicode="&#xe5;" horiz-adv-x="450" d="M28 0zM198 85q32 0 52.5 28t20.5 80v15h-29q-45 0 -69 -20t-24 -50q0 -25 13 -39t36 -14zM290 0l-8 74q-18 -39 -50.5 -63t-74.5 -24q-59 0 -93.5 37t-34.5 104q0 41 15.5 73t42 53.5t62.5 33t78 11.5h44v5q-1 26 -7.5 43t-16.5 27.5t-23 14.5t-26 4q-28 0 -49 -13 t-33 -42l-88 64q24 51 70 79.5t117 28.5q43 0 77.5 -11t59.5 -36t38.5 -65t13.5 -98v-300h-114zM118 654q0 48 27.5 74t70.5 26q42 0 69 -26t27 -74q0 -50 -27 -76t-69 -26q-43 0 -70.5 26t-27.5 76zM177 654q0 -22 11 -34.5t28 -12.5q16 0 27.5 12.5t11.5 34.5 q0 21 -11.5 33t-27.5 12q-17 0 -28 -12t-11 -33z" />
<glyph unicode="&#xe6;" horiz-adv-x="687" d="M477 -14q-51 0 -91 23.5t-62 74.5q-18 -45 -60.5 -71t-92.5 -26q-65 0 -103.5 36.5t-38.5 104.5q0 40 15.5 71.5t42 53.5t62.5 33.5t78 11.5h44q-2 56 -22.5 76t-51.5 20q-27 0 -48 -13.5t-33 -42.5l-88 64q24 51 69.5 79.5t116.5 28.5q42 0 74.5 -16.5t52.5 -56.5 q23 35 56.5 54t77.5 19q49 0 83.5 -19.5t56.5 -53t32 -78t10 -95.5q0 -27 -3 -57h-250q5 -57 26 -81.5t59 -24.5q51 0 70 59l98 -47q-11 -28 -26 -51.5t-37 -40t-50.5 -26t-66.5 -9.5zM474 393q-29 0 -47.5 -21.5t-21.5 -74.5h131q-2 96 -62 96zM196 85q35 0 55 28t20 80v12 h-29q-45 0 -69 -19t-24 -48q0 -25 12.5 -39t34.5 -14z" />
<glyph unicode="&#xe7;" horiz-adv-x="422" d="M222 -249q-38 0 -73 17t-52 59l60 39q22 -42 58 -42q17 0 28.5 9.5t11.5 27.5q0 17 -10.5 27t-28.5 10q-5 0 -8.5 -0.5t-7.5 -1.5l-21 14l20 78q-79 9 -124 71t-45 189q0 136 55 199t153 63q66 0 108.5 -35t61.5 -109l-107 -45q-11 37 -26.5 53t-38.5 16q-19 0 -33 -7 t-23.5 -23.5t-14.5 -44t-5 -68.5q0 -76 16.5 -112t58.5 -36q27 0 45 18t29 53l102 -43q-18 -55 -52.5 -92.5t-94.5 -45.5l-11 -40h1q32 -2 57 -24.5t25 -65.5q0 -28 -9 -48t-24.5 -33.5t-36.5 -20t-44 -6.5z" />
<glyph unicode="&#xe8;" horiz-adv-x="440" d="M30 0zM232 -14q-45 0 -82 15.5t-64 48t-41.5 81.5t-14.5 115q0 125 52.5 194.5t148.5 69.5q48 0 83 -19.5t57.5 -53t33 -79.5t10.5 -98q0 -30 -3 -58h-252q4 -55 25.5 -78t58.5 -23q54 0 71 58l99 -46q-11 -28 -27 -51.5t-37.5 -40t-50.5 -26t-67 -9.5zM230 393 q-30 0 -49.5 -22t-21.5 -73h132q0 48 -16 71.5t-45 23.5zM182 572l-102 125v7h147l61 -127v-5h-106z" />
<glyph unicode="&#xe9;" horiz-adv-x="440" d="M30 0zM232 -14q-45 0 -82 15.5t-64 48t-41.5 81.5t-14.5 115q0 125 52.5 194.5t148.5 69.5q48 0 83 -19.5t57.5 -53t33 -79.5t10.5 -98q0 -30 -3 -58h-252q4 -55 25.5 -78t58.5 -23q54 0 71 58l99 -46q-11 -28 -27 -51.5t-37.5 -40t-50.5 -26t-67 -9.5zM230 393 q-30 0 -49.5 -22t-21.5 -73h132q0 48 -16 71.5t-45 23.5zM368 696l-101 -125h-104v5l63 127h142v-7z" />
<glyph unicode="&#xea;" horiz-adv-x="440" d="M30 0zM232 -14q-45 0 -82 15.5t-64 48t-41.5 81.5t-14.5 115q0 125 52.5 194.5t148.5 69.5q48 0 83 -19.5t57.5 -53t33 -79.5t10.5 -98q0 -30 -3 -58h-252q4 -55 25.5 -78t58.5 -23q54 0 71 58l99 -46q-11 -28 -27 -51.5t-37.5 -40t-50.5 -26t-67 -9.5zM230 393 q-30 0 -49.5 -22t-21.5 -73h132q0 48 -16 71.5t-45 23.5zM222 630l-43 -59h-103v4l94 128h111l95 -128v-4h-108z" />
<glyph unicode="&#xeb;" horiz-adv-x="440" d="M30 0zM232 -14q-45 0 -82 15.5t-64 48t-41.5 81.5t-14.5 115q0 125 52.5 194.5t148.5 69.5q48 0 83 -19.5t57.5 -53t33 -79.5t10.5 -98q0 -30 -3 -58h-252q4 -55 25.5 -78t58.5 -23q54 0 71 58l99 -46q-11 -28 -27 -51.5t-37.5 -40t-50.5 -26t-67 -9.5zM230 393 q-30 0 -49.5 -22t-21.5 -73h132q0 48 -16 71.5t-45 23.5zM251 646q0 34 18 52t51 18q71 0 71 -70q0 -74 -71 -74q-33 0 -51 19t-18 55zM70 646q0 34 18.5 52t51.5 18q70 0 70 -70q0 -74 -70 -74q-33 0 -51.5 19t-18.5 55z" />
<glyph unicode="&#xec;" horiz-adv-x="236" d="M0 0zM50 496h137v-496h-137v496zM76 572l-102 125v7h147l61 -127v-5h-106z" />
<glyph unicode="&#xed;" horiz-adv-x="236" d="M50 0zM50 496h137v-496h-137v496zM262 696l-101 -125h-104v5l63 127h142v-7z" />
<glyph unicode="&#xee;" horiz-adv-x="236" d="M0 0zM50 496h137v-496h-137v496zM116 630l-43 -59h-103v4l94 128h111l95 -128v-4h-108z" />
<glyph unicode="&#xef;" horiz-adv-x="236" d="M0 0zM50 496h137v-496h-137v496zM144 646q0 34 18 52t51 18q71 0 71 -70q0 -74 -71 -74q-33 0 -51 19t-18 55zM-37 646q0 34 18.5 52t51.5 18q70 0 70 -70q0 -74 -70 -74q-33 0 -51.5 19t-18.5 55z" />
<glyph unicode="&#xf0;" horiz-adv-x="470" d="M236 -14q-103 0 -154.5 62.5t-51.5 192.5q0 132 51 193t138 61q48 0 81 -36q-13 61 -44 107l-57 -43l-30 47l47 37q-35 32 -86 49l35 94q42 -8 77.5 -26t64.5 -44l62 51l33 -47l-58 -47q46 -61 71 -152.5t25 -205.5v-23q0 -142 -52 -206t-152 -64zM310 240 q0 79 -17.5 112.5t-56.5 33.5q-40 0 -57.5 -33.5t-17.5 -112.5q0 -78 18.5 -110.5t56.5 -32.5q37 0 55.5 32.5t18.5 110.5z" />
<glyph unicode="&#xf1;" horiz-adv-x="499" d="M50 0zM50 496h113l11 -91q22 54 57.5 79.5t81.5 25.5q37 0 63.5 -13.5t44 -38.5t25.5 -60.5t8 -78.5v-319h-137v286q0 53 -15 74t-42 21q-32 0 -52.5 -33.5t-20.5 -99.5v-248h-137v496zM332 698h78q2 -34 -4.5 -57t-18.5 -37t-27 -20t-30 -6q-18 0 -32.5 5.5t-27.5 12 t-24.5 12t-22.5 5.5q-13 0 -17 -10.5t-4 -23.5h-78q-2 34 4.5 57.5t18 37t26.5 19.5t30 6q18 0 33 -5.5t28 -12t24.5 -12t22.5 -5.5q14 0 17.5 10t3.5 24z" />
<glyph unicode="&#xf2;" horiz-adv-x="470" d="M30 0zM30 249q0 134 55 197.5t150 63.5q103 0 154 -62.5t51 -198.5q0 -132 -52.5 -197.5t-152.5 -65.5q-103 0 -154 64.5t-51 198.5zM309 248q0 77 -17.5 110t-57.5 33t-57 -33t-17 -110t18 -110.5t56 -33.5t56.5 33.5t18.5 110.5zM192 572l-102 125v7h147l61 -127v-5 h-106z" />
<glyph unicode="&#xf3;" horiz-adv-x="470" d="M30 0zM30 249q0 134 55 197.5t150 63.5q103 0 154 -62.5t51 -198.5q0 -132 -52.5 -197.5t-152.5 -65.5q-103 0 -154 64.5t-51 198.5zM309 248q0 77 -17.5 110t-57.5 33t-57 -33t-17 -110t18 -110.5t56 -33.5t56.5 33.5t18.5 110.5zM378 696l-101 -125h-104v5l63 127h142 v-7z" />
<glyph unicode="&#xf4;" horiz-adv-x="470" d="M30 0zM30 249q0 134 55 197.5t150 63.5q103 0 154 -62.5t51 -198.5q0 -132 -52.5 -197.5t-152.5 -65.5q-103 0 -154 64.5t-51 198.5zM309 248q0 77 -17.5 110t-57.5 33t-57 -33t-17 -110t18 -110.5t56 -33.5t56.5 33.5t18.5 110.5zM232 630l-43 -59h-103v4l94 128h111 l95 -128v-4h-108z" />
<glyph unicode="&#xf5;" horiz-adv-x="470" d="M30 0zM30 249q0 134 55 197.5t150 63.5q103 0 154 -62.5t51 -198.5q0 -132 -52.5 -197.5t-152.5 -65.5q-103 0 -154 64.5t-51 198.5zM309 248q0 77 -17.5 110t-57.5 33t-57 -33t-17 -110t18 -110.5t56 -33.5t56.5 33.5t18.5 110.5zM300 698h78q2 -34 -4.5 -57t-18.5 -37 t-27 -20t-30 -6q-18 0 -32.5 5.5t-27.5 12t-24.5 12t-22.5 5.5q-13 0 -17 -10.5t-4 -23.5h-78q-2 34 4.5 57.5t18 37t26.5 19.5t30 6q18 0 33 -5.5t28 -12t24.5 -12t22.5 -5.5q14 0 17.5 10t3.5 24z" />
<glyph unicode="&#xf6;" horiz-adv-x="470" d="M30 0zM30 249q0 134 55 197.5t150 63.5q103 0 154 -62.5t51 -198.5q0 -132 -52.5 -197.5t-152.5 -65.5q-103 0 -154 64.5t-51 198.5zM309 248q0 77 -17.5 110t-57.5 33t-57 -33t-17 -110t18 -110.5t56 -33.5t56.5 33.5t18.5 110.5zM261 646q0 34 18 52t51 18q71 0 71 -70 q0 -74 -71 -74q-33 0 -51 19t-18 55zM80 646q0 34 18.5 52t51.5 18q70 0 70 -70q0 -74 -70 -74q-33 0 -51.5 19t-18.5 55z" />
<glyph unicode="&#xf7;" horiz-adv-x="391" d="M127 487q0 33 17.5 52t50.5 19t51 -19t18 -52q0 -35 -18 -54t-51 -19t-50.5 19t-17.5 54zM351 356v-92h-311v92h311zM127 137q0 34 17.5 53t50.5 19t51 -19t18 -53t-18 -53t-51 -19t-50.5 19t-17.5 53z" />
<glyph unicode="&#xf8;" horiz-adv-x="477" d="M240 -14q-81 0 -129 39l-19 -25h-78l56 75q-36 64 -36 174q0 134 55.5 197.5t150.5 63.5q40 0 72.5 -9.5t55.5 -30.5l19 26h78l-55 -75q34 -62 34 -172q0 -132 -52 -197.5t-152 -65.5zM240 402q-43 0 -60.5 -36t-17.5 -118q0 -16 1 -29.5t3 -24.5l126 180q-18 28 -52 28z M240 92q40 0 58 36t18 120q0 14 -1 27.5t-3 24.5l-126 -181q18 -27 54 -27z" />
<glyph unicode="&#xf9;" horiz-adv-x="496" d="M46 0zM447 0h-113l-10 84q-21 -50 -56 -74t-77 -24q-39 0 -66.5 14t-45 39t-25.5 59.5t-8 75.5v322h138v-293q0 -50 14 -72t43 -22t48 31t20 97v259h138v-496zM203 572l-102 125v7h147l61 -127v-5h-106z" />
<glyph unicode="&#xfa;" horiz-adv-x="496" d="M46 0zM447 0h-113l-10 84q-21 -50 -56 -74t-77 -24q-39 0 -66.5 14t-45 39t-25.5 59.5t-8 75.5v322h138v-293q0 -50 14 -72t43 -22t48 31t20 97v259h138v-496zM389 696l-101 -125h-104v5l63 127h142v-7z" />
<glyph unicode="&#xfb;" horiz-adv-x="496" d="M46 0zM447 0h-113l-10 84q-21 -50 -56 -74t-77 -24q-39 0 -66.5 14t-45 39t-25.5 59.5t-8 75.5v322h138v-293q0 -50 14 -72t43 -22t48 31t20 97v259h138v-496zM243 630l-43 -59h-103v4l94 128h111l95 -128v-4h-108z" />
<glyph unicode="&#xfc;" horiz-adv-x="496" d="M46 0zM447 0h-113l-10 84q-21 -50 -56 -74t-77 -24q-39 0 -66.5 14t-45 39t-25.5 59.5t-8 75.5v322h138v-293q0 -50 14 -72t43 -22t48 31t20 97v259h138v-496zM272 646q0 34 18 52t51 18q71 0 71 -70q0 -74 -71 -74q-33 0 -51 19t-18 55zM91 646q0 34 18.5 52t51.5 18 q70 0 70 -70q0 -74 -70 -74q-33 0 -51.5 19t-18.5 55z" />
<glyph unicode="&#xfd;" horiz-adv-x="450" d="M7 0zM147 -44l9 40l-149 500h144l76 -333l76 333h140l-176 -588q-11 -37 -27 -61.5t-36.5 -39.5t-45.5 -21t-53 -6q-31 0 -53 5t-44 16l23 107q17 -8 32 -11.5t24 -3.5q26 0 39 14t21 49zM368 696l-101 -125h-104v5l63 127h142v-7z" />
<glyph unicode="&#xfe;" horiz-adv-x="490" d="M185 246q0 -78 20 -113t51 -35q36 0 54 36t18 113q0 79 -18 114t-52 35q-32 0 -52.5 -34.5t-20.5 -115.5zM50 -187v887h137v-266q19 37 51.5 56.5t68.5 19.5q73 0 113 -65t40 -190q0 -62 -10.5 -111.5t-32 -84.5t-54 -54t-76.5 -19q-31 0 -56 14.5t-44 40.5v-228h-137z " />
<glyph unicode="&#xff;" horiz-adv-x="450" d="M7 0zM147 -44l9 40l-149 500h144l76 -333l76 333h140l-176 -588q-11 -37 -27 -61.5t-36.5 -39.5t-45.5 -21t-53 -6q-31 0 -53 5t-44 16l23 107q17 -8 32 -11.5t24 -3.5q26 0 39 14t21 49zM250 646q0 34 18 52t51 18q71 0 71 -70q0 -74 -71 -74q-33 0 -51 19t-18 55z M69 646q0 34 18.5 52t51.5 18q70 0 70 -70q0 -74 -70 -74q-33 0 -51.5 19t-18.5 55z" />
<glyph unicode="&#x100;" horiz-adv-x="544" d="M8 0zM270 533l-66 -301h132zM388 0l-26 116h-184l-26 -116h-144l179 700h171l178 -700h-148zM386 879v-85h-228v85h228z" />
<glyph unicode="&#x101;" horiz-adv-x="450" d="M28 0zM198 85q32 0 52.5 28t20.5 80v15h-29q-45 0 -69 -20t-24 -50q0 -25 13 -39t36 -14zM290 0l-8 74q-18 -39 -50.5 -63t-74.5 -24q-59 0 -93.5 37t-34.5 104q0 41 15.5 73t42 53.5t62.5 33t78 11.5h44v5q-1 26 -7.5 43t-16.5 27.5t-23 14.5t-26 4q-28 0 -49 -13 t-33 -42l-88 64q24 51 70 79.5t117 28.5q43 0 77.5 -11t59.5 -36t38.5 -65t13.5 -98v-300h-114zM331 676v-85h-228v85h228z" />
<glyph unicode="&#x102;" horiz-adv-x="544" d="M8 0zM270 533l-66 -301h132zM388 0l-26 116h-184l-26 -116h-144l179 700h171l178 -700h-148zM328 906h81q0 -39 -9.5 -65.5t-27 -42.5t-43 -23t-57.5 -7q-33 0 -58 7t-42.5 23t-26.5 42.5t-9 65.5h81q0 -36 13 -49.5t42 -13.5t42.5 13.5t13.5 49.5z" />
<glyph unicode="&#x103;" horiz-adv-x="450" d="M28 0zM198 85q32 0 52.5 28t20.5 80v15h-29q-45 0 -69 -20t-24 -50q0 -25 13 -39t36 -14zM290 0l-8 74q-18 -39 -50.5 -63t-74.5 -24q-59 0 -93.5 37t-34.5 104q0 41 15.5 73t42 53.5t62.5 33t78 11.5h44v5q-1 26 -7.5 43t-16.5 27.5t-23 14.5t-26 4q-28 0 -49 -13 t-33 -42l-88 64q24 51 70 79.5t117 28.5q43 0 77.5 -11t59.5 -36t38.5 -65t13.5 -98v-300h-114zM272 703h81q0 -39 -9.5 -65.5t-27 -42.5t-43 -23t-57.5 -7q-33 0 -58 7t-42.5 23t-26.5 42.5t-9 65.5h81q0 -36 13 -49.5t42 -13.5t42.5 13.5t13.5 49.5z" />
<glyph unicode="&#x104;" horiz-adv-x="544" d="M529 -196q-20 -15 -41 -23t-47 -8q-22 0 -43.5 6t-39 20.5t-28 39t-10.5 61.5q0 45 19.5 75.5t45.5 47.5l-21 93h-188l-26 -116h-142l179 700h171l178 -700h-67q-38 -4 -54.5 -29.5t-16.5 -55.5q0 -32 16.5 -44.5t36.5 -12.5q25 0 45 17zM270 537l-68 -305h136z" />
<glyph unicode="&#x105;" horiz-adv-x="449" d="M438 -195q-38 -31 -88 -31q-22 0 -43.5 6t-38.5 20.5t-27.5 39t-10.5 61.5q0 42 16 72.5t42 49.5l-6 51q-18 -39 -50.5 -63t-74.5 -24q-59 0 -93.5 37t-34.5 104q0 41 15.5 73t42 53.5t62.5 33t78 11.5h44v5q-1 26 -7.5 43t-16.5 27.5t-23 14.5t-26 4q-28 0 -49 -13 t-33 -42l-88 64q24 51 70 79.5t117 28.5q43 0 77.5 -11t59.5 -36t38.5 -65t13.5 -98v-300h-33q-34 -6 -48.5 -30.5t-14.5 -53.5q0 -32 15.5 -44.5t35.5 -12.5q26 0 46 17zM198 85q32 0 52.5 28t20.5 80v15h-29q-45 0 -69 -20t-24 -50q0 -25 13 -39t36 -14z" />
<glyph unicode="&#x106;" horiz-adv-x="549" d="M41 0zM301 -14q-135 0 -197.5 88t-62.5 277q0 191 65.5 277t199.5 86q42 0 77.5 -9.5t64 -32t49.5 -59t34 -91.5l-122 -41q-14 58 -39.5 80.5t-64.5 22.5q-29 0 -51 -11t-37.5 -38t-23.5 -72t-8 -114q0 -68 8 -113.5t23.5 -73t38 -39t51.5 -11.5q39 0 67 25.5t43 84.5 l121 -48q-26 -97 -85.5 -142.5t-150.5 -45.5zM445 900l-101 -125h-104v5l63 127h142v-7z" />
<glyph unicode="&#x107;" horiz-adv-x="422" d="M30 0zM232 -14q-46 0 -83.5 15t-63.5 46.5t-40.5 81.5t-14.5 119q0 137 54.5 199.5t151.5 62.5q68 0 111 -35t62 -109l-110 -45q-11 37 -25.5 53t-37.5 16q-19 0 -33 -7t-23.5 -23.5t-14.5 -44t-5 -68.5q0 -73 16.5 -107.5t58.5 -34.5q24 0 40.5 16.5t27.5 54.5l106 -47 q-20 -72 -62.5 -107.5t-114.5 -35.5zM373 696l-101 -125h-104v5l63 127h142v-7z" />
<glyph unicode="&#x108;" horiz-adv-x="549" d="M41 0zM301 -14q-135 0 -197.5 88t-62.5 277q0 191 65.5 277t199.5 86q42 0 77.5 -9.5t64 -32t49.5 -59t34 -91.5l-122 -41q-14 58 -39.5 80.5t-64.5 22.5q-29 0 -51 -11t-37.5 -38t-23.5 -72t-8 -114q0 -68 8 -113.5t23.5 -73t38 -39t51.5 -11.5q39 0 67 25.5t43 84.5 l121 -48q-26 -97 -85.5 -142.5t-150.5 -45.5zM298 834l-43 -59h-103v4l94 128h111l95 -128v-4h-108z" />
<glyph unicode="&#x109;" horiz-adv-x="422" d="M30 0zM232 -14q-46 0 -83.5 15t-63.5 46.5t-40.5 81.5t-14.5 119q0 137 54.5 199.5t151.5 62.5q68 0 111 -35t62 -109l-110 -45q-11 37 -25.5 53t-37.5 16q-19 0 -33 -7t-23.5 -23.5t-14.5 -44t-5 -68.5q0 -73 16.5 -107.5t58.5 -34.5q24 0 40.5 16.5t27.5 54.5l106 -47 q-20 -72 -62.5 -107.5t-114.5 -35.5zM227 630l-43 -59h-103v4l94 128h111l95 -128v-4h-108z" />
<glyph unicode="&#x10a;" horiz-adv-x="549" d="M41 0zM301 -14q-135 0 -197.5 88t-62.5 277q0 191 65.5 277t199.5 86q42 0 77.5 -9.5t64 -32t49.5 -59t34 -91.5l-122 -41q-14 58 -39.5 80.5t-64.5 22.5q-29 0 -51 -11t-37.5 -38t-23.5 -72t-8 -114q0 -68 8 -113.5t23.5 -73t38 -39t51.5 -11.5q39 0 67 25.5t43 84.5 l121 -48q-26 -97 -85.5 -142.5t-150.5 -45.5zM227 848q0 72 73 72q72 0 72 -72q0 -73 -72 -73q-73 0 -73 73z" />
<glyph unicode="&#x10b;" horiz-adv-x="422" d="M30 0zM232 -14q-46 0 -83.5 15t-63.5 46.5t-40.5 81.5t-14.5 119q0 137 54.5 199.5t151.5 62.5q68 0 111 -35t62 -109l-110 -45q-11 37 -25.5 53t-37.5 16q-19 0 -33 -7t-23.5 -23.5t-14.5 -44t-5 -68.5q0 -73 16.5 -107.5t58.5 -34.5q24 0 40.5 16.5t27.5 54.5l106 -47 q-20 -72 -62.5 -107.5t-114.5 -35.5zM156 644q0 72 73 72q72 0 72 -72q0 -73 -72 -73q-73 0 -73 73z" />
<glyph unicode="&#x10c;" horiz-adv-x="549" d="M41 0zM301 -14q-135 0 -197.5 88t-62.5 277q0 191 65.5 277t199.5 86q42 0 77.5 -9.5t64 -32t49.5 -59t34 -91.5l-122 -41q-14 58 -39.5 80.5t-64.5 22.5q-29 0 -51 -11t-37.5 -38t-23.5 -72t-8 -114q0 -68 8 -113.5t23.5 -73t38 -39t51.5 -11.5q39 0 67 25.5t43 84.5 l121 -48q-26 -97 -85.5 -142.5t-150.5 -45.5zM305 848l46 59h103v-3l-96 -129h-111l-93 129v3h108z" />
<glyph unicode="&#x10d;" horiz-adv-x="422" d="M30 0zM232 -14q-46 0 -83.5 15t-63.5 46.5t-40.5 81.5t-14.5 119q0 137 54.5 199.5t151.5 62.5q68 0 111 -35t62 -109l-110 -45q-11 37 -25.5 53t-37.5 16q-19 0 -33 -7t-23.5 -23.5t-14.5 -44t-5 -68.5q0 -73 16.5 -107.5t58.5 -34.5q24 0 40.5 16.5t27.5 54.5l106 -47 q-20 -72 -62.5 -107.5t-114.5 -35.5zM233 644l46 59h103v-3l-96 -129h-111l-93 129v3h108z" />
<glyph unicode="&#x10e;" horiz-adv-x="586" d="M64 0zM266 0h-202v700h212q136 0 202.5 -83.5t66.5 -261.5q0 -177 -68.5 -266t-210.5 -89zM264 125q32 0 57.5 11.5t43.5 38.5t27.5 70t9.5 106q0 120 -32 172.5t-94 52.5h-69v-451h57zM304 848l46 59h103v-3l-96 -129h-111l-93 129v3h108z" />
<glyph unicode="&#x10f;" horiz-adv-x="594" d="M30 0zM580 444h-88l5 256h109zM305 245q0 82 -19.5 117.5t-52.5 35.5q-35 0 -52.5 -36.5t-17.5 -114.5q0 -76 17.5 -112t52.5 -36q32 0 52 35t20 111zM329 0l-10 75q-22 -43 -52 -66t-77 -23q-71 0 -115.5 65t-44.5 192q0 132 46.5 199.5t120.5 67.5q35 0 61 -18.5 t46 -51.5v260h137v-700h-112z" />
<glyph unicode="&#x110;" horiz-adv-x="601" d="M281 0h-202v292h-52v116h52v292h212q136 0 202.5 -83.5t66.5 -261.5q0 -355 -279 -355zM222 125h57q32 0 57.5 11.5t43.5 38.5t27.5 70t9.5 106q0 120 -32.5 172.5t-93.5 52.5h-69v-168h81v-116h-81v-167z" />
<glyph unicode="&#x111;" horiz-adv-x="498" d="M305 245q0 78 -19.5 113t-52.5 35t-51.5 -34.5t-18.5 -111.5q0 -148 70 -148q32 0 52 35.5t20 110.5zM319 75q-21 -43 -51.5 -66t-77.5 -23q-72 0 -116 64.5t-44 190.5q0 130 46.5 196.5t120.5 66.5q35 0 61 -18t45 -51v112h-94v81h94v72h138v-72h44v-81h-44v-547h-112z " />
<glyph unicode="&#x112;" horiz-adv-x="518" d="M64 0zM64 0v700h419v-122h-281v-164h239v-125h-239v-167h279v-122h-417zM390 879v-85h-228v85h228z" />
<glyph unicode="&#x113;" horiz-adv-x="440" d="M30 0zM232 -14q-45 0 -82 15.5t-64 48t-41.5 81.5t-14.5 115q0 125 52.5 194.5t148.5 69.5q48 0 83 -19.5t57.5 -53t33 -79.5t10.5 -98q0 -30 -3 -58h-252q4 -55 25.5 -78t58.5 -23q54 0 71 58l99 -46q-11 -28 -27 -51.5t-37.5 -40t-50.5 -26t-67 -9.5zM230 393 q-30 0 -49.5 -22t-21.5 -73h132q0 48 -16 71.5t-45 23.5zM340 675v-85h-228v85h228z" />
<glyph unicode="&#x114;" horiz-adv-x="518" d="M64 0zM64 0v700h419v-122h-281v-164h239v-125h-239v-167h279v-122h-417zM332 906h81q0 -39 -9.5 -65.5t-27 -42.5t-43 -23t-57.5 -7q-33 0 -58 7t-42.5 23t-26.5 42.5t-9 65.5h81q0 -36 13 -49.5t42 -13.5t42.5 13.5t13.5 49.5z" />
<glyph unicode="&#x115;" horiz-adv-x="440" d="M30 0zM232 -14q-45 0 -82 15.5t-64 48t-41.5 81.5t-14.5 115q0 125 52.5 194.5t148.5 69.5q48 0 83 -19.5t57.5 -53t33 -79.5t10.5 -98q0 -30 -3 -58h-252q4 -55 25.5 -78t58.5 -23q54 0 71 58l99 -46q-11 -28 -27 -51.5t-37.5 -40t-50.5 -26t-67 -9.5zM230 393 q-30 0 -49.5 -22t-21.5 -73h132q0 48 -16 71.5t-45 23.5zM281 702h81q0 -39 -9.5 -65.5t-27 -42.5t-43 -23t-57.5 -7q-33 0 -58 7t-42.5 23t-26.5 42.5t-9 65.5h81q0 -36 13 -49.5t42 -13.5t42.5 13.5t13.5 49.5z" />
<glyph unicode="&#x116;" horiz-adv-x="518" d="M64 0zM64 0v700h419v-122h-281v-164h239v-125h-239v-167h279v-122h-417zM202 848q0 72 73 72q72 0 72 -72q0 -73 -72 -73q-73 0 -73 73z" />
<glyph unicode="&#x117;" horiz-adv-x="440" d="M30 0zM232 -14q-45 0 -82 15.5t-64 48t-41.5 81.5t-14.5 115q0 125 52.5 194.5t148.5 69.5q48 0 83 -19.5t57.5 -53t33 -79.5t10.5 -98q0 -30 -3 -58h-252q4 -55 25.5 -78t58.5 -23q54 0 71 58l99 -46q-11 -28 -27 -51.5t-37.5 -40t-50.5 -26t-67 -9.5zM230 393 q-30 0 -49.5 -22t-21.5 -73h132q0 48 -16 71.5t-45 23.5zM151 644q0 72 73 72q72 0 72 -72q0 -73 -72 -73q-73 0 -73 73z" />
<glyph unicode="&#x118;" horiz-adv-x="518" d="M490 -196q-20 -15 -41 -23t-47 -8q-22 0 -43.5 6t-39 20.5t-28 39t-10.5 61.5q0 31 10 56.5t26 43.5h-253v700h419v-122h-281v-164h239v-125h-239v-167h279v-122h-51q-38 -4 -54.5 -29.5t-16.5 -55.5q0 -32 16.5 -44.5t36.5 -12.5q25 0 45 17z" />
<glyph unicode="&#x119;" horiz-adv-x="440" d="M285 -227q-21 0 -42.5 6t-38.5 20.5t-27.5 39t-10.5 61.5q0 27 7 49.5t19 39.5q-74 14 -118 76.5t-44 180.5q0 125 52.5 194.5t148.5 69.5q48 0 83 -19.5t57.5 -53t33 -79.5t10.5 -98q0 -30 -3 -58h-252q4 -55 25.5 -78t58.5 -23q54 0 71 58l99 -46q-19 -47 -50 -79 t-82 -43q-21 -12 -30 -32.5t-9 -43.5q0 -32 16 -44.5t36 -12.5q26 0 46 17l33 -71q-20 -15 -41.5 -23t-47.5 -8zM230 393q-30 0 -49.5 -22t-21.5 -73h132q0 48 -16 71.5t-45 23.5z" />
<glyph unicode="&#x11a;" horiz-adv-x="518" d="M64 0zM64 0v700h419v-122h-281v-164h239v-125h-239v-167h279v-122h-417zM279 848l46 59h103v-3l-96 -129h-111l-93 129v3h108z" />
<glyph unicode="&#x11b;" horiz-adv-x="440" d="M30 0zM232 -14q-45 0 -82 15.5t-64 48t-41.5 81.5t-14.5 115q0 125 52.5 194.5t148.5 69.5q48 0 83 -19.5t57.5 -53t33 -79.5t10.5 -98q0 -30 -3 -58h-252q4 -55 25.5 -78t58.5 -23q54 0 71 58l99 -46q-11 -28 -27 -51.5t-37.5 -40t-50.5 -26t-67 -9.5zM230 393 q-30 0 -49.5 -22t-21.5 -73h132q0 48 -16 71.5t-45 23.5zM228 644l46 59h103v-3l-96 -129h-111l-93 129v3h108z" />
<glyph unicode="&#x11c;" horiz-adv-x="579" d="M41 0zM279 -14q-111 0 -174.5 89.5t-63.5 275.5q0 95 16.5 163.5t49.5 113t82.5 65.5t116.5 21q42 0 78.5 -9.5t65.5 -31t49.5 -56.5t32.5 -87l-123 -43q-15 56 -41 77t-63 21q-30 0 -52.5 -11t-37.5 -38t-23 -72.5t-8 -113.5q0 -69 8.5 -115.5t24 -75t38.5 -40.5t53 -12 q18 0 35 7t30.5 23.5t22.5 42.5t10 65v14h-99v116h227v-375h-95l-12 78q-21 -45 -59 -68.5t-89 -23.5zM302 834l-43 -59h-103v4l94 128h111l95 -128v-4h-108z" />
<glyph unicode="&#x11d;" horiz-adv-x="488" d="M21 0zM230 630l-43 -59h-103v4l94 128h111l95 -128v-4h-108zM305 257q0 70 -20 105t-52 35q-35 0 -53 -34t-18 -107q0 -74 18.5 -109t50.5 -35q35 0 54.5 36.5t19.5 108.5zM220 -220q-79 0 -127 31.5t-72 93.5l107 58q23 -71 86 -71q89 0 89 127v63q-17 -37 -46.5 -57 t-67.5 -20q-70 0 -114.5 61t-44.5 188q0 128 47.5 192t127.5 64q75 0 116 -82l8 68h111v-462q0 -128 -59 -191t-161 -63z" />
<glyph unicode="&#x11e;" horiz-adv-x="579" d="M41 0zM279 -14q-111 0 -174.5 89.5t-63.5 275.5q0 95 16.5 163.5t49.5 113t82.5 65.5t116.5 21q42 0 78.5 -9.5t65.5 -31t49.5 -56.5t32.5 -87l-123 -43q-15 56 -41 77t-63 21q-30 0 -52.5 -11t-37.5 -38t-23 -72.5t-8 -113.5q0 -69 8.5 -115.5t24 -75t38.5 -40.5t53 -12 q18 0 35 7t30.5 23.5t22.5 42.5t10 65v14h-99v116h227v-375h-95l-12 78q-21 -45 -59 -68.5t-89 -23.5zM360 906h81q0 -39 -9.5 -65.5t-27 -42.5t-43 -23t-57.5 -7q-33 0 -58 7t-42.5 23t-26.5 42.5t-9 65.5h81q0 -36 13 -49.5t42 -13.5t42.5 13.5t13.5 49.5z" />
<glyph unicode="&#x11f;" horiz-adv-x="488" d="M21 0zM305 257q0 70 -20 105t-52 35q-35 0 -53 -34t-18 -107q0 -74 18.5 -109t50.5 -35q35 0 54.5 36.5t19.5 108.5zM220 -220q-79 0 -127 31.5t-72 93.5l107 58q23 -71 86 -71q89 0 89 127v63q-17 -37 -46.5 -57t-67.5 -20q-70 0 -114.5 61t-44.5 188q0 128 47.5 192 t127.5 64q75 0 116 -82l8 68h111v-462q0 -128 -59 -191t-161 -63zM287 702h81q0 -39 -9.5 -65.5t-27 -42.5t-43 -23t-57.5 -7q-33 0 -58 7t-42.5 23t-26.5 42.5t-9 65.5h81q0 -36 13 -49.5t42 -13.5t42.5 13.5t13.5 49.5z" />
<glyph unicode="&#x120;" horiz-adv-x="579" d="M41 0zM279 -14q-111 0 -174.5 89.5t-63.5 275.5q0 95 16.5 163.5t49.5 113t82.5 65.5t116.5 21q42 0 78.5 -9.5t65.5 -31t49.5 -56.5t32.5 -87l-123 -43q-15 56 -41 77t-63 21q-30 0 -52.5 -11t-37.5 -38t-23 -72.5t-8 -113.5q0 -69 8.5 -115.5t24 -75t38.5 -40.5t53 -12 q18 0 35 7t30.5 23.5t22.5 42.5t10 65v14h-99v116h227v-375h-95l-12 78q-21 -45 -59 -68.5t-89 -23.5zM230 848q0 72 73 72q72 0 72 -72q0 -73 -72 -73q-73 0 -73 73z" />
<glyph unicode="&#x121;" horiz-adv-x="488" d="M21 0zM305 257q0 70 -20 105t-52 35q-35 0 -53 -34t-18 -107q0 -74 18.5 -109t50.5 -35q35 0 54.5 36.5t19.5 108.5zM220 -220q-79 0 -127 31.5t-72 93.5l107 58q23 -71 86 -71q89 0 89 127v63q-17 -37 -46.5 -57t-67.5 -20q-70 0 -114.5 61t-44.5 188q0 128 47.5 192 t127.5 64q75 0 116 -82l8 68h111v-462q0 -128 -59 -191t-161 -63zM159 644q0 72 73 72q72 0 72 -72q0 -73 -72 -73q-73 0 -73 73z" />
<glyph unicode="&#x122;" horiz-adv-x="579" d="M41 0zM279 -14q-111 0 -174.5 89.5t-63.5 275.5q0 95 16.5 163.5t49.5 113t82.5 65.5t116.5 21q42 0 78.5 -9.5t65.5 -31t49.5 -56.5t32.5 -87l-123 -43q-15 56 -41 77t-63 21q-30 0 -52.5 -11t-37.5 -38t-23 -72.5t-8 -113.5q0 -69 8.5 -115.5t24 -75t38.5 -40.5t53 -12 q18 0 35 7t30.5 23.5t22.5 42.5t10 65v14h-99v116h227v-375h-95l-12 78q-21 -45 -59 -68.5t-89 -23.5zM366 -147q0 -69 -33 -117t-84 -63l-30 52q27 12 47 32.5t25 47.5q-32 -1 -50 16t-18 51q0 72 71 72q34 0 53 -23t19 -68z" />
<glyph unicode="&#x123;" horiz-adv-x="487" d="M150 652q0 69 33 117t84 63l30 -52q-27 -12 -47 -32.5t-25 -47.5q32 1 50 -16t18 -51q0 -72 -71 -72q-34 0 -53 23t-19 68zM305 257q0 70 -20 105t-52 35q-35 0 -53 -34t-18 -107q0 -74 18.5 -109t50.5 -35q35 0 54.5 36.5t19.5 108.5zM220 -220q-79 0 -127 31.5 t-72 93.5l107 58q23 -71 86 -71q89 0 89 127v63q-17 -37 -46.5 -57t-67.5 -20q-70 0 -114.5 61t-44.5 188q0 128 47.5 192t127.5 64q75 0 116 -82l8 68h111v-462q0 -128 -59 -191t-161 -63z" />
<glyph unicode="&#x124;" horiz-adv-x="618" d="M64 0zM411 0v284h-204v-284h-143v700h143v-284h204v284h143v-700h-143zM306 834l-43 -59h-103v4l94 128h111l95 -128v-4h-108z" />
<glyph unicode="&#x125;" horiz-adv-x="499" d="M0 0zM317 284q0 54 -15 75.5t-42 21.5q-33 0 -52.5 -33.5t-20.5 -99.5v-248h-137v700h137v-295q20 53 54.5 79t76.5 26q70 0 103 -52.5t33 -138.5v-319h-137v284zM117 834l-43 -59h-103v4l94 128h111l95 -128v-4h-108z" />
<glyph unicode="&#x126;" horiz-adv-x="641" d="M219 416h204v85h-204v-85zM423 0v284h-204v-284h-143v501h-49v81h49v118h143v-118h204v118h143v-118h48v-81h-48v-501h-143z" />
<glyph unicode="&#x127;" horiz-adv-x="507" d="M196 242v-242h-137v547h-45v81h45v72h137v-72h93v-81h-93v-147q20 54 54.5 80t76.5 26q70 0 102.5 -54.5t32.5 -144.5v-307h-137v271q0 58 -15 81t-41 23q-33 0 -52.5 -33t-20.5 -100z" />
<glyph unicode="&#x128;" horiz-adv-x="270" d="M0 0zM64 0v700h143v-700h-143zM201 902h78q2 -34 -4.5 -57t-18.5 -37t-27 -20t-30 -6q-18 0 -32.5 5.5t-27.5 12t-24.5 12t-22.5 5.5q-13 0 -17 -10.5t-4 -23.5h-78q-2 34 4.5 57.5t18 37t26.5 19.5t30 6q18 0 33 -5.5t28 -12t24.5 -12t22.5 -5.5q14 0 17.5 10t3.5 24z " />
<glyph unicode="&#x129;" horiz-adv-x="236" d="M0 0zM50 496h137v-496h-137v496zM183 698h78q2 -34 -4.5 -57t-18.5 -37t-27 -20t-30 -6q-18 0 -32.5 5.5t-27.5 12t-24.5 12t-22.5 5.5q-13 0 -17 -10.5t-4 -23.5h-78q-2 34 4.5 57.5t18 37t26.5 19.5t30 6q18 0 33 -5.5t28 -12t24.5 -12t22.5 -5.5q14 0 17.5 10t3.5 24z " />
<glyph unicode="&#x12a;" horiz-adv-x="270" d="M22 0zM64 0v700h143v-700h-143zM250 879v-85h-228v85h228z" />
<glyph unicode="&#x12b;" horiz-adv-x="236" d="M5 0zM50 496h137v-496h-137v496zM233 675v-85h-228v85h228z" />
<glyph unicode="&#x12c;" horiz-adv-x="270" d="M0 0zM64 0v700h143v-700h-143zM192 906h81q0 -39 -9.5 -65.5t-27 -42.5t-43 -23t-57.5 -7q-33 0 -58 7t-42.5 23t-26.5 42.5t-9 65.5h81q0 -36 13 -49.5t42 -13.5t42.5 13.5t13.5 49.5z" />
<glyph unicode="&#x12d;" horiz-adv-x="236" d="M0 0zM50 496h137v-496h-137v496zM174 702h81q0 -39 -9.5 -65.5t-27 -42.5t-43 -23t-57.5 -7q-33 0 -58 7t-42.5 23t-26.5 42.5t-9 65.5h81q0 -36 13 -49.5t42 -13.5t42.5 13.5t13.5 49.5z" />
<glyph unicode="&#x12e;" horiz-adv-x="270" d="M207 -196q-20 -15 -41.5 -23t-47.5 -8q-22 0 -43.5 6t-38.5 20.5t-27.5 39t-10.5 61.5q0 45 19 77t47 49v674h143v-700h-61q-38 -4 -54.5 -29.5t-16.5 -55.5q0 -32 16.5 -44.5t36.5 -12.5q25 0 45 17z" />
<glyph unicode="&#x12f;" horiz-adv-x="236" d="M40 648q0 39 20.5 59t57.5 20t57.5 -20t20.5 -59q0 -38 -20.5 -59t-57.5 -21t-57.5 21t-20.5 59zM184 -196q-20 -15 -41 -23t-47 -8q-22 0 -43.5 6t-39 20.5t-28 39t-10.5 61.5q0 48 22 81.5t53 50.5v464h137v-496h-63q-38 -4 -54.5 -29.5t-16.5 -55.5q0 -32 16.5 -44.5 t36.5 -12.5q25 0 45 17z" />
<glyph unicode="&#x130;" horiz-adv-x="270" d="M62 0zM64 0v700h143v-700h-143zM62 848q0 72 73 72q72 0 72 -72q0 -73 -72 -73q-73 0 -73 73z" />
<glyph unicode="&#x131;" horiz-adv-x="236" d="M50 496h137v-496h-137v496z" />
<glyph unicode="&#x132;" horiz-adv-x="702" d="M64 0zM64 0v700h143v-700h-143zM651 250q0 -74 -16.5 -124t-45.5 -81.5t-70 -45t-89 -13.5q-38 0 -80.5 13t-75.5 46l63 105q20 -18 42 -27t44 -9q39 0 62 30t23 102v454h143v-450z" />
<glyph unicode="&#x133;" horiz-adv-x="468" d="M40 0zM40 648q0 39 20.5 59t57.5 20t57.5 -20t20.5 -59q0 -38 -20.5 -59t-57.5 -21t-57.5 21t-20.5 59zM50 496h137v-496h-137v496zM349 568q-37 0 -57.5 21t-20.5 59q0 39 20.5 59t57.5 20t57.5 -20t20.5 -59q0 -38 -20.5 -59t-57.5 -21zM281 -27v523h137v-533 q0 -94 -43.5 -138.5t-111.5 -44.5q-33 0 -57.5 6.5t-46.5 19.5l33 104q16 -12 39 -12q24 0 37 16.5t13 58.5z" />
<glyph unicode="&#x134;" horiz-adv-x="422" d="M0 0zM373 250q0 -74 -16.5 -124t-45.5 -81.5t-70 -45t-89 -13.5q-38 0 -80.5 13t-75.5 46l63 105q20 -18 42 -27t44 -9q39 0 62 30t23 102v454h143v-450zM296 834l-43 -59h-103v4l94 128h111l95 -128v-4h-108z" />
<glyph unicode="&#x135;" horiz-adv-x="236" d="M0 0zM50 -27v523h137v-533q0 -94 -43.5 -138.5t-111.5 -44.5q-33 0 -58 6.5t-46 18.5l33 105q18 -12 39 -12q24 0 37 16.5t13 58.5zM116 630l-43 -59h-103v4l94 128h111l95 -128v-4h-108z" />
<glyph unicode="&#x136;" horiz-adv-x="558" d="M64 0zM208 188v-188h-144v700h144l-2 -312l183 312h162l-196 -293l200 -407h-168l-126 268zM364 -147q0 -69 -33 -117t-84 -63l-30 52q27 12 47 32.5t25 47.5q-32 -1 -50 16t-18 51q0 72 71 72q34 0 53 -23t19 -68z" />
<glyph unicode="&#x137;" horiz-adv-x="463" d="M50 0zM185 110v-110h-135v700h137l-5 -430l127 226h146l-144 -214l147 -282h-151l-80 173zM317 -147q0 -69 -33 -117t-84 -63l-30 52q27 12 47 32.5t25 47.5q-32 -1 -50 16t-18 51q0 72 71 72q34 0 53 -23t19 -68z" />
<glyph unicode="&#x138;" horiz-adv-x="463" d="M185 110v-110h-135v496h135l-3 -227l127 227h146l-143 -216l146 -280h-151l-81 173z" />
<glyph unicode="&#x139;" horiz-adv-x="493" d="M64 0zM208 129h264v-129h-408v700h144v-571zM279 900l-101 -125h-104v5l63 127h142v-7z" />
<glyph unicode="&#x13a;" horiz-adv-x="236" d="M48 0zM174 0q-58 0 -92 30t-34 104v566h137v-555q0 -20 8.5 -30t20.5 -10h29v-105h-69zM261 900l-101 -125h-104v5l63 127h142v-7z" />
<glyph unicode="&#x13b;" horiz-adv-x="493" d="M64 0zM208 129h264v-129h-408v700h144v-571zM341 -147q0 -69 -33 -117t-84 -63l-30 52q27 12 47 32.5t25 47.5q-32 -1 -50 16t-18 51q0 72 71 72q34 0 53 -23t19 -68z" />
<glyph unicode="&#x13c;" horiz-adv-x="252" d="M48 0zM174 0q-58 0 -92 30t-34 104v566h137v-555q0 -20 8.5 -30t20.5 -10h29v-105h-69zM208 -147q0 -69 -33 -117t-84 -63l-30 52q27 12 47 32.5t25 47.5q-32 -1 -50 16t-18 51q0 72 71 72q34 0 53 -23t19 -68z" />
<glyph unicode="&#x13d;" horiz-adv-x="496" d="M64 0zM395 445h-88l5 256h109zM208 129h264v-129h-408v700h144v-571z" />
<glyph unicode="&#x13e;" horiz-adv-x="341" d="M48 0zM325 446h-88l5 256h109zM174 0q-58 0 -92 30t-34 104v566h137v-555q0 -20 8.5 -30t20.5 -10h29v-105h-69z" />
<glyph unicode="&#x13f;" horiz-adv-x="496" d="M64 0zM208 129h264v-129h-408v700h144v-571zM306 359q0 72 73 72q72 0 72 -72q0 -73 -72 -73q-73 0 -73 73z" />
<glyph unicode="&#x140;" horiz-adv-x="357" d="M48 0zM174 0q-58 0 -92 30t-34 104v566h137v-555q0 -20 8.5 -30t20.5 -10h29v-105h-69zM220 304q0 72 73 72q72 0 72 -72q0 -73 -72 -73q-73 0 -73 73z" />
<glyph unicode="&#x141;" horiz-adv-x="509" d="M488 0h-407v221l-63 -51v122l63 51v357h143v-277l124 93v-123l-124 -93v-171h264v-129z" />
<glyph unicode="&#x142;" horiz-adv-x="274" d="M261 0h-69q-58 0 -92 30t-34 104v88l-58 -59v122l58 59v356h137v-249l62 61v-122l-62 -62v-183q0 -20 8.5 -30t20.5 -10h29v-105z" />
<glyph unicode="&#x143;" horiz-adv-x="613" d="M64 0zM424 0l-230 401l3 -401h-133v700h113l244 -420l-4 420h133v-700h-126zM450 900l-101 -125h-104v5l63 127h142v-7z" />
<glyph unicode="&#x144;" horiz-adv-x="499" d="M50 0zM50 496h113l11 -91q22 54 57.5 79.5t81.5 25.5q37 0 63.5 -13.5t44 -38.5t25.5 -60.5t8 -78.5v-319h-137v286q0 53 -15 74t-42 21q-32 0 -52.5 -33.5t-20.5 -99.5v-248h-137v496zM411 696l-101 -125h-104v5l63 127h142v-7z" />
<glyph unicode="&#x145;" horiz-adv-x="613" d="M64 0zM424 0l-230 401l3 -401h-133v700h113l244 -420l-4 420h133v-700h-126zM381 -147q0 -69 -33 -117t-84 -63l-30 52q27 12 47 32.5t25 47.5q-32 -1 -50 16t-18 51q0 72 71 72q34 0 53 -23t19 -68z" />
<glyph unicode="&#x146;" horiz-adv-x="499" d="M50 0zM50 496h113l11 -91q22 54 57.5 79.5t81.5 25.5q37 0 63.5 -13.5t44 -38.5t25.5 -60.5t8 -78.5v-319h-137v286q0 53 -15 74t-42 21q-32 0 -52.5 -33.5t-20.5 -99.5v-248h-137v496zM326 -147q0 -69 -33 -117t-84 -63l-30 52q27 12 47 32.5t25 47.5q-32 -1 -50 16 t-18 51q0 72 71 72q34 0 53 -23t19 -68z" />
<glyph unicode="&#x147;" horiz-adv-x="613" d="M64 0zM424 0l-230 401l3 -401h-133v700h113l244 -420l-4 420h133v-700h-126zM310 848l46 59h103v-3l-96 -129h-111l-93 129v3h108z" />
<glyph unicode="&#x148;" horiz-adv-x="499" d="M50 0zM50 496h113l11 -91q22 54 57.5 79.5t81.5 25.5q37 0 63.5 -13.5t44 -38.5t25.5 -60.5t8 -78.5v-319h-137v286q0 53 -15 74t-42 21q-32 0 -52.5 -33.5t-20.5 -99.5v-248h-137v496zM271 644l46 59h103v-3l-96 -129h-111l-93 129v3h108z" />
<glyph unicode="&#x14a;" horiz-adv-x="613" d="M415 -22v38l-222 387l3 -403h-132v700h113l245 -422l-4 422h132v-737q0 -94 -43.5 -138.5t-111.5 -44.5q-23 0 -48 4.5t-45 16.5l25 108q20 -11 40 -11q25 0 36.5 17.5t11.5 62.5z" />
<glyph unicode="&#x14b;" horiz-adv-x="499" d="M317 -23v307q0 54 -14.5 75.5t-42.5 21.5q-32 0 -52.5 -34t-20.5 -101v-246h-137v496h113l11 -89q22 53 57.5 78t81.5 25q37 0 63.5 -13.5t44 -38.5t25.5 -60.5t8 -78.5v-359q0 -92 -44 -136t-112 -44q-22 0 -47.5 4.5t-47.5 17.5l27 107q20 -11 40 -11q25 0 36 17.5 t11 61.5z" />
<glyph unicode="&#x14c;" horiz-adv-x="608" d="M41 0zM303 -14q-139 0 -200.5 90t-61.5 275t64 274t200 89q140 0 201.5 -89t61.5 -275t-64.5 -275t-200.5 -89zM305 585q-30 0 -52.5 -11.5t-37.5 -39.5t-22.5 -73.5t-7.5 -112.5q0 -66 7.5 -111.5t22.5 -73t37.5 -40t52.5 -12.5t52 12t36.5 39.5t22 73.5t7.5 114 q0 66 -7.5 111t-22 72.5t-36.5 39.5t-52 12zM415 879v-85h-228v85h228z" />
<glyph unicode="&#x14d;" horiz-adv-x="470" d="M30 0zM30 249q0 134 55 197.5t150 63.5q103 0 154 -62.5t51 -198.5q0 -132 -52.5 -197.5t-152.5 -65.5q-103 0 -154 64.5t-51 198.5zM309 248q0 77 -17.5 110t-57.5 33t-57 -33t-17 -110t18 -110.5t56 -33.5t56.5 33.5t18.5 110.5zM349 675v-85h-228v85h228z" />
<glyph unicode="&#x14e;" horiz-adv-x="608" d="M41 0zM303 -14q-139 0 -200.5 90t-61.5 275t64 274t200 89q140 0 201.5 -89t61.5 -275t-64.5 -275t-200.5 -89zM305 585q-30 0 -52.5 -11.5t-37.5 -39.5t-22.5 -73.5t-7.5 -112.5q0 -66 7.5 -111.5t22.5 -73t37.5 -40t52.5 -12.5t52 12t36.5 39.5t22 73.5t7.5 114 q0 66 -7.5 111t-22 72.5t-36.5 39.5t-52 12zM356 906h81q0 -39 -9.5 -65.5t-27 -42.5t-43 -23t-57.5 -7q-33 0 -58 7t-42.5 23t-26.5 42.5t-9 65.5h81q0 -36 13 -49.5t42 -13.5t42.5 13.5t13.5 49.5z" />
<glyph unicode="&#x14f;" horiz-adv-x="470" d="M30 0zM30 249q0 134 55 197.5t150 63.5q103 0 154 -62.5t51 -198.5q0 -132 -52.5 -197.5t-152.5 -65.5q-103 0 -154 64.5t-51 198.5zM309 248q0 77 -17.5 110t-57.5 33t-57 -33t-17 -110t18 -110.5t56 -33.5t56.5 33.5t18.5 110.5zM291 702h81q0 -39 -9.5 -65.5 t-27 -42.5t-43 -23t-57.5 -7q-33 0 -58 7t-42.5 23t-26.5 42.5t-9 65.5h81q0 -36 13 -49.5t42 -13.5t42.5 13.5t13.5 49.5z" />
<glyph unicode="&#x150;" horiz-adv-x="608" d="M41 0zM303 -14q-139 0 -200.5 90t-61.5 275t64 274t200 89q140 0 201.5 -89t61.5 -275t-64.5 -275t-200.5 -89zM305 585q-30 0 -52.5 -11.5t-37.5 -39.5t-22.5 -73.5t-7.5 -112.5q0 -66 7.5 -111.5t22.5 -73t37.5 -40t52.5 -12.5t52 12t36.5 39.5t22 73.5t7.5 114 q0 66 -7.5 111t-22 72.5t-36.5 39.5t-52 12zM530 901l-103 -126h-95v5l62 127h136v-6zM353 907v-6l-103 -126h-95v5l62 127h136z" />
<glyph unicode="&#x151;" horiz-adv-x="470" d="M30 0zM30 249q0 134 55 197.5t150 63.5q103 0 154 -62.5t51 -198.5q0 -132 -52.5 -197.5t-152.5 -65.5q-103 0 -154 64.5t-51 198.5zM309 248q0 77 -17.5 110t-57.5 33t-57 -33t-17 -110t18 -110.5t56 -33.5t56.5 33.5t18.5 110.5zM464 697l-103 -126h-95v5l62 127h136 v-6zM287 703v-6l-103 -126h-95v5l62 127h136z" />
<glyph unicode="&#x152;" horiz-adv-x="834" d="M314 0q-136 0 -204.5 86.5t-68.5 265.5q0 177 66 262.5t208 85.5h480v-121h-273v-163h235v-125h-235v-169h281v-122h-489zM319 575q-33 0 -58 -12t-42 -38.5t-25.5 -69.5t-8.5 -105q0 -61 8 -104t24 -70t40 -39.5t56 -12.5h72v451h-66z" />
<glyph unicode="&#x153;" horiz-adv-x="724" d="M516 -14q-45 0 -80.5 18t-60.5 60q-48 -78 -140 -78q-103 0 -154.5 64.5t-51.5 198.5t55 197.5t151 63.5t142 -79q25 41 61 60t81 19q47 0 81 -19.5t55.5 -53t31 -79.5t9.5 -98q1 -30 -3 -58h-249q5 -55 26 -78t57 -23q55 0 70 58l99 -46q-11 -28 -26 -51.5t-37 -40 t-50.5 -26t-66.5 -9.5zM514 396q-30 0 -49.5 -23.5t-21.5 -76.5h133q0 50 -16.5 75t-45.5 25zM309 248q0 77 -17.5 110t-56.5 33q-41 0 -58 -33t-17 -110q0 -78 17.5 -112.5t57.5 -34.5q38 0 56 34.5t18 112.5z" />
<glyph unicode="&#x154;" horiz-adv-x="550" d="M64 0zM288 575h-83v-216h83q42 0 66 27.5t24 82.5q0 51 -22 78.5t-68 27.5zM205 235v-235h-141v700h249q52 0 91 -16t65 -46t38.5 -72.5t12.5 -94.5q0 -72 -24.5 -122t-70.5 -77l98 -272h-153l-79 235h-86zM437 900l-101 -125h-104v5l63 127h142v-7z" />
<glyph unicode="&#x155;" horiz-adv-x="325" d="M50 0zM50 0v496h112l12 -99q20 57 55 86.5t81 27.5l1 -143q-63 6 -93.5 -39t-30.5 -127v-202h-137zM344 696l-101 -125h-104v5l63 127h142v-7z" />
<glyph unicode="&#x156;" horiz-adv-x="550" d="M64 0zM288 575h-83v-216h83q42 0 66 27.5t24 82.5q0 51 -22 78.5t-68 27.5zM205 235v-235h-141v700h249q52 0 91 -16t65 -46t38.5 -72.5t12.5 -94.5q0 -72 -24.5 -122t-70.5 -77l98 -272h-153l-79 235h-86zM358 -147q0 -69 -33 -117t-84 -63l-30 52q27 12 47 32.5 t25 47.5q-32 -1 -50 16t-18 51q0 72 71 72q34 0 53 -23t19 -68z" />
<glyph unicode="&#x157;" horiz-adv-x="325" d="M45 0zM50 0v496h112l12 -99q20 57 55 86.5t81 27.5l1 -143q-63 6 -93.5 -39t-30.5 -127v-202h-137zM192 -147q0 -69 -33 -117t-84 -63l-30 52q27 12 47 32.5t25 47.5q-32 -1 -50 16t-18 51q0 72 71 72q34 0 53 -23t19 -68z" />
<glyph unicode="&#x158;" horiz-adv-x="550" d="M64 0zM288 575h-83v-216h83q42 0 66 27.5t24 82.5q0 51 -22 78.5t-68 27.5zM205 235v-235h-141v700h249q52 0 91 -16t65 -46t38.5 -72.5t12.5 -94.5q0 -72 -24.5 -122t-70.5 -77l98 -272h-153l-79 235h-86zM297 848l46 59h103v-3l-96 -129h-111l-93 129v3h108z" />
<glyph unicode="&#x159;" horiz-adv-x="325" d="M50 0zM50 0v496h112l12 -99q20 57 55 86.5t81 27.5l1 -143q-63 6 -93.5 -39t-30.5 -127v-202h-137zM204 644l46 59h103v-3l-96 -129h-111l-93 129v3h108z" />
<glyph unicode="&#x15a;" horiz-adv-x="491" d="M3 0zM458 539l-120 -47q-14 50 -39 73t-63 23q-34 0 -54 -18t-20 -47q0 -30 21 -51t66 -40l41 -17q88 -36 131 -88t43 -133q0 -96 -58 -152t-166 -56q-91 0 -151 40.5t-86 135.5l120 49q29 -104 117 -104q38 0 59.5 22t21.5 52t-17.5 49.5t-61.5 37.5l-40 17 q-49 21 -82.5 45t-54.5 52t-30.5 60t-9.5 68q0 43 13.5 80.5t40.5 65t66.5 43t91.5 15.5q92 0 148.5 -47t72.5 -128zM384 898l-101 -125h-104v5l63 127h142v-7z" />
<glyph unicode="&#x15b;" horiz-adv-x="389" d="M5 0zM189 89q26 0 40 10.5t14 28.5q0 19 -14 30.5t-43 22.5l-28 11q-62 24 -97.5 63t-35.5 104q0 66 45 109t127 43q69 0 111 -31t62 -89l-98 -48q-8 29 -28.5 44t-46.5 15q-21 0 -36 -9t-15 -30q0 -15 11.5 -26.5t42.5 -23.5l37 -14q64 -24 98 -61.5t34 -98.5 q0 -31 -11 -58.5t-33 -48.5t-55.5 -33t-78.5 -12q-80 0 -124.5 31.5t-61.5 87.5l96 48q20 -65 88 -65zM332 696l-101 -125h-104v5l63 127h142v-7z" />
<glyph unicode="&#x15c;" horiz-adv-x="491" d="M3 0zM458 539l-120 -47q-14 50 -39 73t-63 23q-34 0 -54 -18t-20 -47q0 -30 21 -51t66 -40l41 -17q88 -36 131 -88t43 -133q0 -96 -58 -152t-166 -56q-91 0 -151 40.5t-86 135.5l120 49q29 -104 117 -104q38 0 59.5 22t21.5 52t-17.5 49.5t-61.5 37.5l-40 17 q-49 21 -82.5 45t-54.5 52t-30.5 60t-9.5 68q0 43 13.5 80.5t40.5 65t66.5 43t91.5 15.5q92 0 148.5 -47t72.5 -128zM238 832l-43 -59h-103v4l94 128h111l95 -128v-4h-108z" />
<glyph unicode="&#x15d;" horiz-adv-x="389" d="M5 0zM189 89q26 0 40 10.5t14 28.5q0 19 -14 30.5t-43 22.5l-28 11q-62 24 -97.5 63t-35.5 104q0 66 45 109t127 43q69 0 111 -31t62 -89l-98 -48q-8 29 -28.5 44t-46.5 15q-21 0 -36 -9t-15 -30q0 -15 11.5 -26.5t42.5 -23.5l37 -14q64 -24 98 -61.5t34 -98.5 q0 -31 -11 -58.5t-33 -48.5t-55.5 -33t-78.5 -12q-80 0 -124.5 31.5t-61.5 87.5l96 48q20 -65 88 -65zM186 630l-43 -59h-103v4l94 128h111l95 -128v-4h-108z" />
<glyph unicode="&#x15e;" horiz-adv-x="491" d="M233 -252q-38 0 -72 17.5t-51 58.5l60 39q20 -42 57 -42q17 0 28.5 9.5t11.5 27.5q0 17 -10.5 27t-28.5 10q-5 0 -8.5 -0.5t-8.5 -1.5l-19 14l20 80q-80 6 -133 47t-76 128l120 49q29 -104 117 -104q37 0 58.5 22t21.5 53q0 30 -17.5 49.5t-60.5 36.5l-40 17 q-98 39 -137.5 95.5t-39.5 129.5q0 43 13.5 80.5t40.5 65t66.5 43t91.5 15.5q92 0 148.5 -47t72.5 -128l-120 -47q-14 50 -39.5 73t-63.5 23q-32 0 -51.5 -18.5t-19.5 -47.5q0 -30 20.5 -50.5t65.5 -39.5l41 -17q87 -35 130 -87.5t43 -133.5q0 -88 -48 -142t-138 -64 l-12 -42h1q32 -2 56.5 -24.5t24.5 -65.5q0 -28 -9 -48t-25 -33.5t-36.5 -20t-44.5 -6.5z" />
<glyph unicode="&#x15f;" horiz-adv-x="389" d="M181 -249q-38 0 -72.5 17t-51.5 59l60 39q20 -42 58 -42q17 0 28.5 9.5t11.5 27.5q0 17 -10.5 27t-28.5 10q-7 0 -17 -2l-20 14l19 79q-64 6 -100.5 36.5t-52.5 80.5l96 48q20 -65 88 -65q26 0 39.5 10.5t13.5 28.5q0 19 -13.5 30.5t-42.5 22.5l-28 11q-62 24 -97.5 63 t-35.5 104q0 66 45 109t127 43q69 0 111 -31t62 -89l-98 -48q-8 29 -28.5 44t-46.5 15q-20 0 -35 -9t-15 -29q0 -15 11.5 -26.5t42.5 -23.5l37 -14q63 -24 97 -61.5t34 -99.5q0 -28 -8.5 -53.5t-26.5 -45.5t-45.5 -33.5t-64.5 -17.5l-11 -40h1q32 -2 56.5 -24.5t24.5 -65.5 q0 -28 -9 -48t-24.5 -33.5t-36.5 -20t-44 -6.5z" />
<glyph unicode="&#x160;" horiz-adv-x="491" d="M3 0zM458 539l-120 -47q-14 50 -39 73t-63 23q-34 0 -54 -18t-20 -47q0 -30 21 -51t66 -40l41 -17q88 -36 131 -88t43 -133q0 -96 -58 -152t-166 -56q-91 0 -151 40.5t-86 135.5l120 49q29 -104 117 -104q38 0 59.5 22t21.5 52t-17.5 49.5t-61.5 37.5l-40 17 q-49 21 -82.5 45t-54.5 52t-30.5 60t-9.5 68q0 43 13.5 80.5t40.5 65t66.5 43t91.5 15.5q92 0 148.5 -47t72.5 -128zM244 846l46 59h103v-3l-96 -129h-111l-93 129v3h108z" />
<glyph unicode="&#x161;" horiz-adv-x="389" d="M5 0zM189 89q26 0 40 10.5t14 28.5q0 19 -14 30.5t-43 22.5l-28 11q-62 24 -97.5 63t-35.5 104q0 66 45 109t127 43q69 0 111 -31t62 -89l-98 -48q-8 29 -28.5 44t-46.5 15q-21 0 -36 -9t-15 -30q0 -15 11.5 -26.5t42.5 -23.5l37 -14q64 -24 98 -61.5t34 -98.5 q0 -31 -11 -58.5t-33 -48.5t-55.5 -33t-78.5 -12q-80 0 -124.5 31.5t-61.5 87.5l96 48q20 -65 88 -65zM192 644l46 59h103v-3l-96 -129h-111l-93 129v3h108z" />
<glyph unicode="&#x162;" horiz-adv-x="487" d="M13 0zM13 700h461v-131h-160v-569h-143v569h-158v131zM317 -147q0 -69 -33 -117t-84 -63l-30 52q27 12 47 32.5t25 47.5q-32 -1 -50 16t-18 51q0 72 71 72q34 0 53 -23t19 -68z" />
<glyph unicode="&#x163;" horiz-adv-x="324" d="M11 0zM315 15q-17 -13 -43 -21t-56 -8q-66 0 -107.5 37t-41.5 118v244h-56v111h56v142h136v-142h98v-111h-98v-224q0 -34 13 -48t33 -14q11 0 22.5 3t20.5 11zM269 -147q0 -69 -33 -117t-84 -63l-30 52q27 12 47 32.5t25 47.5q-32 -1 -50 16t-18 51q0 72 71 72 q34 0 53 -23t19 -68z" />
<glyph unicode="&#x164;" horiz-adv-x="487" d="M13 0zM13 700h461v-131h-160v-569h-143v569h-158v131zM246 848l46 59h103v-3l-96 -129h-111l-93 129v3h108z" />
<glyph unicode="&#x165;" horiz-adv-x="337" d="M318 553h-80l5 197h99zM315 15q-17 -13 -43 -21t-56 -8q-66 0 -107.5 37t-41.5 118v244h-56v111h56v142h136v-142h98v-111h-98v-224q0 -34 13 -48t33 -14q11 0 22.5 3t20.5 11z" />
<glyph unicode="&#x166;" horiz-adv-x="488" d="M13 700h462v-131h-159v-175h121v-108h-121v-286h-144v286h-120v108h120v175h-159v131z" />
<glyph unicode="&#x167;" horiz-adv-x="324" d="M318 16q-14 -14 -42 -22t-57 -8q-31 0 -58.5 8t-48.5 27.5t-33 51.5t-12 80v85h-54v80h54v67h-54v111h54v142h135v-142h99v-111h-99v-67h99v-80h-99v-72q0 -37 14 -52t34 -15q25 0 45 15z" />
<glyph unicode="&#x168;" horiz-adv-x="588" d="M53 0zM394 237v463h143v-454q0 -130 -64 -195t-178 -65q-115 0 -178.5 65t-63.5 195v454h143v-463q0 -61 26 -90t73 -29q46 0 72.5 29t26.5 90zM360 902h78q2 -34 -4.5 -57t-18.5 -37t-27 -20t-30 -6q-18 0 -32.5 5.5t-27.5 12t-24.5 12t-22.5 5.5q-13 0 -17 -10.5 t-4 -23.5h-78q-2 34 4.5 57.5t18 37t26.5 19.5t30 6q18 0 33 -5.5t28 -12t24.5 -12t22.5 -5.5q14 0 17.5 10t3.5 24z" />
<glyph unicode="&#x169;" horiz-adv-x="496" d="M46 0zM447 0h-113l-10 84q-21 -50 -56 -74t-77 -24q-39 0 -66.5 14t-45 39t-25.5 59.5t-8 75.5v322h138v-293q0 -50 14 -72t43 -22t48 31t20 97v259h138v-496zM311 698h78q2 -34 -4.5 -57t-18.5 -37t-27 -20t-30 -6q-18 0 -32.5 5.5t-27.5 12t-24.5 12t-22.5 5.5 q-13 0 -17 -10.5t-4 -23.5h-78q-2 34 4.5 57.5t18 37t26.5 19.5t30 6q18 0 33 -5.5t28 -12t24.5 -12t22.5 -5.5q14 0 17.5 10t3.5 24z" />
<glyph unicode="&#x16a;" horiz-adv-x="588" d="M53 0zM394 237v463h143v-454q0 -130 -64 -195t-178 -65q-115 0 -178.5 65t-63.5 195v454h143v-463q0 -61 26 -90t73 -29q46 0 72.5 29t26.5 90zM410 879v-85h-228v85h228z" />
<glyph unicode="&#x16b;" horiz-adv-x="496" d="M46 0zM447 0h-113l-10 84q-21 -50 -56 -74t-77 -24q-39 0 -66.5 14t-45 39t-25.5 59.5t-8 75.5v322h138v-293q0 -50 14 -72t43 -22t48 31t20 97v259h138v-496zM360 675v-85h-228v85h228z" />
<glyph unicode="&#x16c;" horiz-adv-x="588" d="M53 0zM394 237v463h143v-454q0 -130 -64 -195t-178 -65q-115 0 -178.5 65t-63.5 195v454h143v-463q0 -61 26 -90t73 -29q46 0 72.5 29t26.5 90zM351 906h81q0 -39 -9.5 -65.5t-27 -42.5t-43 -23t-57.5 -7q-33 0 -58 7t-42.5 23t-26.5 42.5t-9 65.5h81q0 -36 13 -49.5 t42 -13.5t42.5 13.5t13.5 49.5z" />
<glyph unicode="&#x16d;" horiz-adv-x="496" d="M46 0zM447 0h-113l-10 84q-21 -50 -56 -74t-77 -24q-39 0 -66.5 14t-45 39t-25.5 59.5t-8 75.5v322h138v-293q0 -50 14 -72t43 -22t48 31t20 97v259h138v-496zM302 702h81q0 -39 -9.5 -65.5t-27 -42.5t-43 -23t-57.5 -7q-33 0 -58 7t-42.5 23t-26.5 42.5t-9 65.5h81 q0 -36 13 -49.5t42 -13.5t42.5 13.5t13.5 49.5z" />
<glyph unicode="&#x16e;" horiz-adv-x="588" d="M53 0zM394 237v463h143v-454q0 -130 -64 -195t-178 -65q-115 0 -178.5 65t-63.5 195v454h143v-463q0 -61 26 -90t73 -29q46 0 72.5 29t26.5 90zM197 857q0 48 27.5 74t70.5 26q42 0 69 -26t27 -74q0 -50 -27 -76t-69 -26q-43 0 -70.5 26t-27.5 76zM256 857 q0 -22 11 -34.5t28 -12.5q16 0 27.5 12.5t11.5 34.5q0 21 -11.5 33t-27.5 12q-17 0 -28 -12t-11 -33z" />
<glyph unicode="&#x16f;" horiz-adv-x="496" d="M46 0zM447 0h-113l-10 84q-21 -50 -56 -74t-77 -24q-39 0 -66.5 14t-45 39t-25.5 59.5t-8 75.5v322h138v-293q0 -50 14 -72t43 -22t48 31t20 97v259h138v-496zM148 653q0 48 27.5 74t70.5 26q42 0 69 -26t27 -74q0 -50 -27 -76t-69 -26q-43 0 -70.5 26t-27.5 76zM207 653 q0 -22 11 -34.5t28 -12.5q16 0 27.5 12.5t11.5 34.5q0 21 -11.5 33t-27.5 12q-17 0 -28 -12t-11 -33z" />
<glyph unicode="&#x170;" horiz-adv-x="588" d="M53 0zM394 237v463h143v-454q0 -130 -64 -195t-178 -65q-115 0 -178.5 65t-63.5 195v454h143v-463q0 -61 26 -90t73 -29q46 0 72.5 29t26.5 90zM525 901l-103 -126h-95v5l62 127h136v-6zM348 907v-6l-103 -126h-95v5l62 127h136z" />
<glyph unicode="&#x171;" horiz-adv-x="496" d="M46 0zM447 0h-113l-10 84q-21 -50 -56 -74t-77 -24q-39 0 -66.5 14t-45 39t-25.5 59.5t-8 75.5v322h138v-293q0 -50 14 -72t43 -22t48 31t20 97v259h138v-496zM475 697l-103 -126h-95v5l62 127h136v-6zM298 703v-6l-103 -126h-95v5l62 127h136z" />
<glyph unicode="&#x172;" horiz-adv-x="588" d="M367 -227q-22 0 -43.5 6t-38.5 20.5t-27.5 39t-10.5 61.5q0 26 7 47.5t18 38.5q-107 6 -163 70.5t-56 185.5v458h143v-463q0 -61 26 -90t73 -29t72.5 29t25.5 90v463h143v-458q0 -109 -44.5 -170.5t-126.5 -78.5q-21 -12 -31 -33t-10 -45q0 -32 16.5 -44.5t36.5 -12.5 q25 0 45 17l34 -71q-20 -15 -41.5 -23t-47.5 -8z" />
<glyph unicode="&#x173;" horiz-adv-x="496" d="M482 -196q-20 -15 -41.5 -23t-47.5 -8q-22 0 -43.5 6t-38.5 20.5t-27.5 39t-10.5 61.5q0 42 16.5 72.5t41.5 49.5l-7 62q-21 -50 -56 -74t-77 -24q-39 0 -66.5 14t-45 39t-25.5 59.5t-8 75.5v322h138v-293q0 -50 14 -72t43 -22t48 31t20 97v259h138v-496h-26 q-38 -4 -54.5 -29.5t-16.5 -55.5q0 -32 16.5 -44.5t36.5 -12.5q25 0 45 17z" />
<glyph unicode="&#x174;" horiz-adv-x="753" d="M7 0zM306 699h144l81 -475l79 476h136l-146 -700h-149l-75 471l-73 -471h-149l-147 700h141l82 -475zM373 834l-43 -59h-103v4l94 128h111l95 -128v-4h-108z" />
<glyph unicode="&#x175;" horiz-adv-x="622" d="M10 0zM253 494h122l60 -312l53 314h124l-116 -496h-129l-56 312l-55 -312h-129l-117 496h129l55 -312zM305 630l-43 -59h-103v4l94 128h111l95 -128v-4h-108z" />
<glyph unicode="&#x176;" horiz-adv-x="541" d="M7 0zM199 263l-192 437h155l111 -296l113 296h148l-192 -440v-260h-143v263zM273 834l-43 -59h-103v4l94 128h111l95 -128v-4h-108z" />
<glyph unicode="&#x177;" horiz-adv-x="450" d="M7 0zM147 -44l9 40l-149 500h144l76 -333l76 333h140l-176 -588q-11 -37 -27 -61.5t-36.5 -39.5t-45.5 -21t-53 -6q-31 0 -53 5t-44 16l23 107q17 -8 32 -11.5t24 -3.5q26 0 39 14t21 49zM222 630l-43 -59h-103v4l94 128h111l95 -128v-4h-108z" />
<glyph unicode="&#x178;" horiz-adv-x="541" d="M7 0zM199 263l-192 437h155l111 -296l113 296h148l-192 -440v-260h-143v263zM302 850q0 34 18 52t51 18q71 0 71 -70q0 -74 -71 -74q-33 0 -51 19t-18 55zM121 850q0 34 18.5 52t51.5 18q70 0 70 -70q0 -74 -70 -74q-33 0 -51.5 19t-18.5 55z" />
<glyph unicode="&#x179;" horiz-adv-x="479" d="M17 0zM17 0v98l271 479l-261 -3v126h426v-97l-269 -480l275 3v-126h-442zM381 900l-101 -125h-104v5l63 127h142v-7z" />
<glyph unicode="&#x17a;" horiz-adv-x="392" d="M22 0zM22 0v89l191 296h-188v111h337v-93l-188 -292h196v-111h-348zM340 696l-101 -125h-104v5l63 127h142v-7z" />
<glyph unicode="&#x17b;" horiz-adv-x="479" d="M17 0zM17 0v98l271 479l-261 -3v126h426v-97l-269 -480l275 3v-126h-442zM164 848q0 72 73 72q72 0 72 -72q0 -73 -72 -73q-73 0 -73 73z" />
<glyph unicode="&#x17c;" horiz-adv-x="392" d="M22 0zM22 0v89l191 296h-188v111h337v-93l-188 -292h196v-111h-348zM122 644q0 72 73 72q72 0 72 -72q0 -73 -72 -73q-73 0 -73 73z" />
<glyph unicode="&#x17d;" horiz-adv-x="479" d="M17 0zM17 0v98l271 479l-261 -3v126h426v-97l-269 -480l275 3v-126h-442zM241 848l46 59h103v-3l-96 -129h-111l-93 129v3h108z" />
<glyph unicode="&#x17e;" horiz-adv-x="392" d="M22 0zM22 0v89l191 296h-188v111h337v-93l-188 -292h196v-111h-348zM200 644l46 59h103v-3l-96 -129h-111l-93 129v3h108z" />
<glyph unicode="&#x192;" horiz-adv-x="343" d="M7 -220q-20 0 -43.5 4.5t-40.5 16.5l31 101q16 -11 36 -11q23 0 36 18.5t19 66.5l33 294h-58l16 109h56l6 53q11 97 54.5 144.5t113.5 47.5q31 0 56.5 -7t41.5 -18l-33 -98q-8 5 -18 8.5t-21 3.5q-23 0 -40.5 -18t-22.5 -66l-5 -50h96l-15 -109h-96l-32 -301 q-11 -97 -57 -143t-113 -46z" />
<glyph unicode="&#x218;" horiz-adv-x="491" d="M3 0zM458 539l-120 -47q-14 50 -39 73t-63 23q-34 0 -54 -18t-20 -47q0 -30 21 -51t66 -40l41 -17q88 -36 131 -88t43 -133q0 -96 -58 -152t-166 -56q-91 0 -151 40.5t-86 135.5l120 49q29 -104 117 -104q38 0 59.5 22t21.5 52t-17.5 49.5t-61.5 37.5l-40 17 q-49 21 -82.5 45t-54.5 52t-30.5 60t-9.5 68q0 43 13.5 80.5t40.5 65t66.5 43t91.5 15.5q92 0 148.5 -47t72.5 -128zM313 -150q0 -69 -33 -117t-84 -63l-30 52q27 12 47 32.5t25 47.5q-32 -1 -50 16t-18 51q0 72 71 72q34 0 53 -23t19 -68z" />
<glyph unicode="&#x219;" horiz-adv-x="389" d="M5 0zM189 89q26 0 40 10.5t14 28.5q0 19 -14 30.5t-43 22.5l-28 11q-62 24 -97.5 63t-35.5 104q0 66 45 109t127 43q69 0 111 -31t62 -89l-98 -48q-8 29 -28.5 44t-46.5 15q-21 0 -36 -9t-15 -30q0 -15 11.5 -26.5t42.5 -23.5l37 -14q64 -24 98 -61.5t34 -98.5 q0 -31 -11 -58.5t-33 -48.5t-55.5 -33t-78.5 -12q-80 0 -124.5 31.5t-61.5 87.5l96 48q20 -65 88 -65zM261 -147q0 -69 -33 -117t-84 -63l-30 52q27 12 47 32.5t25 47.5q-32 -1 -50 16t-18 51q0 72 71 72q34 0 53 -23t19 -68z" />
<glyph unicode="&#x237;" horiz-adv-x="236" d="M50 -27v523h137v-533q0 -94 -43.5 -138.5t-111.5 -44.5q-33 0 -58 6.5t-46 18.5l33 105q18 -12 39 -12q24 0 37 16.5t13 58.5z" />
<glyph unicode="&#x2c6;" horiz-adv-x="459" d="M228 630l-43 -59h-103v4l94 128h111l95 -128v-4h-108z" />
<glyph unicode="&#x2c7;" horiz-adv-x="459" d="M231 644l46 59h103v-3l-96 -129h-111l-93 129v3h108z" />
<glyph unicode="&#x2d8;" horiz-adv-x="459" d="M285 702h81q0 -39 -9.5 -65.5t-27 -42.5t-43 -23t-57.5 -7q-33 0 -58 7t-42.5 23t-26.5 42.5t-9 65.5h81q0 -36 13 -49.5t42 -13.5t42.5 13.5t13.5 49.5z" />
<glyph unicode="&#x2d9;" horiz-adv-x="459" d="M157 644q0 72 73 72q72 0 72 -72q0 -73 -72 -73q-73 0 -73 73z" />
<glyph unicode="&#x2da;" horiz-adv-x="459" d="M133 653q0 48 27.5 74t70.5 26q42 0 69 -26t27 -74q0 -50 -27 -76t-69 -26q-43 0 -70.5 26t-27.5 76zM192 653q0 -22 11 -34.5t28 -12.5q16 0 27.5 12.5t11.5 34.5q0 21 -11.5 33t-27.5 12q-17 0 -28 -12t-11 -33z" />
<glyph unicode="&#x2db;" horiz-adv-x="459" d="M250 -227q-22 0 -43.5 6t-38.5 20.5t-27.5 39t-10.5 61.5t13 65.5t33.5 47.5t47 28t53.5 7l1 -48q-38 -4 -54.5 -29.5t-16.5 -55.5q0 -32 16 -44.5t36 -12.5q26 0 46 17l33 -71q-20 -15 -41 -23t-47 -8z" />
<glyph unicode="&#x2dc;" horiz-adv-x="459" d="M299 698h78q2 -34 -4.5 -57t-18.5 -37t-27 -20t-30 -6q-18 0 -32.5 5.5t-27.5 12t-24.5 12t-22.5 5.5q-13 0 -17 -10.5t-4 -23.5h-78q-2 34 4.5 57.5t18 37t26.5 19.5t30 6q18 0 33 -5.5t28 -12t24.5 -12t22.5 -5.5q14 0 17.5 10t3.5 24z" />
<glyph unicode="&#x2dd;" horiz-adv-x="459" d="M463 697l-103 -126h-95v5l62 127h136v-6zM286 703v-6l-103 -126h-95v5l62 127h136z" />
<glyph unicode="&#x1e80;" horiz-adv-x="753" d="M7 0zM306 699h144l81 -475l79 476h136l-146 -700h-149l-75 471l-73 -471h-149l-147 700h141l82 -475zM334 776l-102 125v7h147l61 -127v-5h-106z" />
<glyph unicode="&#x1e81;" horiz-adv-x="622" d="M10 0zM253 494h122l60 -312l53 314h124l-116 -496h-129l-56 312l-55 -312h-129l-117 496h129l55 -312zM265 572l-102 125v7h147l61 -127v-5h-106z" />
<glyph unicode="&#x1e82;" horiz-adv-x="753" d="M7 0zM306 699h144l81 -475l79 476h136l-146 -700h-149l-75 471l-73 -471h-149l-147 700h141l82 -475zM520 900l-101 -125h-104v5l63 127h142v-7z" />
<glyph unicode="&#x1e83;" horiz-adv-x="622" d="M10 0zM253 494h122l60 -312l53 314h124l-116 -496h-129l-56 312l-55 -312h-129l-117 496h129l55 -312zM451 696l-101 -125h-104v5l63 127h142v-7z" />
<glyph unicode="&#x1e84;" horiz-adv-x="753" d="M7 0zM306 699h144l81 -475l79 476h136l-146 -700h-149l-75 471l-73 -471h-149l-147 700h141l82 -475zM402 850q0 34 18 52t51 18q71 0 71 -70q0 -74 -71 -74q-33 0 -51 19t-18 55zM221 850q0 34 18.5 52t51.5 18q70 0 70 -70q0 -74 -70 -74q-33 0 -51.5 19t-18.5 55z" />
<glyph unicode="&#x1e85;" horiz-adv-x="622" d="M10 0zM253 494h122l60 -312l53 314h124l-116 -496h-129l-56 312l-55 -312h-129l-117 496h129l55 -312zM334 646q0 34 18 52t51 18q71 0 71 -70q0 -74 -71 -74q-33 0 -51 19t-18 55zM153 646q0 34 18.5 52t51.5 18q70 0 70 -70q0 -74 -70 -74q-33 0 -51.5 19t-18.5 55z " />
<glyph unicode="&#x2000;" horiz-adv-x="478" />
<glyph unicode="&#x2001;" horiz-adv-x="957" />
<glyph unicode="&#x2002;" horiz-adv-x="380" />
<glyph unicode="&#x2003;" horiz-adv-x="759" />
<glyph unicode="&#x2004;" horiz-adv-x="253" />
<glyph unicode="&#x2005;" horiz-adv-x="191" />
<glyph unicode="&#x2006;" horiz-adv-x="127" />
<glyph unicode="&#x2007;" horiz-adv-x="475" />
<glyph unicode="&#x2008;" horiz-adv-x="201" />
<glyph unicode="&#x2009;" horiz-adv-x="152" />
<glyph unicode="&#x200a;" horiz-adv-x="76" />
<glyph unicode="&#x200b;" horiz-adv-x="0" />
<glyph unicode="&#x2010;" horiz-adv-x="377" d="M337 325v-117h-298v117h298z" />
<glyph unicode="&#x2011;" horiz-adv-x="377" d="M337 325v-117h-298v117h298z" />
<glyph unicode="&#x2012;" horiz-adv-x="450" d="M412 325v-117h-373v117h373z" />
<glyph unicode="&#x2013;" horiz-adv-x="450" d="M412 325v-117h-373v117h373z" />
<glyph unicode="&#x2014;" horiz-adv-x="601" d="M563 325v-117h-524v117h524z" />
<glyph unicode="&#x2015;" horiz-adv-x="827" d="M788 325v-117h-749v117h749z" />
<glyph unicode="&#x2018;" horiz-adv-x="195" d="M140 747l30 -56q-26 -11 -45 -31.5t-24 -48.5q29 -2 46 -21t17 -54q0 -37 -18.5 -56.5t-53.5 -19.5t-53.5 23t-18.5 68q0 71 31 123.5t89 72.5z" />
<glyph unicode="&#x2019;" horiz-adv-x="195" d="M52 453l-30 56q26 12 44.5 32t24.5 48q-29 2 -46 20.5t-17 53.5q0 38 18.5 57.5t53.5 19.5q71 0 71 -91q0 -71 -30.5 -123.5t-88.5 -72.5z" />
<glyph unicode="&#x201a;" horiz-adv-x="196" d="M52 -138l-30 55q26 11 44.5 31t23.5 48q-29 2 -46 20.5t-17 53.5q0 36 19 55.5t53 19.5q71 0 71 -90q0 -69 -30.5 -121t-87.5 -72z" />
<glyph unicode="&#x201c;" horiz-adv-x="366" d="M140 747l30 -56q-26 -11 -45 -31.5t-24 -48.5q29 -2 46 -21t17 -54q0 -37 -18.5 -56.5t-53.5 -19.5t-53.5 23t-18.5 68q0 71 31 123.5t89 72.5zM312 747l30 -56q-26 -11 -45 -31.5t-24 -48.5q29 -2 46 -21t17 -54q0 -37 -18.5 -56.5t-53.5 -19.5t-53.5 23t-18.5 68 q0 71 31 123.5t89 72.5z" />
<glyph unicode="&#x201d;" horiz-adv-x="366" d="M51 453l-30 56q26 12 44.5 32t24.5 48q-29 2 -46 20.5t-17 53.5q0 38 18.5 57.5t53.5 19.5q71 0 71 -91q0 -71 -30.5 -123.5t-88.5 -72.5zM224 453l-30 56q26 12 44.5 32t24.5 48q-29 2 -46 20.5t-17 53.5q0 38 18.5 57.5t53.5 19.5q71 0 71 -91q0 -71 -30.5 -123.5 t-88.5 -72.5z" />
<glyph unicode="&#x201e;" horiz-adv-x="365" d="M52 -139l-30 55q26 11 44.5 31t23.5 48q-29 2 -46 20.5t-17 53.5q0 36 19 55.5t53 19.5q71 0 71 -90q0 -69 -30.5 -121t-87.5 -72zM223 -139l-30 55q26 11 44.5 31t23.5 48q-29 2 -46 20.5t-17 53.5q0 36 19 55.5t53 19.5q71 0 71 -90q0 -69 -30.5 -121t-87.5 -72z" />
<glyph unicode="&#x2020;" horiz-adv-x="245" d="M222 499h-48l-2 -225h-102v225h-49v97h48l-1 116h108l-1 -116h47v-97z" />
<glyph unicode="&#x2021;" horiz-adv-x="245" d="M21 467h50v56h-50v95h49l-2 94h108l-1 -94h47v-95h-49v-56h49v-96h-47l1 -97h-108l1 97h-48v96z" />
<glyph unicode="&#x2022;" horiz-adv-x="330" d="M31 327q0 63 35.5 102t98.5 39t98.5 -39t35.5 -102t-35.5 -102t-98.5 -39t-98.5 39t-35.5 102z" />
<glyph unicode="&#x2026;" horiz-adv-x="614" d="M510 -7q-36 0 -55.5 21t-19.5 58q0 38 19.5 58.5t55.5 20.5t55.5 -20.5t19.5 -58.5q0 -37 -19.5 -58t-55.5 -21zM307 -7q-36 0 -55.5 21t-19.5 58q0 38 19.5 58.5t55.5 20.5t55.5 -20.5t19.5 -58.5q0 -37 -19.5 -58t-55.5 -21zM103 -7q-36 0 -55.5 21t-19.5 58 q0 38 19.5 58.5t55.5 20.5q37 0 56.5 -20.5t19.5 -58.5q0 -37 -19.5 -58t-56.5 -21z" />
<glyph unicode="&#x202f;" horiz-adv-x="191" />
<glyph unicode="&#x2030;" horiz-adv-x="1167" d="M22 0zM506 206q0 110 35.5 162.5t113.5 52.5t113 -52.5t35 -162.5t-35 -162.5t-113 -52.5t-113.5 53t-35.5 162zM705 206q0 76 -13 104.5t-37 28.5q-25 0 -38 -29t-13 -104q0 -76 13 -105t39 -29q23 0 36 29t13 105zM22 499q0 110 35.5 162.5t113.5 52.5t113 -52.5 t35 -162.5t-35 -162.5t-113 -52.5t-113.5 53t-35.5 162zM221 499q0 76 -13 104.5t-37 28.5q-25 0 -38 -29t-13 -104q0 -76 13 -105t39 -29q23 0 36 29t13 105zM844 206q0 110 35.5 162.5t113.5 52.5t113 -52.5t35 -162.5t-35 -162.5t-113 -52.5t-113.5 53t-35.5 162z M1043 206q0 76 -13 104.5t-37 28.5q-25 0 -38 -29t-13 -104q0 -76 13 -105t39 -29q23 0 36 29t13 105zM602 700l-265 -700h-115l266 700h114z" />
<glyph unicode="&#x2039;" horiz-adv-x="335" d="M178 0l-149 246v3l148 247h134l-150 -246l153 -250h-136z" />
<glyph unicode="&#x203a;" horiz-adv-x="335" d="M154 496l149 -246v-3l-148 -247h-134l150 246l-153 250h136z" />
<glyph unicode="&#x2044;" horiz-adv-x="439" d="M400 700l-265 -700h-115l266 700h114z" />
<glyph unicode="&#x205f;" horiz-adv-x="239" />
<glyph unicode="&#x2070;" horiz-adv-x="342" d="M22 285zM22 500q0 110 35.5 162.5t113.5 52.5t113 -52.5t35 -162.5t-35 -162.5t-113 -52.5t-113.5 53t-35.5 162zM221 500q0 76 -13 104.5t-37 28.5q-25 0 -38 -29t-13 -104q0 -76 13 -105t39 -29q23 0 36 29t13 105z" />
<glyph unicode="&#x2074;" horiz-adv-x="331" d="M16 294zM16 379v72l90 255h96l-89 -241h78v119h92v-119h37v-86h-37v-85h-92v85h-175z" />
<glyph unicode="&#x2075;" horiz-adv-x="299" d="M4 285zM118 624l-5 -77q22 14 56 14q49 0 81 -31.5t32 -100.5q0 -68 -39 -106t-105 -38q-46 0 -80 19t-54 67l72 41q11 -27 25 -36.5t34 -9.5q25 0 37 17t12 46q0 30 -12.5 44.5t-32.5 14.5q-30 0 -47 -26l-68 31l14 213h231v-82h-151z" />
<glyph unicode="&#x2076;" horiz-adv-x="324" d="M22 285zM176 285q-75 0 -114.5 51.5t-39.5 161.5q0 106 37 161.5t118 55.5q95 0 125 -79l-71 -38q-8 19 -17.5 28.5t-29.5 9.5q-33 0 -48.5 -30t-15.5 -104v-9q9 27 29 43.5t51 16.5q45 0 74.5 -32.5t29.5 -96.5q0 -61 -31 -100t-97 -39zM129 422q0 -28 10.5 -43.5 t30.5 -15.5q38 0 38 59q0 28 -9.5 43.5t-28.5 15.5t-30 -16.5t-11 -42.5z" />
<glyph unicode="&#x2077;" horiz-adv-x="273" d="M12 294zM176 294h-111q0 115 31 197t75 129l-159 -3v89h255v-71q-24 -33 -41 -66.5t-28 -73.5t-16.5 -89t-5.5 -112z" />
<glyph unicode="&#x2078;" horiz-adv-x="317" d="M22 285zM158 285q-66 0 -101 33t-35 91q0 37 15 62.5t42 38.5q-20 14 -32.5 36.5t-12.5 51.5q0 57 32 87t92 30t92 -30t32 -87q0 -29 -12.5 -51.5t-32.5 -36.5q26 -14 41.5 -39t15.5 -62q0 -58 -34.5 -91t-101.5 -33zM196 592q0 18 -9.5 32t-27.5 14q-20 0 -29.5 -14 t-9.5 -32q0 -19 10 -32.5t28 -13.5q19 0 28.5 13t9.5 33zM200 411q0 21 -10.5 36.5t-30.5 15.5q-22 0 -32.5 -15.5t-10.5 -36.5q0 -23 11 -38t31 -15t31 15t11 38z" />
<glyph unicode="&#x2079;" horiz-adv-x="322" d="M17 285zM191 575q0 27 -11 43.5t-28 16.5q-39 0 -39 -59q0 -28 9.5 -44.5t29.5 -16.5q18 0 28.5 16.5t10.5 43.5zM147 715q75 0 114 -51.5t39 -162.5q0 -105 -38 -160.5t-120 -55.5q-42 0 -75.5 14.5t-49.5 49.5l64 50q10 -20 22 -28.5t32 -8.5q36 0 51.5 30t15.5 102v9 q-10 -29 -29.5 -45.5t-49.5 -16.5q-46 0 -75 33t-29 99q0 31 8 57t23.5 45t39.5 29.5t57 10.5z" />
<glyph unicode="&#x207a;" horiz-adv-x="243" d="M21 356zM158 356h-72v89h-65v68h65v90h72v-90h64v-68h-64v-89z" />
<glyph unicode="&#x207b;" horiz-adv-x="243" d="M21 444zM222 514v-70h-201v70h201z" />
<glyph unicode="&#x207c;" horiz-adv-x="243" d="M21 394zM222 562v-71h-201v71h201zM222 464v-70h-201v70h201z" />
<glyph unicode="&#x207d;" horiz-adv-x="180" d="M17 208zM168 290l-13 -82q-138 19 -138 257t135 257l16 -82q-19 -4 -33 -15t-23.5 -31t-14.5 -51.5t-5 -77.5t5 -77.5t14.5 -51.5t23.5 -31t33 -15z" />
<glyph unicode="&#x207e;" horiz-adv-x="180" d="M12 208zM25 208l-13 82q19 4 33 15t23.5 31t14.5 51.5t5 77.5t-5 77.5t-14.5 51.5t-23.5 31t-33 15l16 82q135 -19 135 -257t-138 -257z" />
<glyph unicode="&#x2080;" horiz-adv-x="342" d="M22 206q0 110 35.5 162.5t113.5 52.5t113 -52.5t35 -162.5t-35 -162.5t-113 -52.5t-113.5 53t-35.5 162zM221 206q0 76 -13 104.5t-37 28.5q-25 0 -38 -29t-13 -104q0 -76 13 -105t39 -29q23 0 36 29t13 105z" />
<glyph unicode="&#x2081;" horiz-adv-x="211" d="M175 0h-99v291l-34 -25l-37 81l103 70h67v-417z" />
<glyph unicode="&#x2082;" horiz-adv-x="287" d="M20 0v68l117 158q32 44 32 70q0 39 -36 39q-18 0 -31 -10.5t-23 -36.5l-76 30q17 55 53.5 79t86.5 24q57 0 90.5 -29t33.5 -83q0 -36 -17 -68.5t-52 -80.5l-56 -77l130 4v-87h-252z" />
<glyph unicode="&#x2083;" horiz-adv-x="297" d="M144 -9q-48 0 -83.5 21t-53.5 71l72 37q11 -29 25.5 -39t33.5 -10q43 0 43 49q0 24 -13 37t-35 13h-29v75h29q18 0 30 12.5t12 34.5t-11 33.5t-31 11.5q-37 0 -49 -43l-73 30q14 51 48.5 74t86.5 23q63 0 95.5 -31t32.5 -79q0 -33 -13.5 -56.5t-39.5 -43.5 q26 -13 41.5 -37.5t15.5 -59.5q0 -56 -35.5 -89.5t-98.5 -33.5z" />
<glyph unicode="&#x2084;" horiz-adv-x="331" d="M16 85v72l90 255h96l-89 -241h78v119h92v-119h37v-86h-37v-85h-92v85h-175z" />
<glyph unicode="&#x2085;" horiz-adv-x="299" d="M118 330l-5 -77q22 14 56 14q49 0 81 -31.5t32 -100.5q0 -68 -39 -106t-105 -38q-46 0 -80 19t-54 67l72 41q11 -27 25 -36.5t34 -9.5q25 0 37 17t12 46q0 30 -12.5 44.5t-32.5 14.5q-30 0 -47 -26l-68 31l14 213h231v-82h-151z" />
<glyph unicode="&#x2086;" horiz-adv-x="324" d="M176 -9q-75 0 -114.5 51.5t-39.5 161.5q0 106 37 161.5t118 55.5q95 0 125 -79l-71 -38q-8 19 -17.5 28.5t-29.5 9.5q-33 0 -48.5 -30t-15.5 -104v-9q9 27 29 43.5t51 16.5q45 0 74.5 -32.5t29.5 -96.5q0 -61 -31 -100t-97 -39zM129 128q0 -28 10.5 -43.5t30.5 -15.5 q38 0 38 59q0 28 -9.5 43.5t-28.5 15.5t-30 -16.5t-11 -42.5z" />
<glyph unicode="&#x2087;" horiz-adv-x="273" d="M176 0h-111q0 115 31 197t75 129l-159 -3v89h255v-71q-24 -33 -41 -66.5t-28 -73.5t-16.5 -89t-5.5 -112z" />
<glyph unicode="&#x2088;" horiz-adv-x="317" d="M158 -9q-66 0 -101 33t-35 91q0 37 15 62.5t42 38.5q-20 14 -32.5 36.5t-12.5 51.5q0 57 32 87t92 30t92 -30t32 -87q0 -29 -12.5 -51.5t-32.5 -36.5q26 -14 41.5 -39t15.5 -62q0 -58 -34.5 -91t-101.5 -33zM196 298q0 18 -9.5 32t-27.5 14q-20 0 -29.5 -14t-9.5 -32 q0 -19 10 -32.5t28 -13.5q19 0 28.5 13t9.5 33zM200 117q0 21 -10.5 36.5t-30.5 15.5q-22 0 -32.5 -15.5t-10.5 -36.5q0 -23 11 -38t31 -15t31 15t11 38z" />
<glyph unicode="&#x2089;" horiz-adv-x="322" d="M191 281q0 27 -11 43.5t-28 16.5q-39 0 -39 -59q0 -28 9.5 -44.5t29.5 -16.5q18 0 28.5 16.5t10.5 43.5zM147 421q75 0 114 -51.5t39 -162.5q0 -105 -38 -160.5t-120 -55.5q-42 0 -75.5 14.5t-49.5 49.5l64 50q10 -20 22 -28.5t32 -8.5q36 0 51.5 30t15.5 102v9 q-10 -29 -29.5 -45.5t-49.5 -16.5q-46 0 -75 33t-29 99q0 31 8 57t23.5 45t39.5 29.5t57 10.5z" />
<glyph unicode="&#x208a;" horiz-adv-x="244" d="M158 58h-72v89h-65v68h65v90h72v-90h64v-68h-64v-89z" />
<glyph unicode="&#x208b;" horiz-adv-x="244" d="M222 216v-70h-201v70h201z" />
<glyph unicode="&#x208c;" horiz-adv-x="244" d="M222 264v-71h-201v71h201zM222 166v-70h-201v70h201z" />
<glyph unicode="&#x208d;" horiz-adv-x="180" d="M168 -8l-13 -82q-138 19 -138 257t135 257l16 -82q-19 -4 -33 -15t-23.5 -31t-14.5 -51.5t-5 -77.5t5 -77.5t14.5 -51.5t23.5 -31t33 -15z" />
<glyph unicode="&#x208e;" horiz-adv-x="180" d="M25 -90l-13 82q19 4 33 15t23.5 31t14.5 51.5t5 77.5t-5 77.5t-14.5 51.5t-23.5 31t-33 15l16 82q135 -19 135 -257t-138 -257z" />
<glyph unicode="&#x20ac;" horiz-adv-x="560" d="M545 167q-25 -94 -83 -138t-152 -44q-104 0 -163 60.5t-77 185.5h-62v81h55q-1 11 -1 24v21h-54v80h58q14 144 77.5 210.5t176.5 66.5q42 0 77 -9.5t62.5 -31t48 -57.5t32.5 -88l-122 -40q-14 57 -38.5 79t-63.5 22q-44 0 -73 -33t-38 -119h171l-18 -80h-158v-21 q0 -12 1 -24h149l-18 -81h-120q11 -68 38 -96t65 -28q39 0 67.5 26t39.5 82z" />
<glyph unicode="&#x2122;" horiz-adv-x="570" d="M12 700h217v-72h-70v-222h-74v222h-73v72zM253 406v294h84l62 -204l66 204h78v-294h-68l2 155l-48 -155h-62l-47 154l1 -154h-68z" />
<glyph unicode="&#x2153;" horiz-adv-x="707" d="M5 0zM550 -9q-48 0 -83.5 21t-53.5 71l72 37q11 -29 25.5 -39t33.5 -10q43 0 43 49q0 24 -13 37t-35 13h-29v75h29q18 0 30 12.5t12 34.5t-11 33.5t-31 11.5q-37 0 -49 -43l-73 30q14 51 48.5 74t86.5 23q63 0 95.5 -31t32.5 -79q0 -33 -13.5 -56.5t-39.5 -43.5 q26 -13 41.5 -37.5t15.5 -59.5q0 -56 -35.5 -89.5t-98.5 -33.5zM175 293h-99v291l-34 -25l-37 81l103 70h67v-417zM502 700l-265 -700h-115l266 700h114z" />
<glyph unicode="&#x2154;" horiz-adv-x="799" d="M3 0zM641 -9q-48 0 -83.5 21t-53.5 71l72 37q11 -29 25.5 -39t33.5 -10q43 0 43 49q0 24 -13 37t-35 13h-29v75h29q18 0 30 12.5t12 34.5t-11 33.5t-31 11.5q-37 0 -49 -43l-73 30q14 51 48.5 74t86.5 23q63 0 95.5 -31t32.5 -79q0 -33 -13.5 -56.5t-39.5 -43.5 q26 -13 41.5 -37.5t15.5 -59.5q0 -56 -35.5 -89.5t-98.5 -33.5zM20 293v68l117 158q32 44 32 70q0 39 -36 39q-18 0 -31 -10.5t-23 -36.5l-76 30q17 55 53.5 79t86.5 24q57 0 90.5 -29t33.5 -83q0 -36 -17 -68.5t-52 -80.5l-56 -77l130 4v-87h-252zM592 700l-265 -700h-115 l266 700h114z" />
<glyph unicode="&#x2155;" horiz-adv-x="712" d="M5 0zM175 293h-99v291l-34 -25l-37 81l103 70h67v-417zM534 330l-5 -77q22 14 56 14q49 0 81 -31.5t32 -100.5q0 -68 -39 -106t-105 -38q-46 0 -80 19t-54 67l72 41q11 -27 25 -36.5t34 -9.5q25 0 37 17t12 46q0 30 -12.5 44.5t-32.5 14.5q-30 0 -47 -26l-68 31l14 213 h231v-82h-151zM502 700l-265 -700h-115l266 700h114z" />
<glyph unicode="&#x2156;" horiz-adv-x="803" d="M3 0zM20 293v68l117 158q32 44 32 70q0 39 -36 39q-18 0 -31 -10.5t-23 -36.5l-76 30q17 55 53.5 79t86.5 24q57 0 90.5 -29t33.5 -83q0 -36 -17 -68.5t-52 -80.5l-56 -77l130 4v-87h-252zM624 330l-5 -77q22 14 56 14q49 0 81 -31.5t32 -100.5q0 -68 -39 -106t-105 -38 q-46 0 -80 19t-54 67l72 41q11 -27 25 -36.5t34 -9.5q25 0 37 17t12 46q0 30 -12.5 44.5t-32.5 14.5q-30 0 -47 -26l-68 31l14 213h231v-82h-151zM592 700l-265 -700h-115l266 700h114z" />
<glyph unicode="&#x2157;" horiz-adv-x="784" d="M7 0zM144 284q-48 0 -83.5 21t-53.5 71l72 37q11 -29 25.5 -39t33.5 -10q43 0 43 49q0 24 -13 37t-35 13h-29v75h29q18 0 30 12.5t12 34.5t-11 33.5t-31 11.5q-37 0 -49 -43l-73 30q14 51 48.5 74t86.5 23q63 0 95.5 -31t32.5 -79q0 -33 -13.5 -56.5t-39.5 -43.5 q26 -13 41.5 -37.5t15.5 -59.5q0 -56 -35.5 -89.5t-98.5 -33.5zM605 330l-5 -77q22 14 56 14q49 0 81 -31.5t32 -100.5q0 -68 -39 -106t-105 -38q-46 0 -80 19t-54 67l72 41q11 -27 25 -36.5t34 -9.5q25 0 37 17t12 46q0 30 -12.5 44.5t-32.5 14.5q-30 0 -47 -26l-68 31 l14 213h231v-82h-151zM572 700l-265 -700h-115l266 700h114z" />
<glyph unicode="&#x2158;" horiz-adv-x="821" d="M16 0zM642 330l-5 -77q22 14 56 14q49 0 81 -31.5t32 -100.5q0 -68 -39 -106t-105 -38q-46 0 -80 19t-54 67l72 41q11 -27 25 -36.5t34 -9.5q25 0 37 17t12 46q0 30 -12.5 44.5t-32.5 14.5q-30 0 -47 -26l-68 31l14 213h231v-82h-151zM610 700l-265 -700h-115l266 700 h114zM16 378v72l90 255h96l-89 -241h78v119h92v-119h37v-86h-37v-85h-92v85h-175z" />
<glyph unicode="&#x2159;" horiz-adv-x="720" d="M5 0zM175 293h-99v291l-34 -25l-37 81l103 70h67v-417zM569 -9q-75 0 -114.5 51.5t-39.5 161.5q0 106 37 161.5t118 55.5q95 0 125 -79l-71 -38q-8 19 -17.5 28.5t-29.5 9.5q-33 0 -48.5 -30t-15.5 -104v-9q9 27 29 43.5t51 16.5q45 0 74.5 -32.5t29.5 -96.5 q0 -61 -31 -100t-97 -39zM522 128q0 -28 10.5 -43.5t30.5 -15.5q38 0 38 59q0 28 -9.5 43.5t-28.5 15.5t-30 -16.5t-11 -42.5zM502 700l-265 -700h-115l266 700h114z" />
<glyph unicode="&#x215a;" horiz-adv-x="792" d="M4 0zM118 623l-5 -77q22 14 56 14q49 0 81 -31.5t32 -100.5q0 -68 -39 -106t-105 -38q-46 0 -80 19t-54 67l72 41q11 -27 25 -36.5t34 -9.5q25 0 37 17t12 46q0 30 -12.5 44.5t-32.5 14.5q-30 0 -47 -26l-68 31l14 213h231v-82h-151zM641 -9q-75 0 -114.5 51.5 t-39.5 161.5q0 106 37 161.5t118 55.5q95 0 125 -79l-71 -38q-8 19 -17.5 28.5t-29.5 9.5q-33 0 -48.5 -30t-15.5 -104v-9q9 27 29 43.5t51 16.5q45 0 74.5 -32.5t29.5 -96.5q0 -61 -31 -100t-97 -39zM594 128q0 -28 10.5 -43.5t30.5 -15.5q38 0 38 59q0 28 -9.5 43.5 t-28.5 15.5t-30 -16.5t-11 -42.5zM573 700l-265 -700h-115l266 700h114z" />
<glyph unicode="&#x215b;" horiz-adv-x="716" d="M5 0zM175 293h-99v291l-34 -25l-37 81l103 70h67v-417zM558 -9q-66 0 -101 33t-35 91q0 37 15 62.5t42 38.5q-20 14 -32.5 36.5t-12.5 51.5q0 57 32 87t92 30t92 -30t32 -87q0 -29 -12.5 -51.5t-32.5 -36.5q26 -14 41.5 -39t15.5 -62q0 -58 -34.5 -91t-101.5 -33z M596 298q0 18 -9.5 32t-27.5 14q-20 0 -29.5 -14t-9.5 -32q0 -19 10 -32.5t28 -13.5q19 0 28.5 13t9.5 33zM600 117q0 21 -10.5 36.5t-30.5 15.5q-22 0 -32.5 -15.5t-10.5 -36.5q0 -23 11 -38t31 -15t31 15t11 38zM502 700l-265 -700h-115l266 700h114z" />
<glyph unicode="&#x215c;" horiz-adv-x="787" d="M7 0zM144 284q-48 0 -83.5 21t-53.5 71l72 37q11 -29 25.5 -39t33.5 -10q43 0 43 49q0 24 -13 37t-35 13h-29v75h29q18 0 30 12.5t12 34.5t-11 33.5t-31 11.5q-37 0 -49 -43l-73 30q14 51 48.5 74t86.5 23q63 0 95.5 -31t32.5 -79q0 -33 -13.5 -56.5t-39.5 -43.5 q26 -13 41.5 -37.5t15.5 -59.5q0 -56 -35.5 -89.5t-98.5 -33.5zM628 -9q-66 0 -101 33t-35 91q0 37 15 62.5t42 38.5q-20 14 -32.5 36.5t-12.5 51.5q0 57 32 87t92 30t92 -30t32 -87q0 -29 -12.5 -51.5t-32.5 -36.5q26 -14 41.5 -39t15.5 -62q0 -58 -34.5 -91t-101.5 -33z M666 298q0 18 -9.5 32t-27.5 14q-20 0 -29.5 -14t-9.5 -32q0 -19 10 -32.5t28 -13.5q19 0 28.5 13t9.5 33zM670 117q0 21 -10.5 36.5t-30.5 15.5q-22 0 -32.5 -15.5t-10.5 -36.5q0 -23 11 -38t31 -15t31 15t11 38zM572 700l-265 -700h-115l266 700h114z" />
<glyph unicode="&#x215d;" horiz-adv-x="787" d="M4 0zM628 -9q-66 0 -101 33t-35 91q0 37 15 62.5t42 38.5q-20 14 -32.5 36.5t-12.5 51.5q0 57 32 87t92 30t92 -30t32 -87q0 -29 -12.5 -51.5t-32.5 -36.5q26 -14 41.5 -39t15.5 -62q0 -58 -34.5 -91t-101.5 -33zM666 298q0 18 -9.5 32t-27.5 14q-20 0 -29.5 -14 t-9.5 -32q0 -19 10 -32.5t28 -13.5q19 0 28.5 13t9.5 33zM670 117q0 21 -10.5 36.5t-30.5 15.5q-22 0 -32.5 -15.5t-10.5 -36.5q0 -23 11 -38t31 -15t31 15t11 38zM118 623l-5 -77q22 14 56 14q49 0 81 -31.5t32 -100.5q0 -68 -39 -106t-105 -38q-46 0 -80 19t-54 67l72 41 q11 -27 25 -36.5t34 -9.5q25 0 37 17t12 46q0 30 -12.5 44.5t-32.5 14.5q-30 0 -47 -26l-68 31l14 213h231v-82h-151zM572 700l-265 -700h-115l266 700h114z" />
<glyph unicode="&#x215e;" horiz-adv-x="732" d="M12 0zM573 -9q-66 0 -101 33t-35 91q0 37 15 62.5t42 38.5q-20 14 -32.5 36.5t-12.5 51.5q0 57 32 87t92 30t92 -30t32 -87q0 -29 -12.5 -51.5t-32.5 -36.5q26 -14 41.5 -39t15.5 -62q0 -58 -34.5 -91t-101.5 -33zM611 298q0 18 -9.5 32t-27.5 14q-20 0 -29.5 -14 t-9.5 -32q0 -19 10 -32.5t28 -13.5q19 0 28.5 13t9.5 33zM615 117q0 21 -10.5 36.5t-30.5 15.5q-22 0 -32.5 -15.5t-10.5 -36.5q0 -23 11 -38t31 -15t31 15t11 38zM176 293h-111q0 115 31 197t75 129l-159 -3v89h255v-71q-24 -33 -41 -66.5t-28 -73.5t-16.5 -89t-5.5 -112z M518 700l-265 -700h-115l266 700h114z" />
<glyph unicode="&#x215f;" horiz-adv-x="634" d="M5 0zM175 293h-99v291l-34 -25l-37 81l103 70h67v-417zM502 700l-265 -700h-115l266 700h114z" />
<glyph unicode="&#x2212;" horiz-adv-x="391" d="M351 355v-89h-311v89h311z" />
<glyph unicode="&#x2248;" horiz-adv-x="391" d="M268 408q15 0 39 6t44 23v-91q-17 -13 -42 -19.5t-47 -6.5q-21 0 -37.5 5.5t-32.5 11.5t-31.5 11.5t-34.5 5.5q-17 0 -41.5 -5.5t-44.5 -22.5v91q17 13 41 19t46 6q21 0 38.5 -5.5t34 -11.5t32.5 -11.5t36 -5.5zM268 257q15 0 39 6t44 23v-92q-17 -13 -42 -19.5t-47 -6.5 q-21 0 -37.5 5.5t-32.5 11.5t-31.5 11.5t-34.5 5.5q-17 0 -41.5 -5.5t-44.5 -22.5v92q17 13 41 19t46 6q21 0 38.5 -5.5t34 -11.5t32.5 -11.5t36 -5.5z" />
<glyph unicode="&#x2260;" horiz-adv-x="391" d="M40 338v91h181l39 73h77l-40 -73h54v-91h-101l-32 -57h133v-91h-180l-39 -73h-77l39 73h-54v91h102l30 57h-132z" />
<glyph unicode="&#x2264;" horiz-adv-x="451" d="M321 535l47 -74l-165 -119l165 -118l-47 -79l-236 168v54zM77 0v91h295v-91h-295z" />
<glyph unicode="&#x2265;" horiz-adv-x="451" d="M132 145l-47 75l165 119l-165 118l47 78l237 -167v-54zM372 91v-91h-295v91h295z" />
<glyph unicode="&#x25fc;" horiz-adv-x="495" d="M0 495h495v-495h-495v495z" />
<glyph unicode="&#xf6c3;" horiz-adv-x="459" d="M302 -147q0 -69 -33 -117t-84 -63l-30 52q27 12 47 32.5t25 47.5q-32 -1 -50 16t-18 51q0 72 71 72q34 0 53 -23t19 -68z" />
<glyph horiz-adv-x="419" d="M234 -65v831h124v-831h-124zM62 -65v831h123v-831h-123z" />
<glyph horiz-adv-x="194" d="M140 453q-58 20 -88.5 72.5t-30.5 123.5q0 91 72 91q34 0 53 -19.5t19 -56.5q0 -35 -17.5 -54t-46.5 -21q6 -28 24.5 -48.5t44.5 -31.5z" />
<glyph horiz-adv-x="365" d="M139 453q-58 20 -88.5 72.5t-30.5 123.5q0 91 72 91q34 0 53 -19.5t19 -56.5q0 -35 -17.5 -54t-46.5 -21q6 -28 24.5 -48.5t44.5 -31.5zM311 453q-58 20 -88.5 72.5t-30.5 123.5q0 91 72 91q34 0 53 -19.5t19 -56.5q0 -35 -17.5 -54t-46.5 -21q6 -28 24.5 -48.5 t44.5 -31.5z" />
<glyph horiz-adv-x="489" d="M30 0zM305 245q0 81 -19.5 117t-54.5 36q-33 0 -50.5 -36t-17.5 -115q0 -76 16.5 -112t51.5 -36q34 0 54 35t20 111zM189 -14q-72 0 -115.5 65t-43.5 192q0 135 46 201t120 66q88 0 124 -87l10 73h110v-496h-112l-10 73q-23 -43 -54 -65t-75 -22zM394 -227q-22 0 -43.5 6 t-38.5 20.5t-27.5 39t-10.5 61.5t13 65.5t33.5 47.5t47 28t53.5 7l1 -48q-38 -4 -54.5 -29.5t-16.5 -55.5q0 -32 16 -44.5t36 -12.5q26 0 46 17l33 -71q-20 -15 -41 -23t-47 -8z" />
<glyph horiz-adv-x="488" d="M305 245q0 81 -19.5 117t-54.5 36q-33 0 -50.5 -36t-17.5 -115q0 -76 16.5 -112t51.5 -36q34 0 54 35t20 111zM189 -14q-72 0 -115.5 65t-43.5 192q0 135 46 201t120 66q88 0 124 -87l10 73h110v-496h-112l-10 73q-23 -43 -54 -65t-75 -22z" />
<glyph horiz-adv-x="488" d="M30 0zM305 245q0 81 -19.5 117t-54.5 36q-33 0 -50.5 -36t-17.5 -115q0 -76 16.5 -112t51.5 -36q34 0 54 35t20 111zM189 -14q-72 0 -115.5 65t-43.5 192q0 135 46 201t120 66q88 0 124 -87l10 73h110v-496h-112l-10 73q-23 -43 -54 -65t-75 -22zM187 572l-102 125v7h147 l61 -127v-5h-106z" />
<glyph horiz-adv-x="488" d="M30 0zM305 245q0 81 -19.5 117t-54.5 36q-33 0 -50.5 -36t-17.5 -115q0 -76 16.5 -112t51.5 -36q34 0 54 35t20 111zM189 -14q-72 0 -115.5 65t-43.5 192q0 135 46 201t120 66q88 0 124 -87l10 73h110v-496h-112l-10 73q-23 -43 -54 -65t-75 -22zM372 696l-101 -125h-104 v5l63 127h142v-7z" />
<glyph horiz-adv-x="487" d="M30 0zM225 630l-43 -59h-103v4l94 128h111l95 -128v-4h-108zM305 245q0 81 -19.5 117t-54.5 36q-33 0 -50.5 -36t-17.5 -115q0 -76 16.5 -112t51.5 -36q34 0 54 35t20 111zM189 -14q-72 0 -115.5 65t-43.5 192q0 135 46 201t120 66q88 0 124 -87l10 73h110v-496h-112 l-10 73q-23 -43 -54 -65t-75 -22z" />
<glyph horiz-adv-x="487" d="M30 0zM248 646q0 34 18 52t51 18q71 0 71 -70q0 -74 -71 -74q-33 0 -51 19t-18 55zM67 646q0 34 18.5 52t51.5 18q70 0 70 -70q0 -74 -70 -74q-33 0 -51.5 19t-18.5 55zM305 245q0 81 -19.5 117t-54.5 36q-33 0 -50.5 -36t-17.5 -115q0 -76 16.5 -112t51.5 -36 q34 0 54 35t20 111zM189 -14q-72 0 -115.5 65t-43.5 192q0 135 46 201t120 66q88 0 124 -87l10 73h110v-496h-112l-10 73q-23 -43 -54 -65t-75 -22z" />
<glyph horiz-adv-x="488" d="M30 0zM305 245q0 81 -19.5 117t-54.5 36q-33 0 -50.5 -36t-17.5 -115q0 -76 16.5 -112t51.5 -36q34 0 54 35t20 111zM189 -14q-72 0 -115.5 65t-43.5 192q0 135 46 201t120 66q88 0 124 -87l10 73h110v-496h-112l-10 73q-23 -43 -54 -65t-75 -22zM294 698h78 q2 -34 -4.5 -57t-18.5 -37t-27 -20t-30 -6q-18 0 -32.5 5.5t-27.5 12t-24.5 12t-22.5 5.5q-13 0 -17 -10.5t-4 -23.5h-78q-2 34 4.5 57.5t18 37t26.5 19.5t30 6q18 0 33 -5.5t28 -12t24.5 -12t22.5 -5.5q14 0 17.5 10t3.5 24z" />
<glyph horiz-adv-x="488" d="M30 0zM305 245q0 81 -19.5 117t-54.5 36q-33 0 -50.5 -36t-17.5 -115q0 -76 16.5 -112t51.5 -36q34 0 54 35t20 111zM189 -14q-72 0 -115.5 65t-43.5 192q0 135 46 201t120 66q88 0 124 -87l10 73h110v-496h-112l-10 73q-23 -43 -54 -65t-75 -22zM131 653q0 48 27.5 74 t70.5 26q42 0 69 -26t27 -74q0 -50 -27 -76t-69 -26q-43 0 -70.5 26t-27.5 76zM190 653q0 -22 11 -34.5t28 -12.5q16 0 27.5 12.5t11.5 34.5q0 21 -11.5 33t-27.5 12q-17 0 -28 -12t-11 -33z" />
<glyph horiz-adv-x="488" d="M30 0zM305 245q0 81 -19.5 117t-54.5 36q-33 0 -50.5 -36t-17.5 -115q0 -76 16.5 -112t51.5 -36q34 0 54 35t20 111zM189 -14q-72 0 -115.5 65t-43.5 192q0 135 46 201t120 66q88 0 124 -87l10 73h110v-496h-112l-10 73q-23 -43 -54 -65t-75 -22zM343 675v-85h-228v85 h228z" />
<glyph horiz-adv-x="488" d="M30 0zM305 245q0 81 -19.5 117t-54.5 36q-33 0 -50.5 -36t-17.5 -115q0 -76 16.5 -112t51.5 -36q34 0 54 35t20 111zM189 -14q-72 0 -115.5 65t-43.5 192q0 135 46 201t120 66q88 0 124 -87l10 73h110v-496h-112l-10 73q-23 -43 -54 -65t-75 -22zM285 702h81 q0 -39 -9.5 -65.5t-27 -42.5t-43 -23t-57.5 -7q-33 0 -58 7t-42.5 23t-26.5 42.5t-9 65.5h81q0 -36 13 -49.5t42 -13.5t42.5 13.5t13.5 49.5z" />
<glyph horiz-adv-x="485" d="M216 -220q-78 0 -125.5 32t-71.5 93l106 58q13 -35 33 -53t51 -18q90 0 90 127v55q-20 -37 -50 -53t-65 -16q-37 0 -63.5 13.5t-43 38t-24.5 58.5t-8 75v306h136v-275q0 -51 12.5 -73t38.5 -22q30 0 48.5 32.5t18.5 99.5v238h138v-470q0 -61 -16 -107t-45 -77 t-69.5 -46.5t-90.5 -15.5z" />
<glyph horiz-adv-x="486" d="M19 0zM216 -220q-78 0 -125.5 32t-71.5 93l106 58q13 -35 33 -53t51 -18q90 0 90 127v55q-20 -37 -50 -53t-65 -16q-37 0 -63.5 13.5t-43 38t-24.5 58.5t-8 75v306h136v-275q0 -51 12.5 -73t38.5 -22q30 0 48.5 32.5t18.5 99.5v238h138v-470q0 -61 -16 -107t-45 -77 t-69.5 -46.5t-90.5 -15.5zM373 696l-101 -125h-104v5l63 127h142v-7z" />
<glyph horiz-adv-x="486" d="M19 0zM238 630l-43 -59h-103v4l94 128h111l95 -128v-4h-108zM216 -220q-78 0 -125.5 32t-71.5 93l106 58q13 -35 33 -53t51 -18q90 0 90 127v55q-20 -37 -50 -53t-65 -16q-37 0 -63.5 13.5t-43 38t-24.5 58.5t-8 75v306h136v-275q0 -51 12.5 -73t38.5 -22q30 0 48.5 32.5 t18.5 99.5v238h138v-470q0 -61 -16 -107t-45 -77t-69.5 -46.5t-90.5 -15.5z" />
<glyph horiz-adv-x="486" d="M19 0zM262 646q0 34 18 52t51 18q71 0 71 -70q0 -74 -71 -74q-33 0 -51 19t-18 55zM81 646q0 34 18.5 52t51.5 18q70 0 70 -70q0 -74 -70 -74q-33 0 -51.5 19t-18.5 55zM216 -220q-78 0 -125.5 32t-71.5 93l106 58q13 -35 33 -53t51 -18q90 0 90 127v55q-20 -37 -50 -53 t-65 -16q-37 0 -63.5 13.5t-43 38t-24.5 58.5t-8 75v306h136v-275q0 -51 12.5 -73t38.5 -22q30 0 48.5 32.5t18.5 99.5v238h138v-470q0 -61 -16 -107t-45 -77t-69.5 -46.5t-90.5 -15.5z" />
<glyph horiz-adv-x="307" d="M163 341q-65 0 -103 43.5t-38 142.5q0 98 38.5 142.5t107.5 44.5q45 0 75 -18t46 -62l-71 -51q-17 45 -48 45q-26 0 -39 -22t-13 -79q0 -53 12 -78t41 -25q38 0 50 48l70 -42q-17 -44 -48 -66.5t-80 -22.5z" />
<glyph horiz-adv-x="353" d="M218 527q0 57 -14 81t-35 24q-25 0 -38 -25t-13 -80q0 -103 51 -103q22 0 35.5 25t13.5 78zM232 352l-7 54q-14 -32 -36.5 -48.5t-51.5 -16.5q-52 0 -83.5 46t-31.5 137q0 97 33 143.5t86 46.5q62 0 87 -62l7 51h80v-351h-83z" />
<glyph horiz-adv-x="459" d="M286 445h-88l5 256h109z" />
<glyph horiz-adv-x="204" d="M29 0l21 486h97l20 -486h-138zM98 707q36 0 56 -21t20 -58q0 -38 -20 -58.5t-56 -20.5t-55.5 20.5t-19.5 58.5q0 37 19.5 58t55.5 21z" />
<glyph horiz-adv-x="413" d="M250 490l7 -174h-40q-43 0 -69 -28t-26 -85q0 -51 22.5 -77t64.5 -26q76 0 98 89l99 -43q-10 -45 -29.5 -76t-47 -49.5t-61.5 -27t-71 -8.5q-99 0 -148.5 55t-49.5 156q0 46 11 81.5t30.5 61.5t45.5 42t56 24l8 85h100zM204 711q35 0 54.5 -21t19.5 -58 q0 -38 -19.5 -58.5t-54.5 -20.5q-38 0 -57.5 20.5t-19.5 58.5q0 37 19.5 58t57.5 21z" />
<glyph horiz-adv-x="292" d="M254 325v-117h-215v117h215z" />
<glyph horiz-adv-x="530" d="M492 325v-117h-453v117h453z" />
<glyph horiz-adv-x="580" d="M305 259v116h241v-87q0 -79 -16.5 -136t-48.5 -94t-78 -54.5t-104 -17.5q-123 0 -190.5 89.5t-67.5 275.5q0 190 66 276.5t200 86.5q42 0 77.5 -9t64.5 -31t50 -57t33 -87l-123 -43q-16 56 -41.5 77t-62.5 21q-29 0 -51.5 -11t-38 -38t-23.5 -72.5t-8 -113.5 q0 -69 8 -115.5t23.5 -75t38 -40.5t51.5 -12q43 0 72 35t28 117h-100z" />
<glyph horiz-adv-x="555" d="M382 0l-173 319v-319h-145v700h145v-342l177 342h160l-197 -348l204 -352h-171z" />
<glyph horiz-adv-x="462" d="M306 0l-121 217v-217h-136v700h137l-1 -437l123 233h140l-136 -242l146 -254h-152z" />
<glyph horiz-adv-x="621" d="M36 4zM316 4q-65 0 -116.5 24.5t-88 69.5t-56 109t-19.5 143q0 80 19.5 144.5t55.5 109.5t88 69t117 24q64 0 114.5 -22t85 -63t52.5 -99t18 -129q0 -95 -36 -147t-101 -52q-59 0 -84 48q-35 -54 -91 -54q-40 0 -65 25.5t-25 70.5q0 27 10 48.5t28 36t42.5 22.5t52.5 8 h31q-1 40 -18.5 53.5t-35.5 13.5q-38 0 -56 -43l-57 45q16 34 47 54t82 20q57 0 91.5 -33.5t34.5 -108.5v-101q0 -26 7.5 -39t27.5 -13q26 0 45.5 36t19.5 109q0 67 -17 117.5t-46.5 84t-69.5 50t-87 16.5q-49 0 -91 -19t-73 -56.5t-48.5 -94t-17.5 -131.5q0 -76 18 -132.5 t49.5 -94t73 -56t89.5 -18.5q54 0 97 18.5t74 61.5l36 -29q-35 -49 -87 -72.5t-120 -23.5zM296 244q23 0 37.5 19.5t14.5 54.5v17h-21q-31 0 -47.5 -15.5t-16.5 -38.5q0 -17 9 -27t24 -10z" />
<glyph horiz-adv-x="555" d="M41 350q0 187 56 275.5t181 88.5q123 0 180 -88.5t57 -275.5q0 -188 -57 -276t-180 -88q-125 0 -181 89.5t-56 274.5zM375 349q0 69 -6.5 116t-18.5 75.5t-30 41t-42 12.5t-42 -12.5t-30 -41t-18.5 -75t-6.5 -114.5q0 -70 6.5 -117t18.5 -75.5t30 -41t42 -12.5t42 12 t30 40.5t18.5 75.5t6.5 116z" />
<glyph horiz-adv-x="323" d="M260 0h-141v520l-60 -47l-53 117l160 116h94v-706z" />
<glyph horiz-adv-x="461" d="M30 0v103l196 273q31 44 45 77t14 60q0 38 -19 57t-51 19q-35 0 -60 -20t-42 -69l-109 45q29 92 87.5 130.5t136.5 38.5q91 0 143.5 -47.5t52.5 -135.5q0 -29 -6.5 -56t-19.5 -56t-33.5 -61.5t-48.5 -71.5l-119 -165l240 6v-127h-407z" />
<glyph horiz-adv-x="482" d="M224 103q38 0 61.5 25.5t23.5 74.5q0 47 -24 70.5t-65 23.5h-50v118h49q32 0 55.5 24t23.5 67q0 41 -22 64t-59 23t-58 -22.5t-33 -60.5l-108 43q24 86 79.5 123.5t136.5 37.5q101 0 152 -50.5t51 -132.5q0 -56 -22 -97t-64 -72q45 -20 70 -62.5t25 -105.5 q0 -46 -14 -84.5t-41.5 -66t-68 -43t-92.5 -15.5q-76 0 -133.5 35.5t-83.5 116.5l107 54q17 -50 43 -69t61 -19z" />
<glyph horiz-adv-x="527" d="M23 155v104l156 441h137l-153 -419h149v235h133v-235h66v-126h-66v-155h-133v155h-289z" />
<glyph horiz-adv-x="486" d="M224 -15q-77 0 -132.5 35.5t-81.5 116.5l107 54q17 -50 43 -69t61 -19q46 0 70 34t24 90q0 60 -24.5 87t-65.5 27q-27 0 -49 -12t-39 -34l-97 44l23 361h364v-121h-249l-10 -156q20 14 45.5 21t52.5 7q40 0 74.5 -13t59.5 -40t39 -69t14 -100q0 -53 -14.5 -97.5 t-43.5 -77t-72 -51t-99 -18.5z" />
<glyph horiz-adv-x="525" d="M279 -15q-116 0 -177 87.5t-61 275.5q0 183 61 274.5t192 91.5q76 0 123.5 -32.5t72.5 -98.5l-108 -56q-14 35 -34.5 53.5t-52.5 18.5q-28 0 -49.5 -12.5t-36.5 -42t-22.5 -77t-7.5 -116.5v-19q16 50 52 79t91 29q36 0 67 -14t53.5 -41.5t35 -68.5t12.5 -95 q0 -52 -13 -95t-39.5 -74.5t-66 -49t-92.5 -17.5zM275 101q36 0 57 29t21 87q0 56 -19 85.5t-57 29.5t-60 -31.5t-22 -85.5q0 -53 21 -83.5t59 -30.5z" />
<glyph horiz-adv-x="431" d="M106 0q0 96 13.5 182t36.5 159t55 132t70 101l-265 -3v129h406v-108q-81 -103 -123.5 -251t-37.5 -341h-155z" />
<glyph horiz-adv-x="515" d="M257 -14q-106 0 -161 55.5t-55 152.5q0 63 25.5 107.5t69.5 66.5q-34 23 -55 62t-21 89q0 94 51.5 144.5t145.5 50.5q95 0 146.5 -50.5t51.5 -144.5q0 -50 -21 -89t-55 -62q44 -22 69.5 -66t25.5 -108q0 -97 -55.5 -152.5t-161.5 -55.5zM331 513q0 37 -19 63.5t-54 26.5 q-37 0 -55.5 -26.5t-18.5 -63.5t19 -63.5t54 -26.5t54.5 26t19.5 64zM258 98q40 0 61 28t21 74q0 43 -21.5 72t-59.5 29q-42 0 -63 -29t-21 -72q0 -45 21.5 -73.5t61.5 -28.5z" />
<glyph horiz-adv-x="521" d="M247 599q-37 0 -57.5 -30t-20.5 -89q0 -57 19 -87t57 -30q37 0 59.5 32.5t22.5 86.5t-21.5 85.5t-58.5 31.5zM243 714q115 0 176.5 -87.5t61.5 -275.5q0 -183 -61.5 -274.5t-192.5 -91.5q-75 0 -122.5 32.5t-72.5 98.5l107 56q14 -35 35 -53t52 -18q28 0 50 12.5t37 41 t22.5 75.5t7.5 116v19q-16 -51 -52 -80.5t-91 -29.5q-37 0 -68 14t-53.5 41.5t-35 69t-12.5 96.5q0 52 13 96t39.5 75.5t66 49t93.5 17.5z" />
<glyph d="M267 614q106 0 163.5 -76.5t57.5 -238.5q0 -160 -57.5 -236.5t-163.5 -76.5q-103 0 -161.5 76t-58.5 238t57.5 238t162.5 76zM267 495q-20 0 -35.5 -9.5t-26 -32t-16 -60t-5.5 -93.5q0 -55 5.5 -92.5t16 -60.5t26 -33t35.5 -10q21 0 36.5 10t26.5 33t16.5 60.5t5.5 92.5 t-5.5 92t-16.5 60t-26.5 33t-36.5 10z" />
<glyph d="M478 0h-421v121h145v299l-58 -47l-51 117l156 116h91v-485h138v-121z" />
<glyph d="M70 0v89l168 205q42 52 62.5 83.5t20.5 57.5q0 30 -17.5 44.5t-46.5 14.5q-61 0 -85 -74l-105 46q29 81 82.5 114.5t124.5 33.5q84 0 134.5 -40.5t50.5 -118.5q0 -24 -6.5 -48t-21 -50t-36.5 -56t-52 -67l-100 -125l226 6v-115h-399z" />
<glyph d="M252 1q38 0 61.5 26t23.5 76q0 47 -24 70.5t-65 23.5h-50v118h49q32 0 55.5 24t23.5 67q0 42 -22 65.5t-59 23.5t-58 -22.5t-33 -62.5l-107 43q24 86 79 123.5t136 37.5q101 0 152 -50.5t51 -132.5q0 -56 -22 -97t-64 -72q45 -20 70 -62.5t25 -105.5q0 -46 -14 -84.5 t-41.5 -66t-68 -43t-92.5 -15.5q-76 0 -133 35.5t-83 116.5l106 54q17 -51 43 -70.5t61 -19.5z" />
<glyph d="M33 55v102l151 443h134l-148 -420h142v234h130v-234h61v-125h-61v-155h-130v155h-279z" />
<glyph d="M249 -115q-75 0 -130 35.5t-81 116.5l107 54q17 -51 42 -70.5t60 -19.5q45 0 68.5 34.5t23.5 91.5q0 60 -24 87t-64 27q-26 0 -47.5 -12t-38.5 -34l-97 44l23 361h361v-121h-246l-9 -156q19 14 43 21t50 7q40 0 74.5 -13t59.5 -40t39 -69t14 -100q0 -113 -57.5 -178.5 t-170.5 -65.5z" />
<glyph d="M280 -15q-115 0 -175.5 87.5t-60.5 275.5q0 182 61 274t191 92q76 0 123 -32.5t72 -98.5l-107 -56q-15 35 -35.5 53.5t-51.5 18.5q-28 0 -50 -12.5t-37 -42t-22.5 -77t-7.5 -116.5v-18q16 49 52.5 78t90.5 29q37 0 67.5 -14t53 -41.5t35 -68.5t12.5 -95q0 -52 -13 -95 t-39 -74.5t-65.5 -49t-93.5 -17.5zM276 101q37 0 57.5 29t20.5 87q0 56 -19 85.5t-57 29.5q-37 0 -59.5 -31.5t-22.5 -85.5q0 -53 21.5 -83.5t58.5 -30.5z" />
<glyph d="M155 -100q0 96 13 181.5t36.5 158.5t55.5 132.5t70 101.5l-265 -3v129h405v-108q-81 -102 -123 -250t-37 -342h-155z" />
<glyph d="M267 -14q-105 0 -160.5 55.5t-55.5 152.5q0 63 26 107.5t69 66.5q-34 23 -54.5 62t-20.5 89q0 94 51 144.5t145 50.5q96 0 147 -50.5t51 -144.5q0 -50 -21 -89t-55 -62q44 -22 69.5 -66t25.5 -108q0 -97 -55 -152.5t-162 -55.5zM341 513q0 37 -18.5 63.5t-54.5 26.5 t-54.5 -26.5t-18.5 -63.5t18.5 -63.5t53.5 -26.5q36 0 55 26t19 64zM268 98q40 0 61 28t21 74q0 43 -21 72t-62 29q-39 0 -60 -29t-21 -72q0 -45 21.5 -73.5t60.5 -28.5z" />
<glyph d="M259 498q-36 0 -57 -29t-21 -87q0 -56 19.5 -85.5t56.5 -29.5q38 0 60 31.5t22 85.5q0 53 -21 83.5t-59 30.5zM255 614q115 0 175.5 -87.5t60.5 -275.5q0 -182 -60.5 -274t-190.5 -92q-76 0 -123.5 32.5t-71.5 98.5l107 56q14 -35 34.5 -53.5t52.5 -18.5q28 0 49.5 12.5 t36.5 42t22.5 77t7.5 116.5v18q-16 -49 -52 -78t-91 -29q-36 0 -67 14t-53.5 41.5t-35 68.5t-12.5 95q0 52 13 95t39 74.5t66 49t93 17.5z" />
<glyph horiz-adv-x="501" d="M249 614q106 0 163.5 -76.5t57.5 -238.5q0 -160 -57.5 -236.5t-163.5 -76.5q-103 0 -161.5 76t-58.5 238t57.5 238t162.5 76zM249 495q-20 0 -35.5 -9.5t-26 -32t-16 -60t-5.5 -93.5q0 -55 5.5 -92.5t16 -60.5t26 -33t35.5 -10q21 0 36.5 10t26.5 33t16.5 60.5t5.5 92.5 t-5.5 92t-16.5 60t-26.5 33t-36.5 10z" />
<glyph horiz-adv-x="299" d="M251 0h-138v420l-58 -47l-51 117l156 116h91v-606z" />
<glyph horiz-adv-x="441" d="M26 0v89l163 205q41 51 59.5 83t18.5 58q0 30 -16.5 44.5t-42.5 14.5q-56 0 -80 -74l-105 46q29 81 81 114.5t121 33.5q81 0 130.5 -40.5t49.5 -118.5q0 -24 -6 -48t-19.5 -50.5t-34.5 -56.5t-51 -66l-100 -125l221 6v-115h-389z" />
<glyph horiz-adv-x="467" d="M214 1q38 0 61.5 26t23.5 76q0 47 -24 70.5t-65 23.5h-50v118h49q32 0 55.5 24t23.5 67q0 42 -22 65.5t-59 23.5t-58 -22.5t-33 -62.5l-107 43q24 86 79 123.5t136 37.5q101 0 152 -50.5t51 -132.5q0 -56 -22 -97t-64 -72q45 -20 70 -62.5t25 -105.5q0 -46 -14 -84.5 t-41.5 -66t-68 -43t-92.5 -15.5q-76 0 -133 35.5t-83 116.5l106 54q17 -51 43 -70.5t61 -19.5z" />
<glyph horiz-adv-x="512" d="M25 55v102l151 443h134l-148 -420h142v234h130v-234h61v-125h-61v-155h-130v155h-279z" />
<glyph horiz-adv-x="477" d="M218 -115q-75 0 -130 35.5t-81 116.5l107 54q17 -51 42 -70.5t60 -19.5q45 0 68.5 34.5t23.5 91.5q0 60 -24 87t-64 27q-26 0 -47.5 -12t-38.5 -34l-97 44l23 361h361v-121h-246l-9 -156q19 14 43 21t50 7q40 0 74.5 -13t59.5 -40t39 -69t14 -100q0 -113 -57.5 -178.5 t-170.5 -65.5z" />
<glyph horiz-adv-x="503" d="M266 -15q-115 0 -175.5 87.5t-60.5 275.5q0 182 61 274t191 92q76 0 123 -32.5t72 -98.5l-107 -56q-15 35 -35.5 53.5t-51.5 18.5q-28 0 -50 -12.5t-37 -42t-22.5 -77t-7.5 -116.5v-18q16 49 52.5 78t90.5 29q37 0 67.5 -14t53 -41.5t35 -68.5t12.5 -95q0 -52 -13 -95 t-39 -74.5t-65.5 -49t-93.5 -17.5zM262 101q37 0 57.5 29t20.5 87q0 56 -19 85.5t-57 29.5q-37 0 -59.5 -31.5t-22.5 -85.5q0 -53 21.5 -83.5t58.5 -30.5z" />
<glyph horiz-adv-x="430" d="M106 -100q0 96 13 181.5t36.5 158.5t55.5 132.5t70 101.5l-265 -3v129h405v-108q-81 -102 -123 -250t-37 -342h-155z" />
<glyph horiz-adv-x="494" d="M246 -14q-105 0 -160.5 55.5t-55.5 152.5q0 63 26 107.5t69 66.5q-34 23 -54.5 62t-20.5 89q0 94 51 144.5t145 50.5q96 0 147 -50.5t51 -144.5q0 -50 -21 -89t-55 -62q44 -22 69.5 -66t25.5 -108q0 -97 -55 -152.5t-162 -55.5zM320 513q0 37 -18.5 63.5t-54.5 26.5 t-54.5 -26.5t-18.5 -63.5t18.5 -63.5t53.5 -26.5q36 0 55 26t19 64zM247 98q40 0 61 28t21 74q0 43 -21 72t-62 29q-39 0 -60 -29t-21 -72q0 -45 21.5 -73.5t60.5 -28.5z" />
<glyph horiz-adv-x="503" d="M240 498q-36 0 -57 -29t-21 -87q0 -56 19.5 -85.5t56.5 -29.5q38 0 60 31.5t22 85.5q0 53 -21 83.5t-59 30.5zM236 614q115 0 175.5 -87.5t60.5 -275.5q0 -182 -60.5 -274t-190.5 -92q-76 0 -123.5 32.5t-71.5 98.5l107 56q14 -35 34.5 -53.5t52.5 -18.5q28 0 49.5 12.5 t36.5 42t22.5 77t7.5 116.5v18q-16 -49 -52 -78t-91 -29q-36 0 -67 14t-53.5 41.5t-35 68.5t-12.5 95q0 52 13 95t39 74.5t66 49t93 17.5z" />
<glyph horiz-adv-x="342" d="M22 0zM22 6q0 110 35.5 162.5t113.5 52.5t113 -52.5t35 -162.5t-35 -162.5t-113 -52.5t-113.5 53t-35.5 162zM221 6q0 76 -13 104.5t-37 28.5q-25 0 -38 -29t-13 -104q0 -76 13 -105t39 -29q23 0 36 29t13 105z" />
<glyph horiz-adv-x="211" d="M5 0zM175 -200h-99v291l-34 -25l-37 81l103 70h67v-417z" />
<glyph horiz-adv-x="287" d="M3 0zM20 -200v68l117 158q32 44 32 70q0 39 -36 39q-18 0 -31 -10.5t-23 -36.5l-76 30q17 55 53.5 79t86.5 24q57 0 90.5 -29t33.5 -83q0 -36 -17 -68.5t-52 -80.5l-56 -77l130 4v-87h-252z" />
<glyph horiz-adv-x="297" d="M7 0zM144 -209q-48 0 -83.5 21t-53.5 71l72 37q11 -29 25.5 -39t33.5 -10q43 0 43 49q0 24 -13 37t-35 13h-29v75h29q18 0 30 12.5t12 34.5t-11 33.5t-31 11.5q-37 0 -49 -43l-73 30q14 51 48.5 74t86.5 23q63 0 95.5 -31t32.5 -79q0 -33 -13.5 -56.5t-39.5 -43.5 q26 -13 41.5 -37.5t15.5 -59.5q0 -56 -35.5 -89.5t-98.5 -33.5z" />
<glyph horiz-adv-x="331" d="M16 0zM16 -115v72l90 255h96l-89 -241h78v119h92v-119h37v-86h-37v-85h-92v85h-175z" />
<glyph horiz-adv-x="299" d="M4 0zM118 130l-5 -77q22 14 56 14q49 0 81 -31.5t32 -100.5q0 -68 -39 -106t-105 -38q-46 0 -80 19t-54 67l72 41q11 -27 25 -36.5t34 -9.5q25 0 37 17t12 46q0 30 -12.5 44.5t-32.5 14.5q-30 0 -47 -26l-68 31l14 213h231v-82h-151z" />
<glyph horiz-adv-x="324" d="M22 0zM176 -209q-75 0 -114.5 51.5t-39.5 161.5q0 106 37 161.5t118 55.5q95 0 125 -79l-71 -38q-8 19 -17.5 28.5t-29.5 9.5q-33 0 -48.5 -30t-15.5 -104v-9q9 27 29 43.5t51 16.5q45 0 74.5 -32.5t29.5 -96.5q0 -61 -31 -100t-97 -39zM129 -72q0 -28 10.5 -43.5 t30.5 -15.5q38 0 38 59q0 28 -9.5 43.5t-28.5 15.5t-30 -16.5t-11 -42.5z" />
<glyph horiz-adv-x="273" d="M12 0zM176 -200h-111q0 115 31 197t75 129l-159 -3v89h255v-71q-24 -33 -41 -66.5t-28 -73.5t-16.5 -89t-5.5 -112z" />
<glyph horiz-adv-x="317" d="M22 0zM158 -209q-66 0 -101 33t-35 91q0 37 15 62.5t42 38.5q-20 14 -32.5 36.5t-12.5 51.5q0 57 32 87t92 30t92 -30t32 -87q0 -29 -12.5 -51.5t-32.5 -36.5q26 -14 41.5 -39t15.5 -62q0 -58 -34.5 -91t-101.5 -33zM196 98q0 18 -9.5 32t-27.5 14q-20 0 -29.5 -14 t-9.5 -32q0 -19 10 -32.5t28 -13.5q19 0 28.5 13t9.5 33zM200 -83q0 21 -10.5 36.5t-30.5 15.5q-22 0 -32.5 -15.5t-10.5 -36.5q0 -23 11 -38t31 -15t31 15t11 38z" />
<glyph horiz-adv-x="322" d="M17 0zM191 81q0 27 -11 43.5t-28 16.5q-39 0 -39 -59q0 -28 9.5 -44.5t29.5 -16.5q18 0 28.5 16.5t10.5 43.5zM147 221q75 0 114 -51.5t39 -162.5q0 -105 -38 -160.5t-120 -55.5q-42 0 -75.5 14.5t-49.5 49.5l64 50q10 -20 22 -28.5t32 -8.5q36 0 51.5 30t15.5 102v9 q-10 -29 -29.5 -45.5t-49.5 -16.5q-46 0 -75 33t-29 99q0 31 8 57t23.5 45t39.5 29.5t57 10.5z" />
<glyph horiz-adv-x="244" d="M21 0zM158 -142h-72v89h-65v68h65v90h72v-90h64v-68h-64v-89z" />
<glyph horiz-adv-x="244" d="M21 0zM222 16v-70h-201v70h201z" />
<glyph horiz-adv-x="244" d="M21 0zM222 64v-71h-201v71h201zM222 -34v-70h-201v70h201z" />
<glyph horiz-adv-x="180" d="M17 0zM168 -208l-13 -82q-138 19 -138 257t135 257l16 -82q-19 -4 -33 -15t-23.5 -31t-14.5 -51.5t-5 -77.5t5 -77.5t14.5 -51.5t23.5 -31t33 -15z" />
<glyph horiz-adv-x="180" d="M12 0zM25 -290l-13 82q19 4 33 15t23.5 31t14.5 51.5t5 77.5t-5 77.5t-14.5 51.5t-23.5 31t-33 15l16 82q135 -19 135 -257t-138 -257z" />
<glyph horiz-adv-x="236" d="M40 648q0 39 20.5 59t57.5 20t57.5 -20t20.5 -59q0 -38 -20.5 -59t-57.5 -21t-57.5 21t-20.5 59zM50 496h137v-496h-137v496z" />
<glyph horiz-adv-x="462" d="M49 0zM306 0l-121 217v-217h-136v700h137l-1 -437l123 233h140l-136 -242l146 -254h-152zM318 -147q0 -69 -33 -117t-84 -63l-30 52q27 12 47 32.5t25 47.5q-32 -1 -50 16t-18 51q0 72 71 72q34 0 53 -23t19 -68z" />
<glyph horiz-adv-x="580" d="M41 0zM305 259v116h241v-87q0 -79 -16.5 -136t-48.5 -94t-78 -54.5t-104 -17.5q-123 0 -190.5 89.5t-67.5 275.5q0 190 66 276.5t200 86.5q42 0 77.5 -9t64.5 -31t50 -57t33 -87l-123 -43q-16 56 -41.5 77t-62.5 21q-29 0 -51.5 -11t-38 -38t-23.5 -72.5t-8 -113.5 q0 -69 8 -115.5t23.5 -75t38 -40.5t51.5 -12q43 0 72 35t28 117h-100zM361 907h81q0 -39 -9.5 -65.5t-27 -42.5t-43 -23t-57.5 -7q-33 0 -58 7t-42.5 23t-26.5 42.5t-9 65.5h81q0 -36 13 -49.5t42 -13.5t42.5 13.5t13.5 49.5z" />
<glyph horiz-adv-x="580" d="M41 0zM305 259v116h241v-87q0 -79 -16.5 -136t-48.5 -94t-78 -54.5t-104 -17.5q-123 0 -190.5 89.5t-67.5 275.5q0 190 66 276.5t200 86.5q42 0 77.5 -9t64.5 -31t50 -57t33 -87l-123 -43q-16 56 -41.5 77t-62.5 21q-29 0 -51.5 -11t-38 -38t-23.5 -72.5t-8 -113.5 q0 -69 8 -115.5t23.5 -75t38 -40.5t51.5 -12q43 0 72 35t28 117h-100zM302 835l-43 -59h-103v4l94 128h111l95 -128v-4h-108z" />
<glyph horiz-adv-x="580" d="M41 0zM305 259v116h241v-87q0 -79 -16.5 -136t-48.5 -94t-78 -54.5t-104 -17.5q-123 0 -190.5 89.5t-67.5 275.5q0 190 66 276.5t200 86.5q42 0 77.5 -9t64.5 -31t50 -57t33 -87l-123 -43q-16 56 -41.5 77t-62.5 21q-29 0 -51.5 -11t-38 -38t-23.5 -72.5t-8 -113.5 q0 -69 8 -115.5t23.5 -75t38 -40.5t51.5 -12q43 0 72 35t28 117h-100zM375 -147q0 -69 -33 -117t-84 -63l-30 52q27 12 47 32.5t25 47.5q-32 -1 -50 16t-18 51q0 72 71 72q34 0 53 -23t19 -68z" />
<glyph horiz-adv-x="580" d="M41 0zM305 259v116h241v-87q0 -79 -16.5 -136t-48.5 -94t-78 -54.5t-104 -17.5q-123 0 -190.5 89.5t-67.5 275.5q0 190 66 276.5t200 86.5q42 0 77.5 -9t64.5 -31t50 -57t33 -87l-123 -43q-16 56 -41.5 77t-62.5 21q-29 0 -51.5 -11t-38 -38t-23.5 -72.5t-8 -113.5 q0 -69 8 -115.5t23.5 -75t38 -40.5t51.5 -12q43 0 72 35t28 117h-100zM231 849q0 72 73 72q72 0 72 -72q0 -73 -72 -73q-73 0 -73 73z" />
<glyph horiz-adv-x="555" d="M64 0zM362 -147q0 -69 -33 -117t-84 -63l-30 52q27 12 47 32.5t25 47.5q-32 -1 -50 16t-18 51q0 72 71 72q34 0 53 -23t19 -68zM382 0l-173 319v-319h-145v700h145v-342l177 342h160l-197 -348l204 -352h-171z" />
<glyph horiz-adv-x="377" d="M39 293zM337 410v-117h-298v117h298z" />
<glyph horiz-adv-x="450" d="M39 293zM412 410v-117h-373v117h373z" />
<glyph horiz-adv-x="601" d="M39 293zM563 410v-117h-524v117h524z" />
<glyph horiz-adv-x="450" d="M39 293zM412 410v-117h-373v117h373z" />
<glyph horiz-adv-x="236" d="M187 700v-700h-137v700h137z" />
<glyph horiz-adv-x="540" d="M304 385h-96v-385h-136v385h-59v111h59v50q0 47 12 81.5t33.5 57.5t50.5 34t64 11q55 0 92 -28l-34 -102q-17 11 -37 11t-32.5 -15.5t-12.5 -54.5v-45h96v-111zM495 700v-700h-137v700h137z" />
<glyph horiz-adv-x="540" d="M0 0z" />
</font>
</defs>
</svg>
