<?xml version="1.0" standalone="no"?>
<!DOCTYPE svg PUBLIC "-//W3C//DTD SVG 1.1//EN" "http://www.w3.org/Graphics/SVG/1.1/DTD/svg11.dtd" >
<svg xmlns="http://www.w3.org/2000/svg">
<metadata></metadata>
<defs>
<font id="honeywell_cond_webbold_italic" horiz-adv-x="535" >
<font-face units-per-em="1000" ascent="780" descent="-220" />
<missing-glyph horiz-adv-x="173" />
<glyph unicode="fi" horiz-adv-x="500" d="M390 627q0 34 18 55.5t53 21.5q26 0 40 -14t14 -39q0 -36 -19.5 -56.5t-51.5 -20.5q-26 0 -40 14.5t-14 38.5zM299 407h-98l-63 -407h-101l64 407h-62l14 84h62l11 62q15 88 59.5 129t104.5 41q22 0 41.5 -5.5t33.5 -17.5l-37 -82q-18 12 -39 12q-22 0 -40 -17t-25 -64 l-9 -58h97zM380 491h101l-77 -491h-101z" />
<glyph unicode="fl" horiz-adv-x="514" d="M299 407h-98l-63 -407h-101l64 407h-62l14 84h62l11 62q6 43 21.5 75t37 53t48 31.5t56.5 10.5q21 0 41.5 -5.5t35.5 -16.5l-37 -82q-18 12 -40 12t-40 -17.5t-25 -64.5l-9 -58h97zM408 0q-25 0 -44 6t-31.5 20t-16.5 37t1 57l92 580h101l-92 -578q-4 -23 3 -31.5 t24 -8.5h34l-13 -82h-58z" />
<glyph horiz-adv-x="133" />
<glyph horiz-adv-x="133" />
<glyph unicode="&#xd;" horiz-adv-x="133" />
<glyph unicode=" "  horiz-adv-x="173" />
<glyph unicode="&#x09;" horiz-adv-x="173" />
<glyph unicode="&#xa0;" horiz-adv-x="173" />
<glyph unicode="!" horiz-adv-x="188" d="M220 700l-93 -498h-75l63 498h105zM127 71q0 -35 -17.5 -56t-51.5 -21q-26 0 -38.5 14.5t-12.5 37.5q0 33 16.5 55t51.5 22q52 0 52 -52z" />
<glyph unicode="&#x22;" horiz-adv-x="275" d="M133 483h-69l23 230h86zM251 483h-69l32 230h86z" />
<glyph unicode="#" horiz-adv-x="584" d="M335 277l59 154h-117l-58 -154h116zM231 0l75 198h-118l-75 -198h-98l75 198h-81l34 79h76l59 154h-83l32 78h81l73 191h99l-73 -191h118l72 191h99l-73 -191h81l-33 -78h-78l-59 -154h87l-33 -79h-83l-75 -198h-99z" />
<glyph unicode="$" horiz-adv-x="441" d="M217 417l32 186q-43 -7 -64 -34.5t-21 -67.5q0 -55 53 -84zM307 198q0 29 -11.5 50.5t-43.5 39.5l-3 -14l-28 -182q41 7 63.5 33.5t22.5 72.5zM143 -62l12 74q-29 3 -55 13.5t-46.5 29t-34.5 46.5t-20 67l87 34q5 -50 26 -76t55 -34l35 217l-1 2q-66 30 -96.5 74 t-30.5 103q0 40 12.5 74.5t36.5 60.5t58.5 42.5t79.5 19.5l13 81h53l-13 -81q57 -7 94 -45.5t42 -108.5l-86 -34q-5 46 -21.5 70.5t-40.5 31.5l-34 -205l5 -2q66 -31 96.5 -72t30.5 -102q0 -94 -52 -146t-139 -59l-13 -75h-53z" />
<glyph unicode="%" horiz-adv-x="794" d="M64 0zM658 419q57 0 84.5 -33t27.5 -102q0 -18 -2 -37t-5 -42q-17 -111 -56.5 -162t-109.5 -51q-58 0 -85 33t-27 102q0 34 6 78q16 111 56 162.5t111 51.5zM652 354q-30 0 -50.5 -32.5t-33.5 -115.5q-4 -25 -6 -44.5t-2 -34.5q0 -39 11.5 -55t33.5 -16q14 0 26 7.5 t22.5 24.5t18.5 46t15 71q4 24 6 43.5t2 35.5q0 38 -11 54t-32 16zM237 712q57 0 84.5 -33t27.5 -102q0 -18 -2 -37t-5 -42q-17 -111 -56.5 -162t-109.5 -51q-58 0 -85 33t-27 102q0 34 6 78q16 111 56 162.5t111 51.5zM231 647q-30 0 -50.5 -32.5t-33.5 -115.5 q-4 -25 -6 -44.5t-2 -34.5q0 -39 11.5 -55t33.5 -16q14 0 26 7.5t22.5 24.5t18.5 46t15 71q4 24 6 43.5t2 35.5q0 38 -11 54t-32 16zM648 700l-372 -700h-89l371 700h90z" />
<glyph unicode="&#x26;" horiz-adv-x="541" d="M504 61l-61 -77q-25 17 -46 34t-44 40q-36 -37 -79.5 -54t-93.5 -17q-37 0 -68 9.5t-54 30t-36 51t-13 72.5q0 67 31.5 121t99.5 104q-11 29 -18 64.5t-7 72.5q0 46 10.5 83t32 63t53 40.5t73.5 14.5q58 0 91.5 -30.5t33.5 -88.5t-35.5 -118t-124.5 -121q21 -42 48.5 -84 t59.5 -80q32 57 57 130t38 157h88q-19 -110 -50 -197t-73 -150q44 -42 87 -70zM202 522q0 -24 4 -48t12 -45q59 40 81 77t22 69q0 29 -13.5 43t-35.5 14q-28 0 -49 -25.5t-21 -84.5zM104 165q0 -51 26.5 -73t62.5 -22q29 0 55 12t47 35q-35 40 -66 86t-55 96 q-32 -27 -51.5 -60t-18.5 -74z" />
<glyph unicode="'" horiz-adv-x="150" d="M62 483l28 230h85l-45 -230h-68z" />
<glyph unicode="(" horiz-adv-x="273" d="M169 -103q-144 28 -144 258q0 35 3.5 74t10.5 83q29 193 93 294.5t165 121.5l14 -86q-34 -10 -61.5 -31.5t-50 -59.5t-40 -96.5t-30.5 -142.5q-15 -92 -15 -152q0 -41 6 -71.5t18 -51.5t29 -34.5t40 -20.5z" />
<glyph unicode=")" horiz-adv-x="273" d="M107 728q144 -29 144 -258q0 -35 -3.5 -74t-10.5 -83q-29 -193 -93 -294.5t-165 -121.5l-14 86q34 10 61.5 31.5t50 59.5t39.5 96.5t31 142.5q15 91 15 152q0 82 -24 123t-69 55z" />
<glyph unicode="*" horiz-adv-x="335" d="M113 359l-55 43l81 104l-83 36l40 76l75 -39l15 134h84l-27 -134l89 39l16 -75l-95 -37l49 -104l-70 -43l-45 98z" />
<glyph unicode="+" horiz-adv-x="385" d="M202 116h-74l24 157h-113l11 75h113l26 157h74l-26 -157h114l-11 -75h-114z" />
<glyph unicode="," horiz-adv-x="189" d="M-2 -138l-19 45q31 15 51.5 38.5t27.5 49.5q-26 1 -38 14.5t-12 36.5q0 32 17 54t52 22q53 0 53 -58q0 -28 -8.5 -58.5t-25 -58t-41 -50t-57.5 -35.5z" />
<glyph unicode="-" horiz-adv-x="347" d="M315 302l-13 -88h-270l14 88h269z" />
<glyph unicode="." horiz-adv-x="188" d="M128 71q0 -35 -18 -56t-51 -21q-26 0 -39 14.5t-13 37.5q0 33 16.5 55t51.5 22q53 0 53 -52z" />
<glyph unicode="/" horiz-adv-x="404" d="M471 700l-399 -700h-108l400 700h107z" />
<glyph unicode="0" d="M42 0zM326 713q91 0 134 -53.5t43 -171.5q0 -31 -2.5 -65t-8.5 -73q-14 -95 -36.5 -164t-56 -113t-78 -65t-100.5 -21q-91 0 -135 54.5t-44 171.5q0 30 3.5 64.5t8.5 72.5q28 190 93 276.5t179 86.5zM317 624q-29 0 -53 -14t-44 -46.5t-35.5 -84.5t-27.5 -128 q-7 -43 -10.5 -78.5t-3.5 -63.5q0 -74 23 -104t63 -30q28 0 52 13.5t44 45.5t36 84.5t28 130.5q7 42 10 77.5t3 63.5q0 74 -21 104t-64 30z" />
<glyph unicode="1" d="M420 0h-408l15 93h152l74 469l-72 -54l-28 84l157 110h69l-97 -609h153z" />
<glyph unicode="2" d="M45 0zM45 0l14 81l233 277q51 60 74.5 104t23.5 86q0 35 -19 55t-54 20q-40 0 -71 -23t-60 -77l-75 39q41 83 98.5 117t127.5 34q79 0 119.5 -40t40.5 -107q0 -30 -7.5 -58.5t-23.5 -58.5t-41.5 -64t-61.5 -77l-183 -218l263 3l-15 -93h-383z" />
<glyph unicode="3" d="M45 0zM45 142l86 36q6 -53 31 -79.5t66 -26.5q31 0 55 12t40 33t24.5 49.5t8.5 61.5q0 45 -21.5 67t-62.5 22h-50l14 89h49q24 0 44.5 11t34.5 29.5t22 43.5t8 53q0 38 -20.5 60t-58.5 22q-41 0 -71 -21t-51 -69l-76 37q62 141 221 141q78 0 119 -40t41 -109 q0 -57 -28.5 -112t-82.5 -87q32 -16 50.5 -48t18.5 -83q0 -52 -15.5 -97t-45.5 -78.5t-74 -53t-101 -19.5q-65 0 -114.5 37.5t-60.5 118.5z" />
<glyph unicode="4" d="M21 0zM21 173l13 76l232 451h100l-226 -434h180l45 286h99l-45 -286h70l-14 -93h-71l-27 -173h-99l27 173h-284z" />
<glyph unicode="5" d="M43 0zM252 609l-43 -198q44 36 117 36q31 0 57 -9.5t45 -30t30 -53t11 -78.5q0 -62 -17 -115t-49.5 -92t-78.5 -61t-103 -22q-75 0 -122 39t-56 114l84 36q6 -54 34 -78.5t68 -24.5q33 0 58.5 14.5t43 40t26.5 60.5t9 76q0 49 -23 74t-62 25q-66 0 -116 -53l-65 31 l83 360h329l-15 -91h-245z" />
<glyph unicode="6" d="M56 0zM518 585l-87 -43q-19 85 -87 85q-41 0 -69 -20t-48.5 -56.5t-34.5 -89t-26 -116.5q0 -1 -1.5 -10t-1.5 -10q23 52 65 83t97 31q62 0 100 -44t38 -129q0 -55 -14 -105.5t-42.5 -89.5t-71 -62t-99.5 -23q-42 0 -75.5 13.5t-57 42t-35.5 73t-12 106.5q0 27 2.5 58 t7.5 66q27 188 98.5 278t183.5 90q143 0 170 -128zM282 356q-26 0 -48 -13.5t-38.5 -36.5t-26 -54.5t-9.5 -68.5q0 -50 21 -80t62 -30q30 0 52.5 14.5t37 38.5t22 55.5t7.5 64.5q0 110 -80 110z" />
<glyph unicode="7" d="M126 0zM126 0q15 95 43 185t64 168.5t79 143.5t88 111l-268 -2l15 94h374l-15 -91q-48 -41 -90.5 -103t-77 -140t-60.5 -170.5t-41 -195.5h-111z" />
<glyph unicode="8" d="M51 0zM455 225q0 -52 -16 -95.5t-45.5 -75t-72 -49.5t-96.5 -18q-42 0 -74.5 12.5t-54.5 35t-33.5 53.5t-11.5 68q0 81 35.5 136.5t92.5 77.5q-26 20 -41 52t-15 77q0 42 13.5 80.5t40 68t65.5 47.5t91 18q74 0 115 -40.5t41 -112.5q0 -66 -29 -116t-77 -77 q33 -17 52.5 -54t19.5 -88zM395 537q0 39 -18 65t-58 26q-23 0 -42 -10.5t-32.5 -28t-21.5 -41t-8 -50.5q0 -35 18.5 -61.5t55.5 -26.5q21 0 40 9.5t33.5 26.5t23.5 40t9 51zM357 217q0 44 -22.5 73t-64.5 29q-26 0 -48 -11.5t-37.5 -31t-24.5 -46t-9 -57.5q0 -45 21.5 -73 t63.5 -28q24 0 46 11t38.5 30.5t26.5 46t10 57.5z" />
<glyph unicode="9" d="M36 0zM263 340q28 0 51.5 14t40.5 38t26.5 56t9.5 68q0 51 -21.5 81t-58.5 30q-27 0 -49.5 -13t-38 -36.5t-24 -56.5t-8.5 -73q0 -52 18.5 -80t53.5 -28zM209 -13q-145 0 -173 128l85 43q22 -85 88 -85q40 0 69 20t49.5 56.5t34 88.5t24.5 116q0 1 1 10t1 10 q-23 -54 -64.5 -86.5t-95.5 -32.5q-66 0 -102.5 45t-36.5 130q0 55 13.5 106.5t41.5 90.5t71.5 62.5t103.5 23.5q84 0 130.5 -55t46.5 -177q0 -60 -12 -133q-28 -184 -97.5 -272.5t-177.5 -88.5z" />
<glyph unicode=":" horiz-adv-x="189" d="M4 0zM125 71q0 -35 -18 -56t-51 -21q-26 0 -39 14.5t-13 37.5q0 33 16.5 55t51.5 22q53 0 53 -52zM183 436q0 -35 -18 -56t-51 -21q-26 0 -39 14.5t-13 37.5q0 33 16.5 55t51.5 22q53 0 53 -52z" />
<glyph unicode=";" horiz-adv-x="191" d="M0 0zM187 436q0 -35 -18 -56t-51 -21q-26 0 -39 14.5t-13 37.5q0 33 16.5 55t51.5 22q53 0 53 -52zM-2 -138l-19 45q31 15 51.5 38.5t27.5 49.5q-26 1 -38 14.5t-12 36.5q0 32 17 54t52 22q53 0 53 -58q0 -28 -8.5 -58.5t-25 -58t-41 -50t-57.5 -35.5z" />
<glyph unicode="&#x3c;" horiz-adv-x="376" d="M307 529l34 -63l-191 -158l139 -154l-52 -65l-176 198l8 45z" />
<glyph unicode="=" horiz-adv-x="384" d="M362 421l-11 -78h-302l12 78h301zM340 276l-12 -78h-302l12 78h302z" />
<glyph unicode="&#x3e;" horiz-adv-x="376" d="M75 89l-33 63l190 158l-137 155l50 64l176 -197l-7 -45z" />
<glyph unicode="?" horiz-adv-x="394" d="M139 202l22 161h35q28 0 52 13t41 35.5t26.5 51.5t9.5 62q0 50 -22.5 76t-64.5 26q-40 0 -72 -22.5t-50 -76.5l-74 32q25 78 79.5 116.5t129.5 38.5q85 0 127 -47t42 -129q0 -52 -14 -93.5t-38.5 -72.5t-57.5 -50.5t-71 -27.5l-19 -93h-81zM217 71q0 -35 -17.5 -56 t-51.5 -21q-26 0 -39 14.5t-13 37.5q0 33 16.5 55t51.5 22q53 0 53 -52z" />
<glyph unicode="@" horiz-adv-x="607" d="M470 -5q-42 -48 -94 -72.5t-116 -24.5q-106 0 -167 71t-61 203q0 97 26.5 173.5t70.5 130t102.5 81.5t121.5 28q105 0 163 -65.5t58 -183.5q0 -57 -12 -104t-34 -80.5t-52 -52.5t-66 -19q-26 0 -43 13t-22 40q-21 -29 -45.5 -44.5t-55.5 -15.5q-35 0 -55.5 20.5 t-20.5 58.5q0 25 10 48.5t29.5 41.5t47.5 29t64 11h34q3 12 3 26q0 29 -14 42.5t-34 13.5q-41 0 -64 -49l-46 32q17 32 47.5 53.5t77.5 21.5t73.5 -25t26.5 -74q0 -17 -3 -38l-15 -98q-1 -5 -1.5 -13t-0.5 -14q0 -35 28 -35q20 0 38 15.5t31.5 43t21.5 66t8 85.5 q0 104 -49 157.5t-131 53.5q-53 0 -102 -25t-87.5 -72t-61.5 -116.5t-23 -157.5q0 -60 14 -105t39 -74t60 -43.5t76 -14.5q51 0 96.5 20t80.5 62zM231 162q0 -17 9 -26.5t23 -9.5q32 0 54 26t28 72l1 10h-26q-43 0 -66 -21.5t-23 -50.5z" />
<glyph unicode="A" horiz-adv-x="508" d="M308 578l-140 -355h167zM351 0l-11 134h-205l-53 -134h-107l289 700h126l67 -700h-106z" />
<glyph unicode="B" horiz-adv-x="523" d="M32 0l111 700h217q41 0 70 -11t47.5 -30t27 -45.5t8.5 -57.5q0 -71 -29 -120.5t-78 -73.5q38 -14 54.5 -48.5t16.5 -79.5q0 -112 -61.5 -173t-169.5 -61h-214zM331 611h-102l-33 -210h102q31 0 52.5 11.5t35 30t19.5 41t6 43.5q0 40 -21.5 62t-58.5 22zM289 310h-107 l-36 -221h103q63 0 94.5 37t31.5 99q0 40 -20.5 62.5t-65.5 22.5z" />
<glyph unicode="C" horiz-adv-x="525" d="M63 351q14 97 39.5 166t62.5 112.5t85 63.5t106 20q85 0 134 -43.5t57 -146.5l-96 -29q-7 71 -33.5 98t-72.5 27q-30 0 -57 -12t-49.5 -42.5t-40.5 -82.5t-31 -131q-12 -71 -12 -124q0 -84 30.5 -116t84.5 -32q41 0 76.5 25t64.5 91l84 -44q-18 -45 -43.5 -76 t-56.5 -50.5t-66 -28.5t-72 -9q-105 0 -155.5 55t-50.5 180q0 30 3 60.5t9 68.5z" />
<glyph unicode="D" horiz-adv-x="567" d="M32 0l111 700h189q105 0 158 -56t53 -178q0 -22 -2 -52t-7 -60q-27 -182 -105.5 -268t-205.5 -86h-191zM150 93h81q34 0 65.5 12.5t57 42t45 79t30.5 123.5q5 27 7.5 54.5t2.5 50.5q0 82 -31 117t-88 35h-87z" />
<glyph unicode="E" horiz-adv-x="505" d="M437 91l-14 -91h-391l111 700h396l-16 -92h-293l-34 -211h251l-15 -95h-250l-35 -211h290z" />
<glyph unicode="F" horiz-adv-x="467" d="M425 297h-242l-47 -297h-104l111 700h378l-14 -94h-274l-34 -212h242z" />
<glyph unicode="G" horiz-adv-x="557" d="M236 -13q-90 0 -137 59t-47 183q0 27 3 57.5t8 64.5q14 97 38.5 165.5t61.5 112t85.5 64t110.5 20.5q82 1 130.5 -40t56.5 -141l-95 -29q-7 69 -33 92.5t-71 23.5q-33 0 -60.5 -12.5t-50 -43t-40 -82.5t-29.5 -130q-6 -37 -8.5 -67.5t-2.5 -56.5q0 -85 28 -118.5 t79 -33.5q22 0 45 9t43.5 32t37 61t24.5 97h-117l14 86h213l-57 -360h-73l3 87q-28 -49 -69.5 -74.5t-90.5 -25.5z" />
<glyph unicode="H" horiz-adv-x="598" d="M380 0l47 303h-243l-48 -303h-104l111 700h104l-48 -300h245l47 300h104l-111 -700h-104z" />
<glyph unicode="I" horiz-adv-x="251" d="M32 0l111 700h104l-111 -700h-104z" />
<glyph unicode="J" horiz-adv-x="400" d="M101 -13q-36 0 -73.5 12t-63.5 41l62 80q17 -18 39 -28t45 -10q43 0 74.5 37.5t45.5 124.5l73 456h105l-72 -451q-12 -75 -34 -125.5t-52.5 -80.5t-68 -43t-80.5 -13z" />
<glyph unicode="K" horiz-adv-x="509" d="M354 0l-103 297l-85 -102l-30 -195h-104l111 700h104l-57 -350l265 350h118l-242 -306l139 -394h-116z" />
<glyph unicode="L" horiz-adv-x="474" d="M151 95h278l-15 -95h-382l110 700h105z" />
<glyph unicode="M" horiz-adv-x="720" d="M275 0l-75 496l-73 -496h-95l111 700h117l81 -550l255 550h121l-110 -700h-99l84 497l-233 -497h-84z" />
<glyph unicode="N" horiz-adv-x="592" d="M383 0l-179 494l-75 -494h-97l111 700h91l181 -503l77 503h97l-111 -700h-95z" />
<glyph unicode="O" horiz-adv-x="587" d="M360 713q106 0 154.5 -56t48.5 -177q0 -29 -2.5 -60.5t-8.5 -68.5q-27 -190 -100.5 -277t-197.5 -87q-104 0 -153.5 57t-49.5 178q0 29 3.5 60.5t8.5 68.5q27 189 99.5 275.5t197.5 86.5zM350 620q-35 0 -63.5 -13t-51 -44t-39.5 -83.5t-29 -130.5q-6 -37 -9 -67t-3 -57 q0 -82 28.5 -114.5t79.5 -32.5q34 0 62.5 13t51.5 44.5t40.5 84t29.5 131.5q5 36 7.5 66.5t2.5 55.5q0 82 -27.5 114.5t-79.5 32.5z" />
<glyph unicode="P" horiz-adv-x="516" d="M32 0l111 700h210q86 0 128 -46t42 -130q0 -68 -17.5 -122.5t-50 -92t-78.5 -57.5t-103 -20h-101l-37 -232h-104zM331 606h-99l-44 -279h99q33 0 58 14.5t41.5 39t24.5 57.5t8 70q0 98 -88 98z" />
<glyph unicode="Q" horiz-adv-x="589" d="M360 713q106 0 154 -56t48 -177q0 -29 -2 -60.5t-7 -68.5q-18 -123 -54 -201.5t-95 -118.5l44 -121h-96l-31 84q-14 -4 -31.5 -5.5t-35.5 -1.5q-104 0 -153.5 57t-49.5 178q0 29 3.5 60.5t8.5 68.5q27 189 99.5 275.5t197.5 86.5zM350 620q-35 0 -63 -13t-50.5 -44 t-40 -83t-29.5 -131q-12 -74 -12 -124q0 -81 28.5 -114.5t79.5 -33.5q8 0 14 1l12 2l-43 124h97l26 -75q26 28 44 81t32 141q12 72 12 124q0 81 -27.5 113t-79.5 32z" />
<glyph unicode="R" horiz-adv-x="521" d="M191 347h103q32 0 56 13t40 36t24 53.5t8 65.5q0 47 -21 70t-67 23h-102zM176 255l-40 -255h-104l111 700h212q87 0 129.5 -44t42.5 -122q0 -100 -36.5 -162.5t-102.5 -92.5l64 -279h-111l-53 255h-112z" />
<glyph unicode="S" horiz-adv-x="470" d="M471 531l-92 -32q-7 68 -33.5 95.5t-69.5 27.5q-49 0 -75.5 -29.5t-25.5 -73.5q1 -32 18.5 -57t56.5 -46l37 -20q71 -38 102.5 -80.5t31.5 -106.5q0 -52 -16 -93.5t-45.5 -70t-71 -43.5t-91.5 -15q-81 0 -135 43t-68 138l93 36q8 -69 36 -99t77 -30q30 0 52.5 9.5 t36.5 25.5t21 36.5t7 43.5q0 35 -19.5 59.5t-59.5 46.5l-34 19q-66 37 -98 82t-32 108q0 44 14 82t40.5 66t65.5 44t89 16q78 0 130 -45t58 -137z" />
<glyph unicode="T" horiz-adv-x="452" d="M79 700h428l-15 -95h-162l-96 -605h-104l95 605h-162z" />
<glyph unicode="U" horiz-adv-x="568" d="M399 233l74 467h104l-73 -463q-20 -125 -86.5 -187.5t-170.5 -62.5q-94 0 -144.5 47.5t-50.5 140.5q0 14 2 29.5t4 32.5l72 463h105l-74 -466q-2 -12 -3 -22.5t-1 -21.5q0 -52 24 -79.5t75 -27.5q57 0 94 36t49 114z" />
<glyph unicode="V" horiz-adv-x="498" d="M225 127l226 573h107l-291 -700h-125l-66 700h105z" />
<glyph unicode="W" horiz-adv-x="707" d="M107 0l-33 700h104l13 -530l177 528h107l12 -524l179 526h101l-255 -700h-110l-9 525l-173 -525h-113z" />
<glyph unicode="X" horiz-adv-x="504" d="M340 0l-89 266l-168 -266h-117l240 358l-118 342h114l81 -252l155 252h115l-227 -343l127 -357h-113z" />
<glyph unicode="Y" horiz-adv-x="486" d="M188 273l-118 427h112l74 -321l178 321h114l-255 -427l-43 -273h-105z" />
<glyph unicode="Z" horiz-adv-x="449" d="M-24 0l12 77l376 532l-278 -3l16 94h395l-12 -77l-376 -533l296 4l-15 -94h-414z" />
<glyph unicode="[" horiz-adv-x="267" d="M-2 -86l127 802h187l-14 -81h-94l-101 -641h97l-13 -80h-189z" />
<glyph unicode="\" horiz-adv-x="409" d="M247 0l-183 700h113l183 -700h-113z" />
<glyph unicode="]" horiz-adv-x="268" d="M282 715l-127 -802h-187l14 81h94l101 641h-97l13 80h189z" />
<glyph unicode="^" horiz-adv-x="351" d="M191 700h94l60 -320l-1 -2h-85l-35 230l-110 -230h-86l1 2z" />
<glyph unicode="_" horiz-adv-x="360" d="M321 0l-15 -86h-362l14 86h363z" />
<glyph unicode="`" horiz-adv-x="456" d="M216 573l-75 115l1 7h113l39 -118v-4h-78z" />
<glyph unicode="a" horiz-adv-x="429" d="M108 120q0 -26 13 -40t35 -14q41 0 73 38t43 107l2 13h-39q-28 0 -51 -8t-40 -21.5t-26.5 -33t-9.5 -41.5zM260 83q-26 -45 -63 -70t-79 -25t-71.5 30t-29.5 84q0 40 14 75.5t42 62t69 42t94 15.5h51q2 8 2.5 19.5t0.5 21.5q0 45 -19.5 62t-48.5 17t-54.5 -16.5 t-41.5 -50.5l-69 45q26 49 71 78.5t113 29.5q67 0 108 -33.5t41 -107.5q0 -13 -1 -27.5t-4 -31.5l-48 -303h-83z" />
<glyph unicode="b" horiz-adv-x="468" d="M231 700l-44 -277q54 80 134 80q57 0 88 -43t31 -128q0 -18 -1.5 -39t-5.5 -45q-18 -123 -69.5 -192t-132.5 -69q-82 0 -114 86l-17 -73h-81l112 700h100zM276 418q-40 0 -71.5 -41t-45.5 -133q-3 -20 -5 -37t-2 -33q0 -54 18 -78.5t49 -24.5q44 0 73 41.5t43 132.5 q4 22 5 40t1 35q0 98 -65 98z" />
<glyph unicode="c" horiz-adv-x="405" d="M292 152l77 -41q-27 -59 -70 -91.5t-112 -32.5q-76 0 -116 43.5t-40 135.5q0 18 2 37.5t5 41.5q20 132 77.5 195t146.5 63q69 0 102.5 -36t39.5 -108l-87 -30q-7 43 -20 64.5t-48 21.5q-44 0 -72 -40t-43 -131q-3 -22 -5.5 -40.5t-2.5 -34.5q0 -51 18 -73t57 -22 q27 0 50 18t41 60z" />
<glyph unicode="d" horiz-adv-x="471" d="M194 72q40 0 71.5 40.5t45.5 131.5q6 42 6 71q0 55 -18 79.5t-49 24.5q-44 0 -71.5 -42t-42.5 -132q-5 -25 -6.5 -40.5t-1.5 -32.5q0 -100 66 -100zM155 -13q-60 0 -92 44.5t-32 130.5q0 37 6 82q18 128 71 193.5t129 65.5q71 0 101 -79l44 276h100l-111 -700h-81l3 76 q-27 -43 -60 -66t-78 -23z" />
<glyph unicode="e" horiz-adv-x="425" d="M187 -13q-74 0 -114.5 44.5t-40.5 138.5q0 33 6 74q18 126 75 192.5t147 66.5q72 0 104.5 -48t32.5 -124q0 -28 -4.5 -58.5t-10.5 -60.5h-253q-2 -7 -2.5 -19.5t-0.5 -21.5q0 -54 19.5 -76.5t56.5 -22.5q61 0 96 73l71 -39q-14 -24 -30 -46t-37 -38t-49 -25.5t-66 -9.5z M306 335q0 43 -15 62.5t-43 19.5q-38 0 -66 -29.5t-42 -99.5h163q3 25 3 47z" />
<glyph unicode="f" horiz-adv-x="287" d="M299 407h-97l-64 -407h-101l66 407h-63l13 84h62l11 60q6 45 21.5 77.5t37.5 53.5t49 31t57 10q23 0 43 -5t34 -16l-37 -83q-17 11 -40 11t-41.5 -17t-25.5 -64l-9 -58h97z" />
<glyph unicode="g" horiz-adv-x="467" d="M193 83q42 0 72.5 40t44.5 130q6 36 6 65q0 52 -18 76t-49 24q-43 0 -71.5 -39t-42.5 -127q-3 -20 -5 -37.5t-2 -33.5q0 -49 17.5 -73.5t47.5 -24.5zM64 -51q9 -82 83 -82q104 0 124 144l10 71q-23 -39 -55.5 -59t-69.5 -20q-59 0 -92.5 42.5t-33.5 129.5q0 34 6 76 q19 125 72 188.5t132 63.5q78 0 108 -86l18 74h81l-76 -482q-18 -114 -78.5 -170t-150.5 -56q-74 0 -113 32t-53 93z" />
<glyph unicode="h" horiz-adv-x="478" d="M231 700l-49 -304q29 57 67 82t80 25q55 0 83 -33.5t28 -95.5q0 -14 -1.5 -28.5t-3.5 -29.5l-50 -316h-101l47 297q2 12 3 24t1 22q0 68 -57 68q-41 0 -73 -44t-46 -125l-39 -242h-101l111 700h101z" />
<glyph unicode="i" horiz-adv-x="219" d="M108 629q0 34 17.5 55.5t52.5 21.5q26 0 40.5 -14t14.5 -40q0 -35 -19.5 -56t-51.5 -21q-26 0 -40 15t-14 39zM98 491h101l-77 -491h-102z" />
<glyph unicode="j" horiz-adv-x="219" d="M108 629q0 34 17.5 55.5t52.5 21.5q26 0 40 -14t14 -40q0 -35 -19 -56t-51 -21q-26 0 -40 15t-14 39zM14 -37l84 528h101l-85 -538q-14 -88 -57.5 -129t-101.5 -41q-25 0 -44 4t-38 14l39 85q9 -5 17 -8t19 -3q25 0 41.5 18.5t24.5 69.5z" />
<glyph unicode="k" horiz-adv-x="423" d="M138 116l-17 -116h-102l111 700h102l-77 -457l186 248h113l-178 -215l103 -276h-111l-65 193z" />
<glyph unicode="l" horiz-adv-x="233" d="M127 0q-25 0 -44 6t-31.5 20t-16.5 37t1 57l92 580h101l-92 -578q-4 -23 3 -31.5t24 -8.5h34l-13 -82h-58z" />
<glyph unicode="m" horiz-adv-x="703" d="M558 298q2 12 3.5 24.5t1.5 22.5q0 65 -51 65q-35 0 -64 -39t-42 -110l-41 -261h-100l47 296q2 14 3.5 26t1.5 23q0 65 -50 65q-36 0 -65 -41.5t-43 -119.5l-39 -249h-101l78 491h84l-5 -90q28 55 64.5 78.5t76.5 23.5q42 0 64.5 -29.5t30.5 -79.5q29 59 66 84t79 25 q56 0 82 -34t26 -95q0 -14 -1.5 -29.5t-3.5 -30.5l-50 -314h-99z" />
<glyph unicode="n" horiz-adv-x="478" d="M19 0l78 491h85l-6 -93q30 56 68.5 80.5t81.5 24.5q58 0 86 -34.5t28 -96.5q0 -14 -1.5 -28t-3.5 -29l-50 -315h-101l48 297q2 12 2.5 23t0.5 20q0 71 -57 71q-40 0 -73.5 -43t-44.5 -121l-40 -247h-101z" />
<glyph unicode="o" horiz-adv-x="451" d="M31 166q0 18 2 38t5 43q19 133 77 194.5t147 61.5q78 0 118 -42t40 -133q0 -18 -2 -38t-6 -43q-19 -132 -75.5 -196t-148.5 -64q-77 0 -117 43.5t-40 135.5zM197 74q48 0 76 39t43 133q8 46 8 75q0 52 -18.5 73t-54.5 21q-48 0 -75 -38.5t-41 -130.5q-4 -23 -6 -42.5 t-2 -35.5q0 -51 17.5 -72.5t52.5 -21.5z" />
<glyph unicode="p" horiz-adv-x="472" d="M277 417q-40 0 -72 -40.5t-46 -132.5q-6 -39 -6 -69q0 -54 18.5 -79.5t48.5 -25.5q45 0 73 42t43 133q3 22 5 39.5t2 34.5q0 98 -66 98zM-10 -186l108 677h84l-5 -82q29 48 65.5 71t78.5 23q59 0 89.5 -43t30.5 -128q0 -19 -2 -39.5t-6 -44.5q-17 -123 -68.5 -192 t-134.5 -69q-70 0 -100 72l-39 -245h-101z" />
<glyph unicode="q" horiz-adv-x="469" d="M342 -186h-100l37 249q-23 -36 -55 -56t-71 -20q-59 0 -91 44t-32 130q0 19 2 39.5t5 43.5q19 129 71 194t130 65q38 0 68 -21.5t43 -63.5l18 73h82zM194 72q40 0 71 41.5t46 132.5q6 40 6 70q0 54 -18 78.5t-48 24.5q-44 0 -73 -42t-43 -133q-7 -38 -7 -72 q0 -100 66 -100z" />
<glyph unicode="r" horiz-adv-x="303" d="M19 0l78 491h85l-7 -102q29 60 69.5 89.5t85.5 25.5l-17 -106q-61 8 -101.5 -38t-56.5 -137l-35 -223h-101z" />
<glyph unicode="s" horiz-adv-x="369" d="M-5 119l82 33q15 -86 82 -86q36 0 54 18t18 46q0 21 -11 37t-40 30l-28 13q-48 20 -75 54.5t-27 88.5q0 33 11.5 61t33 48t52 31.5t69.5 11.5q121 0 148 -125l-82 -35q-6 35 -24 56.5t-49 21.5t-49 -16.5t-18 -43.5q0 -19 12 -34.5t41 -29.5l31 -14q42 -19 72 -52t30 -89 q0 -28 -10 -56t-31 -50.5t-53.5 -36.5t-77.5 -14q-37 0 -64.5 9.5t-47 27t-31.5 41.5t-18 54z" />
<glyph unicode="t" horiz-adv-x="298" d="M240 90l7 -81q-15 -11 -36 -16t-40 -5q-55 0 -88.5 26.5t-33.5 85.5q0 13 2 25.5t4 24.5l42 257h-58l14 84h57l22 142h100l-22 -142h99l-13 -84h-99l-40 -251q-7 -36 2 -57.5t36 -21.5q11 0 23 3.5t22 9.5z" />
<glyph unicode="u" horiz-adv-x="475" d="M155 -12q-60 0 -88.5 36t-28.5 100q0 13 1 27t3 29l49 311h102l-47 -297q-2 -13 -2.5 -24t-0.5 -21q0 -73 57 -73q40 0 70.5 40.5t44.5 119.5l40 255h100l-78 -491h-84l6 86q-28 -52 -65 -75t-79 -23z" />
<glyph unicode="v" horiz-adv-x="406" d="M41 491h105l33 -374l153 374h104l-222 -491h-106z" />
<glyph unicode="w" horiz-adv-x="581" d="M276 487h100l12 -355l123 359h95l-189 -491h-102l-11 351l-120 -351h-103l-36 491h97l11 -359z" />
<glyph unicode="x" horiz-adv-x="405" d="M246 0l-61 170l-113 -170h-106l176 249l-95 242h110l55 -167l109 167h107l-173 -244l102 -247h-111z" />
<glyph unicode="y" horiz-adv-x="414" d="M95 -57l19 48l-68 500h105l36 -370l151 370h103l-264 -583q-17 -38 -37 -62.5t-41.5 -38.5t-43.5 -19.5t-44 -5.5t-41 4t-36 14l34 82q23 -11 48 -11q26 0 44 15t35 57z" />
<glyph unicode="z" horiz-adv-x="374" d="M-14 0l12 73l259 333h-202l13 85h310l-11 -75l-258 -332h212l-14 -84h-321z" />
<glyph unicode="{" horiz-adv-x="271" d="M168 -95q-101 9 -100 131q1 24 4.5 45t8 40.5t8.5 37.5t4 36q1 42 -13 60t-46 18h-24l12 80h25q36 0 58.5 21.5t30.5 73.5q5 28 5 55.5t5 60.5q11 75 48.5 112.5t96.5 45.5l23 -80q-33 -7 -53.5 -25.5t-27.5 -60.5q-5 -31 -5.5 -58.5t-5.5 -58.5q-8 -45 -29 -76t-54 -51 q44 -29 42 -102q-1 -39 -13.5 -78t-13.5 -77q-1 -33 14 -48.5t43 -20.5z" />
<glyph unicode="|" horiz-adv-x="234" d="M20 -65l131 831h92l-131 -831h-92z" />
<glyph unicode="}" horiz-adv-x="283" d="M124 722q101 -9 100 -131q-2 -47 -13 -85t-12 -74q-1 -42 13 -60t46 -18h24l-12 -80h-25q-36 0 -58.5 -21.5t-30.5 -73.5q-5 -28 -5 -55.5t-5 -60.5q-11 -75 -48.5 -112.5t-96.5 -45.5l-23 80q33 7 53.5 25.5t27.5 60.5q5 31 5.5 58.5t5.5 58.5q8 45 29 76t54 51 q-44 29 -42 102q1 39 13.5 78t13.5 77q1 33 -14 48.5t-43 20.5z" />
<glyph unicode="~" horiz-adv-x="420" d="M212 299q-16 11 -30 20.5t-31 9.5t-31.5 -15t-21.5 -47l-72 11q14 72 50 107t82 35q26 0 46 -11t37 -24q15 -11 30 -19.5t29 -8.5q17 0 31 14.5t22 46.5l71 -12q-13 -72 -49 -107t-81 -35q-25 0 -45 11.5t-37 23.5z" />
<glyph unicode="&#xa1;" horiz-adv-x="187" d="M-33 -198l93 498h75l-63 -498h-105zM60 431q0 35 17.5 56t51.5 21q26 0 38.5 -14.5t12.5 -37.5q0 -33 -16.5 -55t-51.5 -22q-52 0 -52 52z" />
<glyph unicode="&#xa2;" horiz-adv-x="399" d="M128 -62l12 76q-56 8 -85.5 49t-29.5 119q0 34 6 76q17 115 65.5 174t121.5 68l12 78h56l-12 -79q54 -6 82 -41.5t34 -93.5l-78 -33q-4 35 -15 56.5t-37 29.5l-49 -323q22 6 41.5 23t33.5 49l66 -41q-24 -43 -61 -74.5t-93 -36.5l-12 -76h-58zM108 187q0 -78 45 -91 l50 319q-32 -11 -55 -48.5t-34 -107.5q-4 -20 -5 -38.5t-1 -33.5z" />
<glyph unicode="&#xa3;" horiz-adv-x="445" d="M412 78q-32 -47 -72.5 -62.5t-91.5 -15.5h-269l13 88h25q21 0 31.5 29t18.5 77l15 104h-57l12 78h55l16 128q7 57 25.5 97t45 64.5t58 36t66.5 11.5q78 0 117.5 -37t53.5 -112l-85 -33q-9 45 -29.5 68t-57.5 23q-42 0 -64 -31.5t-30 -97.5l-16 -117h126l-13 -78h-123 l-12 -100q-5 -36 -13 -64.5t-19 -45.5h124q27 0 51.5 12t44.5 43z" />
<glyph unicode="&#xa5;" horiz-adv-x="501" d="M429 216h-137l-35 -216h-105l36 216h-139l12 72h130l-15 52h-106l11 73h77l-81 287h113l75 -328l179 328h113l-173 -287h77l-11 -73h-108l-32 -52h131z" />
<glyph unicode="&#xa6;" horiz-adv-x="234" d="M92 387l60 379h91l-59 -379h-92zM21 -65l60 381h91l-60 -381h-91z" />
<glyph unicode="&#xa7;" horiz-adv-x="392" d="M270 347q0 46 -34 62l-9 4q-16 7 -33 6t-31.5 -10t-23.5 -26.5t-9 -43.5q0 -44 41 -62l8 -3q20 -9 36.5 -5.5t28.5 14.5t19 28t7 36zM308 137q0 -29 -8 -58t-27.5 -52.5t-51 -38t-77.5 -14.5q-36 0 -62 9t-44 24.5t-28 37t-15 46.5l75 37q13 -80 78 -80q43 0 58 21t15 51 q0 26 -12 39.5t-36 23.5l-25 10q-45 18 -71.5 51t-26.5 81q0 52 25 86.5t57 47.5q-14 15 -25 38t-11 54t10 60.5t30 52t49.5 36t69.5 13.5q57 0 92.5 -24.5t48.5 -80.5l-78 -38q-5 31 -22 49t-47 18q-34 0 -52.5 -22t-18.5 -51q0 -26 13.5 -41.5t40.5 -25.5l30 -10 q51 -19 70.5 -49.5t19.5 -75.5q0 -42 -22 -78.5t-60 -52.5q21 -20 29.5 -42.5t8.5 -51.5z" />
<glyph unicode="&#xa8;" horiz-adv-x="456" d="M116 627q0 33 16.5 53t48.5 20q50 0 50 -50q0 -34 -17.5 -53.5t-48.5 -19.5q-25 0 -37 13.5t-12 36.5zM273 627q0 33 16.5 53t48.5 20q50 0 50 -50q0 -34 -17 -53.5t-49 -19.5q-26 0 -37.5 13.5t-11.5 36.5z" />
<glyph unicode="&#xa9;" horiz-adv-x="615" d="M373 696q103 0 162 -67t59 -191q0 -23 -2 -43t-6 -45q-12 -81 -40.5 -145t-69.5 -108t-93.5 -67t-112.5 -23q-105 0 -164 67.5t-59 191.5q0 20 2 41.5t6 44.5q12 81 40.5 145t70 108.5t94 67.5t113.5 23zM370 656q-48 0 -92 -19t-80 -57t-62.5 -95t-38.5 -133 q-4 -23 -6 -43.5t-2 -39.5q0 -111 51.5 -166.5t133.5 -55.5q48 0 91 19t78.5 57t61.5 95t38 132q4 23 5.5 44.5t1.5 41.5q0 110 -49.5 165t-130.5 55zM439 276q-27 -53 -62 -77t-80 -24q-50 0 -81 29.5t-31 97.5q0 14 1 27t3 26q14 99 58 141t107 42q89 0 108 -91l-66 -32 q-5 29 -17 43.5t-35 14.5q-15 0 -28 -5.5t-23.5 -19t-18.5 -36.5t-14 -58q-2 -14 -3 -25t-1 -22q0 -39 13.5 -53.5t39.5 -14.5q23 0 40.5 14t32.5 46z" />
<glyph unicode="&#xaa;" horiz-adv-x="309" d="M151 402q27 0 47 28t29 79l1 5h-41q-28 0 -49 -21t-21 -52q0 -39 34 -39zM217 412q-18 -31 -42.5 -49t-56.5 -18t-52.5 21.5t-20.5 61.5q0 29 11 54t30 43t45.5 28.5t56.5 10.5h48q1 8 2 15.5t1 13.5q0 32 -13.5 43t-36.5 11q-26 0 -45.5 -12.5t-34.5 -32.5l-36 44 q49 66 136 66q46 0 75.5 -23.5t29.5 -81.5q0 -20 -4 -43l-34 -209h-62z" />
<glyph unicode="&#xab;" horiz-adv-x="506" d="M146 0l-109 242l1 3l182 246h106l-187 -249l107 -242h-100zM324 0l-110 244l1 3l183 244h106l-188 -247l110 -244h-102z" />
<glyph unicode="&#xad;" horiz-adv-x="308" d="M278 302l-14 -88h-232l14 88h232z" />
<glyph unicode="&#xae;" horiz-adv-x="354" d="M191 337q-59 0 -92.5 39t-33.5 106q0 10 1 21t3 22q7 42 23 77t39 59.5t52.5 38t64.5 13.5q58 0 91 -39t33 -105q0 -23 -5 -48q-15 -87 -61 -135.5t-115 -48.5zM194 363q51 0 92 40.5t54 121.5q2 11 3 22t1 20q0 58 -28 89t-71 31q-52 0 -93 -41t-55 -121q-3 -23 -3 -42 q0 -60 28 -90t72 -30zM147 435l29 186h60q26 0 37 -14.5t11 -39.5q0 -23 -9.5 -39.5t-24.5 -25.5l2 -11q3 -10 5.5 -22t5 -22.5t2.5 -11.5h-37l-11 60h-27l-9 -60h-34zM195 528h23q30 0 32 35q0 25 -23 25h-22z" />
<glyph unicode="&#xaf;" horiz-adv-x="456" d="M353 665l-10 -68h-206l10 68h206z" />
<glyph unicode="&#xb0;" horiz-adv-x="351" d="M192 352q-60 0 -90 40.5t-28 108.5q1 43 12.5 81.5t33.5 67t53 45t70 16.5q60 0 90 -39.5t28 -106.5q-1 -48 -13.5 -87t-35 -67t-53 -43.5t-67.5 -15.5zM199 417q39 0 67 37t30 102q1 44 -15.5 67.5t-45.5 23.5q-38 0 -66 -36t-30 -103q-1 -45 15 -68t45 -23z" />
<glyph unicode="&#xb1;" horiz-adv-x="385" d="M212 143h-74l23 144h-113l12 75h113l22 145h76l-25 -145h115l-11 -75h-114zM315 74l-11 -74h-301l11 74h301z" />
<glyph unicode="&#xb2;" horiz-adv-x="289" d="M28 294zM28 294l9 56l135 158q29 32 41 55.5t12 45.5q0 17 -9.5 26.5t-27.5 9.5q-20 0 -36.5 -11.5t-33.5 -40.5l-54 26q24 51 60.5 72.5t81.5 21.5q48 0 73.5 -24t25.5 -66q0 -18 -4.5 -35t-15 -35t-26.5 -39t-39 -48l-89 -106l142 3l-11 -69h-234z" />
<glyph unicode="&#xb3;" horiz-adv-x="290" d="M33 286zM33 378l62 27q9 -56 55 -56q32 0 48 22t16 55q0 47 -45 47h-29l9 62h29q26 0 42 21t16 49q0 43 -42 43q-20 0 -36.5 -11t-27.5 -37l-54 27q37 86 137 86q51 0 76 -24t25 -66q0 -33 -17 -65t-50 -51q41 -22 41 -78q0 -30 -10 -56.5t-28.5 -45.5t-45 -30t-60.5 -11 q-41 0 -72 22t-39 70z" />
<glyph unicode="&#xb4;" horiz-adv-x="456" d="M262 695h111l-1 -7l-109 -115h-82v4z" />
<glyph unicode="&#xb6;" horiz-adv-x="519" d="M400 608h-48l-45 -282h48zM142 431q0 -105 79 -105h3l43 281h-2q-55 0 -88 -47.5t-35 -128.5zM498 700l-110 -700h-85l36 232h-47l-35 -232h-84l37 233h-3q-71 2 -113 51t-40 139q0 59 15 110t45 88t74 58t103 21h207z" />
<glyph unicode="&#xb7;" horiz-adv-x="190" d="M43 273zM164 350q0 -35 -18 -56t-51 -21q-26 0 -39 14.5t-13 37.5q0 33 16.5 55t51.5 22q53 0 53 -52z" />
<glyph unicode="&#xb8;" horiz-adv-x="456" d="M211 -241q-35 0 -64.5 16t-40.5 54l55 31q12 -42 51 -42q22 0 33 13.5t11 31.5q0 20 -14.5 29t-31.5 4l-16 13l34 91h58l-25 -59q25 -2 42.5 -21t17.5 -54q0 -54 -32 -80.5t-78 -26.5z" />
<glyph unicode="&#xb9;" horiz-adv-x="190" d="M69 294zM156 294h-77l50 313l-41 -29l-19 63l102 67h51z" />
<glyph unicode="&#xba;" horiz-adv-x="323" d="M55 473q0 13 1.5 27t3.5 29q14 93 54.5 138.5t105.5 45.5q113 0 113 -129q0 -15 -1 -27t-3 -28q-14 -94 -54.5 -139t-106.5 -45q-113 0 -113 128zM176 408q31 0 51 29t30 92q2 15 3 28t1 24q0 36 -11 52t-37 16q-32 0 -51.5 -28t-29.5 -92q-2 -16 -3 -28.5t-1 -23.5 q0 -35 11 -52t37 -17z" />
<glyph unicode="&#xbb;" horiz-adv-x="505" d="M356 490l109 -242l-1 -3l-182 -246h-106l187 249l-107 242h100zM178 490l110 -244l-1 -3l-183 -244h-106l188 247l-110 244h102z" />
<glyph unicode="&#xbc;" horiz-adv-x="673" d="M70 0zM535 700l-372 -700h-89l371 700h90zM157 293h-77l50 313l-41 -29l-19 63l102 67h51zM355 94l9 56l133 261h74l-128 -248h91l23 146h73l-24 -146h40l-12 -69h-39l-14 -94h-73l15 94h-168z" />
<glyph unicode="&#xbd;" horiz-adv-x="655" d="M70 0zM157 293h-77l50 313l-41 -29l-19 63l102 67h51zM535 700l-372 -700h-89l371 700h90zM364 0l9 56l135 158q29 32 41 55.5t12 45.5q0 17 -9.5 26.5t-27.5 9.5q-20 0 -36.5 -11.5t-33.5 -40.5l-54 26q24 51 60.5 72.5t81.5 21.5q48 0 73.5 -24t25.5 -66 q0 -18 -4.5 -35t-15 -35t-26.5 -39t-39 -48l-89 -106l142 3l-11 -69h-234z" />
<glyph unicode="&#xbe;" horiz-adv-x="744" d="M33 0zM33 377l62 27q9 -56 55 -56q32 0 48 22t16 55q0 47 -45 47h-29l9 62h29q26 0 42 21t16 49q0 43 -42 43q-20 0 -36.5 -11t-27.5 -37l-54 27q37 86 137 86q51 0 76 -24t25 -66q0 -33 -17 -65t-50 -51q41 -22 41 -78q0 -30 -10 -56.5t-28.5 -45.5t-45 -30t-60.5 -11 q-41 0 -72 22t-39 70zM619 700l-372 -700h-89l371 700h90zM425 94l9 56l133 261h74l-128 -248h91l23 146h73l-24 -146h40l-12 -69h-39l-14 -94h-73l15 94h-168z" />
<glyph unicode="&#xbf;" horiz-adv-x="387" d="M236 296l-22 -161h-35q-29 0 -52.5 -13t-40.5 -35.5t-26.5 -51.5t-9.5 -62q0 -50 22.5 -76t64.5 -26q40 0 72 22.5t50 76.5l74 -32q-25 -78 -79.5 -116.5t-129.5 -38.5q-85 0 -127 47t-42 129q0 52 14 93.5t38.5 72.5t57.5 50.5t71 27.5l19 93h81zM158 427q0 35 17.5 56 t51.5 21q26 0 39 -14.5t13 -37.5q0 -33 -16.5 -55t-51.5 -22q-53 0 -53 52z" />
<glyph unicode="&#xc0;" horiz-adv-x="508" d="M0 0zM308 578l-140 -355h167zM351 0l-11 134h-205l-53 -134h-107l289 700h126l67 -700h-106zM304 782l-75 115l1 7h113l39 -118v-4h-78z" />
<glyph unicode="&#xc1;" horiz-adv-x="508" d="M0 0zM308 578l-140 -355h167zM351 0l-11 134h-205l-53 -134h-107l289 700h126l67 -700h-106zM372 904h111l-1 -7l-109 -115h-82v4z" />
<glyph unicode="&#xc2;" horiz-adv-x="508" d="M0 0zM308 578l-140 -355h167zM351 0l-11 134h-205l-53 -134h-107l289 700h126l67 -700h-106zM311 904h86l72 -119v-3h-86l-37 65l-57 -65h-88v3z" />
<glyph unicode="&#xc3;" horiz-adv-x="508" d="M0 0zM308 578l-140 -355h167zM351 0l-11 134h-205l-53 -134h-107l289 700h126l67 -700h-106zM420 898h62q-2 -31 -11 -51.5t-22 -33t-27.5 -18t-28.5 -5.5q-16 0 -28.5 6t-23.5 13.5t-21 13.5t-21 6q-13 0 -19 -11t-8 -25h-64q3 31 12.5 51.5t21.5 33t26.5 17.5t28.5 5 q16 0 29.5 -6t24.5 -13.5t21 -13.5t20 -6q14 0 20 11t8 26z" />
<glyph unicode="&#xc4;" horiz-adv-x="508" d="M0 0zM308 578l-140 -355h167zM351 0l-11 134h-205l-53 -134h-107l289 700h126l67 -700h-106zM208 836q0 33 16.5 53t48.5 20q50 0 50 -50q0 -34 -17.5 -53.5t-48.5 -19.5q-25 0 -37 13.5t-12 36.5zM365 836q0 33 16.5 53t48.5 20q50 0 50 -50q0 -34 -17 -53.5t-49 -19.5 q-26 0 -37.5 13.5t-11.5 36.5z" />
<glyph unicode="&#xc5;" horiz-adv-x="508" d="M0 0zM308 578l-140 -355h167zM351 0l-11 134h-205l-53 -134h-107l289 700h126l67 -700h-106zM360 950q32 0 52.5 -20.5t20.5 -57.5q0 -49 -28 -80.5t-71 -31.5q-33 0 -54 21t-21 59q0 22 7 42t20 35t32 24t42 9zM355 905q-24 0 -36.5 -18.5t-12.5 -41.5q0 -18 8.5 -29 t24.5 -11q21 0 34 19t13 43q0 18 -8.5 28t-22.5 10z" />
<glyph unicode="&#xc6;" horiz-adv-x="738" d="M310 592l-145 -369h168zM-30 0l298 700h498l-14 -91h-343l13 -209h260l-15 -94h-240l14 -214h237l-15 -92h-316l-9 133h-207l-55 -133h-106z" />
<glyph unicode="&#xc7;" horiz-adv-x="525" d="M215 -241q-35 0 -64.5 16t-40.5 54l55 31q12 -42 51 -42q22 0 33 13.5t11 31.5q0 20 -14.5 29t-31.5 4l-16 13l30 79q-90 8 -133.5 63t-43.5 171q0 30 3 60.5t9 68.5q14 97 39.5 166t62.5 112.5t85 63.5t106 20q85 0 134 -43.5t57 -146.5l-96 -29q-7 71 -33.5 98 t-72.5 27q-30 0 -57 -12t-49.5 -42.5t-40.5 -82.5t-31 -131q-12 -71 -12 -124q0 -84 30.5 -116t84.5 -32q41 0 76.5 25t64.5 91l84 -44q-32 -81 -88 -119t-122 -44l-20 -47q25 -2 42.5 -21t17.5 -54q0 -54 -32 -80.5t-78 -26.5z" />
<glyph unicode="&#xc8;" horiz-adv-x="505" d="M32 0zM437 91l-14 -91h-391l111 700h396l-16 -92h-293l-34 -211h251l-15 -95h-250l-35 -211h290zM313 782l-75 115l1 7h113l39 -118v-4h-78z" />
<glyph unicode="&#xc9;" horiz-adv-x="505" d="M32 0zM437 91l-14 -91h-391l111 700h396l-16 -92h-293l-34 -211h251l-15 -95h-250l-35 -211h290zM381 904h111l-1 -7l-109 -115h-82v4z" />
<glyph unicode="&#xca;" horiz-adv-x="505" d="M32 0zM437 91l-14 -91h-391l111 700h396l-16 -92h-293l-34 -211h251l-15 -95h-250l-35 -211h290zM320 904h86l72 -119v-3h-86l-37 65l-57 -65h-88v3z" />
<glyph unicode="&#xcb;" horiz-adv-x="505" d="M32 0zM218 836q0 33 16.5 53t48.5 20q50 0 50 -50q0 -34 -17.5 -53.5t-48.5 -19.5q-25 0 -37 13.5t-12 36.5zM375 836q0 33 16.5 53t48.5 20q50 0 50 -50q0 -34 -17 -53.5t-49 -19.5q-26 0 -37.5 13.5t-11.5 36.5zM437 91l-14 -91h-391l111 700h396l-16 -92h-293 l-34 -211h251l-15 -95h-250l-35 -211h290z" />
<glyph unicode="&#xcc;" horiz-adv-x="251" d="M32 0zM32 0l111 700h104l-111 -700h-104zM174 782l-75 115l1 7h113l39 -118v-4h-78z" />
<glyph unicode="&#xcd;" horiz-adv-x="251" d="M32 0zM32 0l111 700h104l-111 -700h-104zM242 904h111l-1 -7l-109 -115h-82v4z" />
<glyph unicode="&#xce;" horiz-adv-x="251" d="M32 0zM32 0l111 700h104l-111 -700h-104zM180 904h86l72 -119v-3h-86l-37 65l-57 -65h-88v3z" />
<glyph unicode="&#xcf;" horiz-adv-x="251" d="M32 0zM32 0l111 700h104l-111 -700h-104zM80 836q0 33 16.5 53t48.5 20q50 0 50 -50q0 -34 -17.5 -53.5t-48.5 -19.5q-25 0 -37 13.5t-12 36.5zM237 836q0 33 16.5 53t48.5 20q50 0 50 -50q0 -34 -17 -53.5t-49 -19.5q-26 0 -37.5 13.5t-11.5 36.5z" />
<glyph unicode="&#xd0;" horiz-adv-x="575" d="M232 0h-192l50 312h-56l15 87h54l48 301h189q105 0 158.5 -56t53.5 -178q0 -22 -2.5 -52t-7.5 -60q-28 -182 -106.5 -268t-203.5 -86zM159 93h79q35 0 66 12.5t56.5 42t45 79t31.5 123.5q4 27 7 54.5t3 50.5q0 83 -30.5 118t-87.5 35h-89l-33 -209h99l-14 -87h-98z" />
<glyph unicode="&#xd1;" horiz-adv-x="592" d="M32 0zM383 0l-179 494l-75 -494h-97l111 700h91l181 -503l77 503h97l-111 -700h-95zM459 899h62q-2 -31 -11 -51.5t-22 -33t-27.5 -18t-28.5 -5.5q-16 0 -28.5 6t-23.5 13.5t-21 13.5t-21 6q-13 0 -19 -11t-8 -25h-64q3 31 12.5 51.5t21.5 33t26.5 17.5t28.5 5 q16 0 29.5 -6t24.5 -13.5t21 -13.5t20 -6q14 0 20 11t8 26z" />
<glyph unicode="&#xd2;" horiz-adv-x="587" d="M51 0zM360 713q106 0 154.5 -56t48.5 -177q0 -29 -2.5 -60.5t-8.5 -68.5q-27 -190 -100.5 -277t-197.5 -87q-104 0 -153.5 57t-49.5 178q0 29 3.5 60.5t8.5 68.5q27 189 99.5 275.5t197.5 86.5zM350 620q-35 0 -63.5 -13t-51 -44t-39.5 -83.5t-29 -130.5q-6 -37 -9 -67 t-3 -57q0 -82 28.5 -114.5t79.5 -32.5q34 0 62.5 13t51.5 44.5t40.5 84t29.5 131.5q5 36 7.5 66.5t2.5 55.5q0 82 -27.5 114.5t-79.5 32.5zM337 783l-75 115l1 7h113l39 -118v-4h-78z" />
<glyph unicode="&#xd3;" horiz-adv-x="587" d="M51 0zM360 713q106 0 154.5 -56t48.5 -177q0 -29 -2.5 -60.5t-8.5 -68.5q-27 -190 -100.5 -277t-197.5 -87q-104 0 -153.5 57t-49.5 178q0 29 3.5 60.5t8.5 68.5q27 189 99.5 275.5t197.5 86.5zM350 620q-35 0 -63.5 -13t-51 -44t-39.5 -83.5t-29 -130.5q-6 -37 -9 -67 t-3 -57q0 -82 28.5 -114.5t79.5 -32.5q34 0 62.5 13t51.5 44.5t40.5 84t29.5 131.5q5 36 7.5 66.5t2.5 55.5q0 82 -27.5 114.5t-79.5 32.5zM405 905h111l-1 -7l-109 -115h-82v4z" />
<glyph unicode="&#xd4;" horiz-adv-x="587" d="M51 0zM360 713q106 0 154.5 -56t48.5 -177q0 -29 -2.5 -60.5t-8.5 -68.5q-27 -190 -100.5 -277t-197.5 -87q-104 0 -153.5 57t-49.5 178q0 29 3.5 60.5t8.5 68.5q27 189 99.5 275.5t197.5 86.5zM350 620q-35 0 -63.5 -13t-51 -44t-39.5 -83.5t-29 -130.5q-6 -37 -9 -67 t-3 -57q0 -82 28.5 -114.5t79.5 -32.5q34 0 62.5 13t51.5 44.5t40.5 84t29.5 131.5q5 36 7.5 66.5t2.5 55.5q0 82 -27.5 114.5t-79.5 32.5zM343 905h86l72 -119v-3h-86l-37 65l-57 -65h-88v3z" />
<glyph unicode="&#xd5;" horiz-adv-x="587" d="M51 0zM360 713q106 0 154.5 -56t48.5 -177q0 -29 -2.5 -60.5t-8.5 -68.5q-27 -190 -100.5 -277t-197.5 -87q-104 0 -153.5 57t-49.5 178q0 29 3.5 60.5t8.5 68.5q27 189 99.5 275.5t197.5 86.5zM350 620q-35 0 -63.5 -13t-51 -44t-39.5 -83.5t-29 -130.5q-6 -37 -9 -67 t-3 -57q0 -82 28.5 -114.5t79.5 -32.5q34 0 62.5 13t51.5 44.5t40.5 84t29.5 131.5q5 36 7.5 66.5t2.5 55.5q0 82 -27.5 114.5t-79.5 32.5zM453 899h62q-2 -31 -11 -51.5t-22 -33t-27.5 -18t-28.5 -5.5q-16 0 -28.5 6t-23.5 13.5t-21 13.5t-21 6q-13 0 -19 -11t-8 -25h-64 q3 31 12.5 51.5t21.5 33t26.5 17.5t28.5 5q16 0 29.5 -6t24.5 -13.5t21 -13.5t20 -6q14 0 20 11t8 26z" />
<glyph unicode="&#xd6;" horiz-adv-x="587" d="M51 0zM242 837q0 33 16.5 53t48.5 20q50 0 50 -50q0 -34 -17.5 -53.5t-48.5 -19.5q-25 0 -37 13.5t-12 36.5zM399 837q0 33 16.5 53t48.5 20q50 0 50 -50q0 -34 -17 -53.5t-49 -19.5q-26 0 -37.5 13.5t-11.5 36.5zM360 713q106 0 154.5 -56t48.5 -177q0 -29 -2.5 -60.5 t-8.5 -68.5q-27 -190 -100.5 -277t-197.5 -87q-104 0 -153.5 57t-49.5 178q0 29 3.5 60.5t8.5 68.5q27 189 99.5 275.5t197.5 86.5zM350 620q-35 0 -63.5 -13t-51 -44t-39.5 -83.5t-29 -130.5q-6 -37 -9 -67t-3 -57q0 -82 28.5 -114.5t79.5 -32.5q34 0 62.5 13t51.5 44.5 t40.5 84t29.5 131.5q5 36 7.5 66.5t2.5 55.5q0 82 -27.5 114.5t-79.5 32.5z" />
<glyph unicode="&#xd7;" horiz-adv-x="382" d="M79 142l-46 48l117 125l-79 126l61 46l71 -115l106 113l46 -48l-116 -123l75 -122l-61 -47l-66 112z" />
<glyph unicode="&#xd8;" horiz-adv-x="583" d="M257 -13q-101 0 -153 59l-37 -46h-78l82 103q-18 49 -18 124q0 27 3 59.5t8 64.5q27 185 99 273.5t199 88.5q103 0 154 -58l37 45h79l-85 -104q20 -47 20 -122q0 -26 -3.5 -58t-8.5 -65q-28 -188 -100.5 -276t-197.5 -88zM158 212l288 354q-14 31 -37.5 42.5t-55.5 11.5 q-36 0 -64.5 -13t-51 -44.5t-40 -83.5t-29.5 -129q-5 -30 -7.5 -61.5t-2.5 -59.5v-17zM265 78q35 0 63.5 13.5t51 45t40 84t29.5 130.5q5 29 8 61.5t2 55.5v18l-287 -355q14 -29 37 -41t56 -12z" />
<glyph unicode="&#xd9;" horiz-adv-x="568" d="M52 0zM399 233l74 467h104l-73 -463q-20 -125 -86.5 -187.5t-170.5 -62.5q-94 0 -144.5 47.5t-50.5 140.5q0 14 2 29.5t4 32.5l72 463h105l-74 -466q-2 -12 -3 -22.5t-1 -21.5q0 -52 24 -79.5t75 -27.5q57 0 94 36t49 114zM332 783l-75 115l1 7h113l39 -118v-4h-78z" />
<glyph unicode="&#xda;" horiz-adv-x="568" d="M52 0zM399 233l74 467h104l-73 -463q-20 -125 -86.5 -187.5t-170.5 -62.5q-94 0 -144.5 47.5t-50.5 140.5q0 14 2 29.5t4 32.5l72 463h105l-74 -466q-2 -12 -3 -22.5t-1 -21.5q0 -52 24 -79.5t75 -27.5q57 0 94 36t49 114zM400 905h111l-1 -7l-109 -115h-82v4z" />
<glyph unicode="&#xdb;" horiz-adv-x="568" d="M52 0zM399 233l74 467h104l-73 -463q-20 -125 -86.5 -187.5t-170.5 -62.5q-94 0 -144.5 47.5t-50.5 140.5q0 14 2 29.5t4 32.5l72 463h105l-74 -466q-2 -12 -3 -22.5t-1 -21.5q0 -52 24 -79.5t75 -27.5q57 0 94 36t49 114zM339 905h86l72 -119v-3h-86l-37 65l-57 -65h-88 v3z" />
<glyph unicode="&#xdc;" horiz-adv-x="568" d="M52 0zM236 837q0 33 16.5 53t48.5 20q50 0 50 -50q0 -34 -17.5 -53.5t-48.5 -19.5q-25 0 -37 13.5t-12 36.5zM393 837q0 33 16.5 53t48.5 20q50 0 50 -50q0 -34 -17 -53.5t-49 -19.5q-26 0 -37.5 13.5t-11.5 36.5zM399 233l74 467h104l-73 -463q-20 -125 -86.5 -187.5 t-170.5 -62.5q-94 0 -144.5 47.5t-50.5 140.5q0 14 2 29.5t4 32.5l72 463h105l-74 -466q-2 -12 -3 -22.5t-1 -21.5q0 -52 24 -79.5t75 -27.5q57 0 94 36t49 114z" />
<glyph unicode="&#xdd;" horiz-adv-x="486" d="M70 0zM188 273l-118 427h112l74 -321l178 321h114l-255 -427l-43 -273h-105zM352 905h111l-1 -7l-109 -115h-82v4z" />
<glyph unicode="&#xde;" horiz-adv-x="507" d="M33 0l111 700h105l-20 -124h119q75 0 113 -42t38 -120q0 -66 -16.5 -117.5t-46.5 -87t-71.5 -54t-90.5 -18.5h-115l-21 -137h-105zM324 481h-110l-40 -250h111q27 0 48 12.5t34.5 34.5t20.5 50.5t7 61.5q0 91 -71 91z" />
<glyph unicode="&#xdf;" horiz-adv-x="486" d="M165 13l32 80q25 -17 55 -17q23 0 41 11.5t30 31.5t18.5 47t6.5 57q0 44 -19 73.5t-61 29.5h-29l13 91h24q22 0 39.5 10t29.5 26.5t18.5 38t6.5 45.5q0 40 -19.5 65t-54.5 25q-80 0 -99 -112l-80 -515h-100l79 506q16 99 68 154.5t146 55.5q79 0 120 -44.5t41 -117.5 q0 -63 -27 -108.5t-72 -68.5q36 -14 56 -51t20 -95q0 -50 -13 -93.5t-37.5 -76.5t-60 -52t-81.5 -19q-53 0 -91 23z" />
<glyph unicode="&#xe0;" horiz-adv-x="429" d="M17 0zM108 120q0 -26 13 -40t35 -14q41 0 73 38t43 107l2 13h-39q-28 0 -51 -8t-40 -21.5t-26.5 -33t-9.5 -41.5zM260 83q-26 -45 -63 -70t-79 -25t-71.5 30t-29.5 84q0 40 14 75.5t42 62t69 42t94 15.5h51q2 8 2.5 19.5t0.5 21.5q0 45 -19.5 62t-48.5 17t-54.5 -16.5 t-41.5 -50.5l-69 45q26 49 71 78.5t113 29.5q67 0 108 -33.5t41 -107.5q0 -13 -1 -27.5t-4 -31.5l-48 -303h-83zM222 575l-75 115l1 7h113l39 -118v-4h-78z" />
<glyph unicode="&#xe1;" horiz-adv-x="429" d="M17 0zM108 120q0 -26 13 -40t35 -14q41 0 73 38t43 107l2 13h-39q-28 0 -51 -8t-40 -21.5t-26.5 -33t-9.5 -41.5zM260 83q-26 -45 -63 -70t-79 -25t-71.5 30t-29.5 84q0 40 14 75.5t42 62t69 42t94 15.5h51q2 8 2.5 19.5t0.5 21.5q0 45 -19.5 62t-48.5 17t-54.5 -16.5 t-41.5 -50.5l-69 45q26 49 71 78.5t113 29.5q67 0 108 -33.5t41 -107.5q0 -13 -1 -27.5t-4 -31.5l-48 -303h-83zM289 696h111l-1 -7l-109 -115h-82v4z" />
<glyph unicode="&#xe2;" horiz-adv-x="429" d="M17 0zM108 120q0 -26 13 -40t35 -14q41 0 73 38t43 107l2 13h-39q-28 0 -51 -8t-40 -21.5t-26.5 -33t-9.5 -41.5zM260 83q-26 -45 -63 -70t-79 -25t-71.5 30t-29.5 84q0 40 14 75.5t42 62t69 42t94 15.5h51q2 8 2.5 19.5t0.5 21.5q0 45 -19.5 62t-48.5 17t-54.5 -16.5 t-41.5 -50.5l-69 45q26 49 71 78.5t113 29.5q67 0 108 -33.5t41 -107.5q0 -13 -1 -27.5t-4 -31.5l-48 -303h-83zM228 696h86l72 -119v-3h-86l-37 65l-57 -65h-88v3z" />
<glyph unicode="&#xe3;" horiz-adv-x="429" d="M17 0zM108 120q0 -26 13 -40t35 -14q41 0 73 38t43 107l2 13h-39q-28 0 -51 -8t-40 -21.5t-26.5 -33t-9.5 -41.5zM260 83q-26 -45 -63 -70t-79 -25t-71.5 30t-29.5 84q0 40 14 75.5t42 62t69 42t94 15.5h51q2 8 2.5 19.5t0.5 21.5q0 45 -19.5 62t-48.5 17t-54.5 -16.5 t-41.5 -50.5l-69 45q26 49 71 78.5t113 29.5q67 0 108 -33.5t41 -107.5q0 -13 -1 -27.5t-4 -31.5l-48 -303h-83zM338 690h62q-2 -31 -11 -51.5t-22 -33t-27.5 -18t-28.5 -5.5q-16 0 -28.5 6t-23.5 13.5t-21 13.5t-21 6q-13 0 -19 -11t-8 -25h-64q3 31 12.5 51.5t21.5 33 t26.5 17.5t28.5 5q16 0 29.5 -6t24.5 -13.5t21 -13.5t20 -6q14 0 20 11t8 26z" />
<glyph unicode="&#xe4;" horiz-adv-x="429" d="M17 0zM108 120q0 -26 13 -40t35 -14q41 0 73 38t43 107l2 13h-39q-28 0 -51 -8t-40 -21.5t-26.5 -33t-9.5 -41.5zM260 83q-26 -45 -63 -70t-79 -25t-71.5 30t-29.5 84q0 40 14 75.5t42 62t69 42t94 15.5h51q2 8 2.5 19.5t0.5 21.5q0 45 -19.5 62t-48.5 17t-54.5 -16.5 t-41.5 -50.5l-69 45q26 49 71 78.5t113 29.5q67 0 108 -33.5t41 -107.5q0 -13 -1 -27.5t-4 -31.5l-48 -303h-83zM133 628q0 33 16.5 53t48.5 20q50 0 50 -50q0 -34 -17.5 -53.5t-48.5 -19.5q-25 0 -37 13.5t-12 36.5zM290 628q0 33 16.5 53t48.5 20q50 0 50 -50 q0 -34 -17 -53.5t-49 -19.5q-26 0 -37.5 13.5t-11.5 36.5z" />
<glyph unicode="&#xe5;" horiz-adv-x="429" d="M17 0zM108 120q0 -26 13 -40t35 -14q41 0 73 38t43 107l2 13h-39q-28 0 -51 -8t-40 -21.5t-26.5 -33t-9.5 -41.5zM260 83q-26 -45 -63 -70t-79 -25t-71.5 30t-29.5 84q0 40 14 75.5t42 62t69 42t94 15.5h51q2 8 2.5 19.5t0.5 21.5q0 45 -19.5 62t-48.5 17t-54.5 -16.5 t-41.5 -50.5l-69 45q26 49 71 78.5t113 29.5q67 0 108 -33.5t41 -107.5q0 -13 -1 -27.5t-4 -31.5l-48 -303h-83zM279 742q32 0 52.5 -20.5t20.5 -57.5q0 -49 -28 -80.5t-71 -31.5q-33 0 -54 21t-21 59q0 22 7 42t20 35t32 24t42 9zM274 697q-24 0 -36.5 -18.5t-12.5 -41.5 q0 -18 8.5 -29t24.5 -11q21 0 34 19t13 43q0 18 -8.5 28t-22.5 10z" />
<glyph unicode="&#xe6;" horiz-adv-x="667" d="M292 92q-28 -48 -70.5 -76t-90.5 -28q-51 0 -81.5 30t-30.5 87q0 40 15 74t43 59t68 39.5t90 14.5h49q2 9 3.5 22t1.5 22q0 82 -69 82q-62 0 -95 -68l-68 45q26 49 70 78.5t113 29.5q44 0 75 -19t43 -65q54 84 144 84q73 0 106 -47.5t33 -123.5q0 -56 -16 -111h-254 q-2 -17 -2 -28v-21q0 -54 19.5 -77.5t56.5 -23.5q58 0 95 74l71 -39q-14 -24 -29.5 -45.5t-36.5 -38t-49 -26t-67 -9.5q-53 0 -89 25.5t-48 79.5zM111 120q0 -27 14 -40.5t37 -13.5q40 0 68 35.5t39 104.5l2 14h-37q-56 0 -89.5 -28t-33.5 -72zM553 334q0 83 -62 83 q-35 0 -61.5 -28t-43.5 -97h163q2 12 3 22.5t1 19.5z" />
<glyph unicode="&#xe7;" horiz-adv-x="405" d="M142 -241q-35 0 -64.5 16t-40.5 54l55 31q12 -42 51 -42q22 0 33 13.5t11 31.5q0 20 -14.5 29t-31.5 4l-16 13l30 80q-61 9 -92.5 52.5t-31.5 124.5q0 18 2 37.5t5 41.5q20 132 77.5 195t146.5 63q69 0 102.5 -36t39.5 -108l-87 -30q-7 43 -20 64.5t-48 21.5 q-44 0 -72 -40t-43 -131q-3 -22 -5.5 -40.5t-2.5 -34.5q0 -51 18 -73t57 -22q27 0 50 18t41 60l77 -41q-25 -54 -62.5 -85.5t-94.5 -37.5l-20 -47q25 -2 42.5 -21t17.5 -54q0 -54 -32 -80.5t-78 -26.5z" />
<glyph unicode="&#xe8;" horiz-adv-x="423" d="M32 0zM187 -13q-74 0 -114.5 44.5t-40.5 138.5q0 33 6 74q18 126 75 192.5t147 66.5q72 0 104.5 -48t32.5 -124q0 -28 -4.5 -58.5t-10.5 -60.5h-253q-2 -7 -2.5 -19.5t-0.5 -21.5q0 -54 19.5 -76.5t56.5 -22.5q61 0 96 73l71 -39q-14 -24 -30 -46t-37 -38t-49 -25.5 t-66 -9.5zM306 335q0 43 -15 62.5t-43 19.5q-38 0 -66 -29.5t-42 -99.5h163q3 25 3 47zM233 575l-75 115l1 7h113l39 -118v-4h-78z" />
<glyph unicode="&#xe9;" horiz-adv-x="423" d="M32 0zM301 695h111l-1 -7l-109 -115h-82v4zM187 -13q-74 0 -114.5 44.5t-40.5 138.5q0 33 6 74q18 126 75 192.5t147 66.5q72 0 104.5 -48t32.5 -124q0 -28 -4.5 -58.5t-10.5 -60.5h-253q-2 -7 -2.5 -19.5t-0.5 -21.5q0 -54 19.5 -76.5t56.5 -22.5q61 0 96 73l71 -39 q-14 -24 -30 -46t-37 -38t-49 -25.5t-66 -9.5zM306 335q0 43 -15 62.5t-43 19.5q-38 0 -66 -29.5t-42 -99.5h163q3 25 3 47z" />
<glyph unicode="&#xea;" horiz-adv-x="423" d="M32 0zM240 695h86l72 -119v-3h-86l-37 65l-57 -65h-88v3zM187 -13q-74 0 -114.5 44.5t-40.5 138.5q0 33 6 74q18 126 75 192.5t147 66.5q72 0 104.5 -48t32.5 -124q0 -28 -4.5 -58.5t-10.5 -60.5h-253q-2 -7 -2.5 -19.5t-0.5 -21.5q0 -54 19.5 -76.5t56.5 -22.5 q61 0 96 73l71 -39q-14 -24 -30 -46t-37 -38t-49 -25.5t-66 -9.5zM306 335q0 43 -15 62.5t-43 19.5q-38 0 -66 -29.5t-42 -99.5h163q3 25 3 47z" />
<glyph unicode="&#xeb;" horiz-adv-x="423" d="M32 0zM144 627q0 33 16.5 53t48.5 20q50 0 50 -50q0 -34 -17.5 -53.5t-48.5 -19.5q-25 0 -37 13.5t-12 36.5zM301 627q0 33 16.5 53t48.5 20q50 0 50 -50q0 -34 -17 -53.5t-49 -19.5q-26 0 -37.5 13.5t-11.5 36.5zM187 -13q-74 0 -114.5 44.5t-40.5 138.5q0 33 6 74 q18 126 75 192.5t147 66.5q72 0 104.5 -48t32.5 -124q0 -28 -4.5 -58.5t-10.5 -60.5h-253q-2 -7 -2.5 -19.5t-0.5 -21.5q0 -54 19.5 -76.5t56.5 -22.5q61 0 96 73l71 -39q-14 -24 -30 -46t-37 -38t-49 -25.5t-66 -9.5zM306 335q0 43 -15 62.5t-43 19.5q-38 0 -66 -29.5 t-42 -99.5h163q3 25 3 47z" />
<glyph unicode="&#xec;" horiz-adv-x="219" d="M20 0zM98 491h101l-77 -491h-102zM126 575l-75 115l1 7h113l39 -118v-4h-78z" />
<glyph unicode="&#xed;" horiz-adv-x="219" d="M20 0zM98 491h101l-77 -491h-102zM194 695h111l-1 -7l-109 -115h-82v4z" />
<glyph unicode="&#xee;" horiz-adv-x="219" d="M20 0zM98 491h101l-77 -491h-102zM132 695h86l72 -119v-3h-86l-37 65l-57 -65h-88v3z" />
<glyph unicode="&#xef;" horiz-adv-x="219" d="M20 0zM98 491h101l-77 -491h-102zM35 627q0 33 16.5 53t48.5 20q50 0 50 -50q0 -34 -17.5 -53.5t-48.5 -19.5q-25 0 -37 13.5t-12 36.5zM192 627q0 33 16.5 53t48.5 20q50 0 50 -50q0 -34 -17 -53.5t-49 -19.5q-26 0 -37.5 13.5t-11.5 36.5z" />
<glyph unicode="&#xf0;" horiz-adv-x="450" d="M37 242q18 131 73.5 192.5t140.5 61.5q59 0 91 -50q-2 36 -8 68.5t-19 58.5l-67 -48l-19 47l57 41q-33 39 -86 59l43 72q38 -11 67 -30.5t49 -45.5l75 54l20 -46l-68 -49q22 -44 31.5 -96.5t9.5 -112.5q0 -32 -3 -69.5t-10 -88.5q-19 -142 -75.5 -207.5t-148.5 -65.5 q-78 0 -119 43.5t-41 136.5q0 17 2 35t5 40zM197 72q45 0 75 38.5t44 129.5q4 23 6 42.5t2 34.5q0 51 -18 73.5t-54 22.5q-48 0 -77 -40t-42 -133q-3 -20 -5 -38.5t-2 -32.5q0 -53 18.5 -75t52.5 -22z" />
<glyph unicode="&#xf1;" horiz-adv-x="478" d="M19 0zM19 0l78 491h85l-6 -93q30 56 68.5 80.5t81.5 24.5q58 0 86 -34.5t28 -96.5q0 -14 -1.5 -28t-3.5 -29l-50 -315h-101l48 297q2 12 2.5 23t0.5 20q0 71 -57 71q-40 0 -73.5 -43t-44.5 -121l-40 -247h-101zM370 689h62q-2 -31 -11 -51.5t-22 -33t-27.5 -18 t-28.5 -5.5q-16 0 -28.5 6t-23.5 13.5t-21 13.5t-21 6q-13 0 -19 -11t-8 -25h-64q3 31 12.5 51.5t21.5 33t26.5 17.5t28.5 5q16 0 29.5 -6t24.5 -13.5t21 -13.5t20 -6q14 0 20 11t8 26z" />
<glyph unicode="&#xf2;" horiz-adv-x="451" d="M31 0zM31 166q0 18 2 38t5 43q19 133 77 194.5t147 61.5q78 0 118 -42t40 -133q0 -18 -2 -38t-6 -43q-19 -132 -75.5 -196t-148.5 -64q-77 0 -117 43.5t-40 135.5zM197 74q48 0 76 39t43 133q8 46 8 75q0 52 -18.5 73t-54.5 21q-48 0 -75 -38.5t-41 -130.5 q-4 -23 -6 -42.5t-2 -35.5q0 -51 17.5 -72.5t52.5 -21.5zM240 575l-75 115l1 7h113l39 -118v-4h-78z" />
<glyph unicode="&#xf3;" horiz-adv-x="451" d="M31 0zM307 695h111l-1 -7l-109 -115h-82v4zM31 166q0 18 2 38t5 43q19 133 77 194.5t147 61.5q78 0 118 -42t40 -133q0 -18 -2 -38t-6 -43q-19 -132 -75.5 -196t-148.5 -64q-77 0 -117 43.5t-40 135.5zM197 74q48 0 76 39t43 133q8 46 8 75q0 52 -18.5 73t-54.5 21 q-48 0 -75 -38.5t-41 -130.5q-4 -23 -6 -42.5t-2 -35.5q0 -51 17.5 -72.5t52.5 -21.5z" />
<glyph unicode="&#xf4;" horiz-adv-x="451" d="M31 0zM247 695h86l72 -119v-3h-86l-37 65l-57 -65h-88v3zM31 166q0 18 2 38t5 43q19 133 77 194.5t147 61.5q78 0 118 -42t40 -133q0 -18 -2 -38t-6 -43q-19 -132 -75.5 -196t-148.5 -64q-77 0 -117 43.5t-40 135.5zM197 74q48 0 76 39t43 133q8 46 8 75q0 52 -18.5 73 t-54.5 21q-48 0 -75 -38.5t-41 -130.5q-4 -23 -6 -42.5t-2 -35.5q0 -51 17.5 -72.5t52.5 -21.5z" />
<glyph unicode="&#xf5;" horiz-adv-x="451" d="M31 0zM31 166q0 18 2 38t5 43q19 133 77 194.5t147 61.5q78 0 118 -42t40 -133q0 -18 -2 -38t-6 -43q-19 -132 -75.5 -196t-148.5 -64q-77 0 -117 43.5t-40 135.5zM197 74q48 0 76 39t43 133q8 46 8 75q0 52 -18.5 73t-54.5 21q-48 0 -75 -38.5t-41 -130.5 q-4 -23 -6 -42.5t-2 -35.5q0 -51 17.5 -72.5t52.5 -21.5zM355 689h62q-2 -31 -11 -51.5t-22 -33t-27.5 -18t-28.5 -5.5q-16 0 -28.5 6t-23.5 13.5t-21 13.5t-21 6q-13 0 -19 -11t-8 -25h-64q3 31 12.5 51.5t21.5 33t26.5 17.5t28.5 5q16 0 29.5 -6t24.5 -13.5t21 -13.5 t20 -6q14 0 20 11t8 26z" />
<glyph unicode="&#xf6;" horiz-adv-x="451" d="M31 0zM151 627q0 33 16.5 53t48.5 20q50 0 50 -50q0 -34 -17.5 -53.5t-48.5 -19.5q-25 0 -37 13.5t-12 36.5zM308 627q0 33 16.5 53t48.5 20q50 0 50 -50q0 -34 -17 -53.5t-49 -19.5q-26 0 -37.5 13.5t-11.5 36.5zM31 166q0 18 2 38t5 43q19 133 77 194.5t147 61.5 q78 0 118 -42t40 -133q0 -18 -2 -38t-6 -43q-19 -132 -75.5 -196t-148.5 -64q-77 0 -117 43.5t-40 135.5zM197 74q48 0 76 39t43 133q8 46 8 75q0 52 -18.5 73t-54.5 21q-48 0 -75 -38.5t-41 -130.5q-4 -23 -6 -42.5t-2 -35.5q0 -51 17.5 -72.5t52.5 -21.5z" />
<glyph unicode="&#xf7;" horiz-adv-x="385" d="M166 469q1 35 19 53t46 18q23 0 35 -13.5t11 -39.5q-1 -32 -18 -51.5t-46 -19.5q-25 0 -36.5 14.5t-10.5 38.5zM351 349l-11 -78h-302l12 78h301zM114 136q1 33 18 51.5t45 18.5q49 0 47 -53q-1 -35 -18.5 -53t-45.5 -18q-48 0 -46 54z" />
<glyph unicode="&#xf8;" horiz-adv-x="452" d="M190 -13q-39 0 -68.5 10.5t-47.5 33.5l-28 -31h-71l70 79q-6 18 -10 40t-4 48q0 34 6 79q19 130 77.5 193.5t149.5 63.5q38 0 68 -11t48 -35l29 34h71l-72 -81q13 -35 13 -83q0 -18 -2 -38t-5 -43q-19 -129 -76 -194t-148 -65zM126 165l188 221q-15 36 -59 36 q-51 0 -80 -42.5t-43 -134.5q-6 -45 -6 -79v-1zM198 69q49 0 78 41t43 135q4 21 5.5 40.5t1.5 35.5v1l-187 -221q15 -32 59 -32z" />
<glyph unicode="&#xf9;" horiz-adv-x="475" d="M38 0zM155 -12q-60 0 -88.5 36t-28.5 100q0 13 1 27t3 29l49 311h102l-47 -297q-2 -13 -2.5 -24t-0.5 -21q0 -73 57 -73q40 0 70.5 40.5t44.5 119.5l40 255h100l-78 -491h-84l6 86q-28 -52 -65 -75t-79 -23zM254 575l-75 115l1 7h113l39 -118v-4h-78z" />
<glyph unicode="&#xfa;" horiz-adv-x="475" d="M38 0zM322 695h111l-1 -7l-109 -115h-82v4zM155 -12q-60 0 -88.5 36t-28.5 100q0 13 1 27t3 29l49 311h102l-47 -297q-2 -13 -2.5 -24t-0.5 -21q0 -73 57 -73q40 0 70.5 40.5t44.5 119.5l40 255h100l-78 -491h-84l6 86q-28 -52 -65 -75t-79 -23z" />
<glyph unicode="&#xfb;" horiz-adv-x="475" d="M38 0zM260 695h86l72 -119v-3h-86l-37 65l-57 -65h-88v3zM155 -12q-60 0 -88.5 36t-28.5 100q0 13 1 27t3 29l49 311h102l-47 -297q-2 -13 -2.5 -24t-0.5 -21q0 -73 57 -73q40 0 70.5 40.5t44.5 119.5l40 255h100l-78 -491h-84l6 86q-28 -52 -65 -75t-79 -23z" />
<glyph unicode="&#xfc;" horiz-adv-x="475" d="M38 0zM165 627q0 33 16.5 53t48.5 20q50 0 50 -50q0 -34 -17.5 -53.5t-48.5 -19.5q-25 0 -37 13.5t-12 36.5zM322 627q0 33 16.5 53t48.5 20q50 0 50 -50q0 -34 -17 -53.5t-49 -19.5q-26 0 -37.5 13.5t-11.5 36.5zM155 -12q-60 0 -88.5 36t-28.5 100q0 13 1 27t3 29 l49 311h102l-47 -297q-2 -13 -2.5 -24t-0.5 -21q0 -73 57 -73q40 0 70.5 40.5t44.5 119.5l40 255h100l-78 -491h-84l6 86q-28 -52 -65 -75t-79 -23z" />
<glyph unicode="&#xfd;" horiz-adv-x="414" d="M0 0zM95 -57l19 48l-68 500h105l36 -370l151 370h103l-264 -583q-17 -38 -37 -62.5t-41.5 -38.5t-43.5 -19.5t-44 -5.5t-41 4t-36 14l34 82q23 -11 48 -11q26 0 44 15t35 57zM292 695h111l-1 -7l-109 -115h-82v4z" />
<glyph unicode="&#xfe;" horiz-adv-x="471" d="M277 417q-40 0 -72 -40.5t-46 -132.5q-6 -39 -6 -69q0 -54 18.5 -79.5t48.5 -25.5q45 0 73 43t43 132q4 23 5.5 39.5t1.5 34.5q0 98 -66 98zM130 58l-38 -244h-102l142 886h100l-44 -279q23 40 58.5 61t74.5 21q59 0 89.5 -43t30.5 -128q0 -21 -2 -40t-6 -44 q-17 -122 -68 -191.5t-135 -69.5q-33 0 -59 18t-41 53z" />
<glyph unicode="&#xff;" horiz-adv-x="414" d="M0 0zM95 -57l19 48l-68 500h105l36 -370l151 370h103l-264 -583q-17 -38 -37 -62.5t-41.5 -38.5t-43.5 -19.5t-44 -5.5t-41 4t-36 14l34 82q23 -11 48 -11q26 0 44 15t35 57zM135 627q0 33 16.5 53t48.5 20q50 0 50 -50q0 -34 -17.5 -53.5t-48.5 -19.5q-25 0 -37 13.5 t-12 36.5zM292 627q0 33 16.5 53t48.5 20q50 0 50 -50q0 -34 -17 -53.5t-49 -19.5q-26 0 -37.5 13.5t-11.5 36.5z" />
<glyph unicode="&#x100;" horiz-adv-x="508" d="M0 0zM308 578l-140 -355h167zM351 0l-11 134h-205l-53 -134h-107l289 700h126l67 -700h-106zM454 874l-10 -68h-206l10 68h206z" />
<glyph unicode="&#x101;" horiz-adv-x="429" d="M17 0zM108 120q0 -26 13 -40t35 -14q41 0 73 38t43 107l2 13h-39q-28 0 -51 -8t-40 -21.5t-26.5 -33t-9.5 -41.5zM260 83q-26 -45 -63 -70t-79 -25t-71.5 30t-29.5 84q0 40 14 75.5t42 62t69 42t94 15.5h51q2 8 2.5 19.5t0.5 21.5q0 45 -19.5 62t-48.5 17t-54.5 -16.5 t-41.5 -50.5l-69 45q26 49 71 78.5t113 29.5q67 0 108 -33.5t41 -107.5q0 -13 -1 -27.5t-4 -31.5l-48 -303h-83zM373 666l-10 -68h-206l10 68h206z" />
<glyph unicode="&#x102;" horiz-adv-x="508" d="M0 0zM308 578l-140 -355h167zM351 0l-11 134h-205l-53 -134h-107l289 700h126l67 -700h-106zM411 903h64q-11 -73 -46.5 -100.5t-92.5 -27.5q-28 0 -49.5 6.5t-34.5 21.5t-17.5 39.5t0.5 60.5h65q-6 -38 4.5 -51t38.5 -13q29 0 45.5 13t22.5 51z" />
<glyph unicode="&#x103;" horiz-adv-x="429" d="M17 0zM108 120q0 -26 13 -40t35 -14q41 0 73 38t43 107l2 13h-39q-28 0 -51 -8t-40 -21.5t-26.5 -33t-9.5 -41.5zM260 83q-26 -45 -63 -70t-79 -25t-71.5 30t-29.5 84q0 40 14 75.5t42 62t69 42t94 15.5h51q2 8 2.5 19.5t0.5 21.5q0 45 -19.5 62t-48.5 17t-54.5 -16.5 t-41.5 -50.5l-69 45q26 49 71 78.5t113 29.5q67 0 108 -33.5t41 -107.5q0 -13 -1 -27.5t-4 -31.5l-48 -303h-83zM329 695h64q-11 -73 -46.5 -100.5t-92.5 -27.5q-28 0 -49.5 6.5t-34.5 21.5t-17.5 39.5t0.5 60.5h65q-6 -38 4.5 -51t38.5 -13q29 0 45.5 13t22.5 51z" />
<glyph unicode="&#x104;" horiz-adv-x="508" d="M435 -189q-20 -14 -40 -21t-44 -7q-41 0 -66 23t-25 73q0 54 25.5 93t63.5 56l-9 106h-205l-53 -134h-107l289 700h126l67 -700h-52q-20 -2 -34.5 -11.5t-25 -24t-15.5 -31.5t-5 -34q0 -26 12 -36.5t28 -10.5q27 0 46 17zM308 578l-140 -355h167z" />
<glyph unicode="&#x105;" horiz-adv-x="430" d="M360 -189q-20 -14 -40 -21t-44 -7q-41 0 -66 23t-25 73q0 47 19.5 82.5t50.5 56.5l5 65q-26 -45 -63 -70t-79 -25t-71.5 30t-29.5 84q0 40 14 75.5t42 62t69 42t94 15.5h51q2 8 2.5 19.5t0.5 21.5q0 45 -19.5 62t-48.5 17t-54.5 -16.5t-41.5 -50.5l-69 45q26 49 71 78.5 t113 29.5q67 0 108 -33.5t41 -107.5q0 -13 -1 -27.5t-4 -31.5l-48 -303h-7q-20 -2 -34.5 -11.5t-25 -24t-15.5 -31.5t-5 -34q0 -26 12 -36.5t28 -10.5q27 0 46 17zM108 120q0 -26 13 -40t35 -14q41 0 73 38t43 107l2 13h-39q-28 0 -51 -8t-40 -21.5t-26.5 -33t-9.5 -41.5z " />
<glyph unicode="&#x106;" horiz-adv-x="525" d="M51 0zM63 351q14 97 39.5 166t62.5 112.5t85 63.5t106 20q85 0 134 -43.5t57 -146.5l-96 -29q-7 71 -33.5 98t-72.5 27q-30 0 -57 -12t-49.5 -42.5t-40.5 -82.5t-31 -131q-12 -71 -12 -124q0 -84 30.5 -116t84.5 -32q41 0 76.5 25t64.5 91l84 -44q-18 -45 -43.5 -76 t-56.5 -50.5t-66 -28.5t-72 -9q-105 0 -155.5 55t-50.5 180q0 30 3 60.5t9 68.5zM405 905h111l-1 -7l-109 -115h-82v4z" />
<glyph unicode="&#x107;" horiz-adv-x="405" d="M31 0zM292 152l77 -41q-27 -59 -70 -91.5t-112 -32.5q-76 0 -116 43.5t-40 135.5q0 18 2 37.5t5 41.5q20 132 77.5 195t146.5 63q69 0 102.5 -36t39.5 -108l-87 -30q-7 43 -20 64.5t-48 21.5q-44 0 -72 -40t-43 -131q-3 -22 -5.5 -40.5t-2.5 -34.5q0 -51 18 -73t57 -22 q27 0 50 18t41 60zM306 695h111l-1 -7l-109 -115h-82v4z" />
<glyph unicode="&#x108;" horiz-adv-x="525" d="M51 0zM63 351q14 97 39.5 166t62.5 112.5t85 63.5t106 20q85 0 134 -43.5t57 -146.5l-96 -29q-7 71 -33.5 98t-72.5 27q-30 0 -57 -12t-49.5 -42.5t-40.5 -82.5t-31 -131q-12 -71 -12 -124q0 -84 30.5 -116t84.5 -32q41 0 76.5 25t64.5 91l84 -44q-18 -45 -43.5 -76 t-56.5 -50.5t-66 -28.5t-72 -9q-105 0 -155.5 55t-50.5 180q0 30 3 60.5t9 68.5zM344 905h86l72 -119v-3h-86l-37 65l-57 -65h-88v3z" />
<glyph unicode="&#x109;" horiz-adv-x="405" d="M31 0zM292 152l77 -41q-27 -59 -70 -91.5t-112 -32.5q-76 0 -116 43.5t-40 135.5q0 18 2 37.5t5 41.5q20 132 77.5 195t146.5 63q69 0 102.5 -36t39.5 -108l-87 -30q-7 43 -20 64.5t-48 21.5q-44 0 -72 -40t-43 -131q-3 -22 -5.5 -40.5t-2.5 -34.5q0 -51 18 -73t57 -22 q27 0 50 18t41 60zM245 695h86l72 -119v-3h-86l-37 65l-57 -65h-88v3z" />
<glyph unicode="&#x10a;" horiz-adv-x="525" d="M51 0zM63 351q14 97 39.5 166t62.5 112.5t85 63.5t106 20q85 0 134 -43.5t57 -146.5l-96 -29q-7 71 -33.5 98t-72.5 27q-30 0 -57 -12t-49.5 -42.5t-40.5 -82.5t-31 -131q-12 -71 -12 -124q0 -84 30.5 -116t84.5 -32q41 0 76.5 25t64.5 91l84 -44q-18 -45 -43.5 -76 t-56.5 -50.5t-66 -28.5t-72 -9q-105 0 -155.5 55t-50.5 180q0 30 3 60.5t9 68.5zM321 838q0 33 17 52.5t49 19.5q26 0 38.5 -13.5t12.5 -37.5q0 -34 -17.5 -53t-49.5 -19q-26 0 -38 13.5t-12 37.5z" />
<glyph unicode="&#x10b;" horiz-adv-x="405" d="M31 0zM292 152l77 -41q-27 -59 -70 -91.5t-112 -32.5q-76 0 -116 43.5t-40 135.5q0 18 2 37.5t5 41.5q20 132 77.5 195t146.5 63q69 0 102.5 -36t39.5 -108l-87 -30q-7 43 -20 64.5t-48 21.5q-44 0 -72 -40t-43 -131q-3 -22 -5.5 -40.5t-2.5 -34.5q0 -51 18 -73t57 -22 q27 0 50 18t41 60zM222 628q0 33 17 52.5t49 19.5q26 0 38.5 -13.5t12.5 -37.5q0 -34 -17.5 -53t-49.5 -19q-26 0 -38 13.5t-12 37.5z" />
<glyph unicode="&#x10c;" horiz-adv-x="525" d="M51 0zM63 351q14 97 39.5 166t62.5 112.5t85 63.5t106 20q85 0 134 -43.5t57 -146.5l-96 -29q-7 71 -33.5 98t-72.5 27q-30 0 -57 -12t-49.5 -42.5t-40.5 -82.5t-31 -131q-12 -71 -12 -124q0 -84 30.5 -116t84.5 -32q41 0 76.5 25t64.5 91l84 -44q-18 -45 -43.5 -76 t-56.5 -50.5t-66 -28.5t-72 -9q-105 0 -155.5 55t-50.5 180q0 30 3 60.5t9 68.5zM329 783l-71 119v3h87l33 -64l61 64h87v-3l-111 -119h-86z" />
<glyph unicode="&#x10d;" horiz-adv-x="405" d="M31 0zM292 152l77 -41q-27 -59 -70 -91.5t-112 -32.5q-76 0 -116 43.5t-40 135.5q0 18 2 37.5t5 41.5q20 132 77.5 195t146.5 63q69 0 102.5 -36t39.5 -108l-87 -30q-7 43 -20 64.5t-48 21.5q-44 0 -72 -40t-43 -131q-3 -22 -5.5 -40.5t-2.5 -34.5q0 -51 18 -73t57 -22 q27 0 50 18t41 60zM230 573l-71 119v3h87l33 -64l61 64h87v-3l-111 -119h-86z" />
<glyph unicode="&#x10e;" horiz-adv-x="567" d="M32 0zM32 0l111 700h189q105 0 158 -56t53 -178q0 -22 -2 -52t-7 -60q-27 -182 -105.5 -268t-205.5 -86h-191zM150 93h81q34 0 65.5 12.5t57 42t45 79t30.5 123.5q5 27 7.5 54.5t2.5 50.5q0 82 -31 117t-88 35h-87zM329 782l-71 119v3h87l33 -64l61 64h87v-3l-111 -119 h-86z" />
<glyph unicode="&#x10f;" horiz-adv-x="546" d="M31 0zM563 467h-68l41 233h87zM194 72q40 0 71.5 40.5t45.5 131.5q6 42 6 71q0 55 -18 79.5t-49 24.5q-44 0 -71.5 -42t-42.5 -132q-5 -25 -6.5 -40.5t-1.5 -32.5q0 -100 66 -100zM155 -13q-60 0 -92 44.5t-32 130.5q0 37 6 82q18 128 71 193.5t129 65.5q71 0 101 -79 l44 276h100l-111 -700h-81l3 76q-27 -43 -60 -66t-78 -23z" />
<glyph unicode="&#x110;" horiz-adv-x="575" d="M232 0h-192l50 312h-56l15 87h54l48 301h189q105 0 158.5 -56t53.5 -178q0 -22 -2.5 -52t-7.5 -60q-28 -182 -106.5 -268t-203.5 -86zM159 93h79q35 0 66 12.5t57 42t45.5 79t30.5 123.5q5 27 7.5 54.5t2.5 50.5q0 83 -30.5 118t-87.5 35h-89l-33 -209h99l-14 -87h-98z " />
<glyph unicode="&#x111;" horiz-adv-x="481" d="M310 243q6 42 6 72q0 54 -17.5 77.5t-49.5 23.5q-43 0 -71.5 -41t-43.5 -130q-6 -41 -6 -74q0 -99 66 -99q40 0 71 40t45 131zM154 -13q-59 0 -91 44.5t-32 130.5q0 36 6 81q18 127 71 192.5t128 65.5q37 0 62 -21t39 -60l22 133h-104l11 66h103l13 81h101l-13 -81h50 l-11 -66h-49l-88 -553h-83l4 76q-27 -44 -60.5 -66.5t-78.5 -22.5z" />
<glyph unicode="&#x112;" horiz-adv-x="505" d="M32 0zM437 91l-14 -91h-391l111 700h396l-16 -92h-293l-34 -211h251l-15 -95h-250l-35 -211h290zM463 874l-10 -68h-206l10 68h206z" />
<glyph unicode="&#x113;" horiz-adv-x="423" d="M32 0zM187 -13q-74 0 -114.5 44.5t-40.5 138.5q0 33 6 74q18 126 75 192.5t147 66.5q72 0 104.5 -48t32.5 -124q0 -28 -4.5 -58.5t-10.5 -60.5h-253q-2 -7 -2.5 -19.5t-0.5 -21.5q0 -54 19.5 -76.5t56.5 -22.5q61 0 96 73l71 -39q-14 -24 -30 -46t-37 -38t-49 -25.5 t-66 -9.5zM306 335q0 43 -15 62.5t-43 19.5q-38 0 -66 -29.5t-42 -99.5h163q3 25 3 47zM384 665l-10 -68h-206l10 68h206z" />
<glyph unicode="&#x114;" horiz-adv-x="505" d="M32 0zM437 91l-14 -91h-391l111 700h396l-16 -92h-293l-34 -211h251l-15 -95h-250l-35 -211h290zM420 903h64q-11 -73 -46.5 -100.5t-92.5 -27.5q-28 0 -49.5 6.5t-34.5 21.5t-17.5 39.5t0.5 60.5h65q-6 -38 4.5 -51t38.5 -13q29 0 45.5 13t22.5 51z" />
<glyph unicode="&#x115;" horiz-adv-x="423" d="M32 0zM187 -13q-74 0 -114.5 44.5t-40.5 138.5q0 33 6 74q18 126 75 192.5t147 66.5q72 0 104.5 -48t32.5 -124q0 -28 -4.5 -58.5t-10.5 -60.5h-253q-2 -7 -2.5 -19.5t-0.5 -21.5q0 -54 19.5 -76.5t56.5 -22.5q61 0 96 73l71 -39q-14 -24 -30 -46t-37 -38t-49 -25.5 t-66 -9.5zM306 335q0 43 -15 62.5t-43 19.5q-38 0 -66 -29.5t-42 -99.5h163q3 25 3 47zM340 694h64q-11 -73 -46.5 -100.5t-92.5 -27.5q-28 0 -49.5 6.5t-34.5 21.5t-17.5 39.5t0.5 60.5h65q-6 -38 4.5 -51t38.5 -13q29 0 45.5 13t22.5 51z" />
<glyph unicode="&#x116;" horiz-adv-x="505" d="M32 0zM437 91l-14 -91h-391l111 700h396l-16 -92h-293l-34 -211h251l-15 -95h-250l-35 -211h290zM297 837q0 33 17 52.5t49 19.5q26 0 38.5 -13.5t12.5 -37.5q0 -34 -17.5 -53t-49.5 -19q-26 0 -38 13.5t-12 37.5z" />
<glyph unicode="&#x117;" horiz-adv-x="423" d="M32 0zM187 -13q-74 0 -114.5 44.5t-40.5 138.5q0 33 6 74q18 126 75 192.5t147 66.5q72 0 104.5 -48t32.5 -124q0 -28 -4.5 -58.5t-10.5 -60.5h-253q-2 -7 -2.5 -19.5t-0.5 -21.5q0 -54 19.5 -76.5t56.5 -22.5q61 0 96 73l71 -39q-14 -24 -30 -46t-37 -38t-49 -25.5 t-66 -9.5zM306 335q0 43 -15 62.5t-43 19.5q-38 0 -66 -29.5t-42 -99.5h163q3 25 3 47zM217 628q0 33 17 52.5t49 19.5q26 0 38.5 -13.5t12.5 -37.5q0 -34 -17.5 -53t-49.5 -19q-26 0 -38 13.5t-12 37.5z" />
<glyph unicode="&#x118;" horiz-adv-x="505" d="M403 -189q-20 -14 -40 -21t-44 -7q-41 0 -66 23t-25 73q0 38 13 68.5t36 52.5h-245l111 700h396l-16 -92h-293l-34 -211h251l-15 -95h-250l-35 -211h290l-14 -91h-50q-20 -2 -34.5 -11.5t-25 -24t-15.5 -31.5t-5 -34q0 -26 12 -36.5t28 -10.5q27 0 46 17z" />
<glyph unicode="&#x119;" horiz-adv-x="425" d="M209 -217q-18 0 -35 5t-30 16.5t-20 30.5t-6 48q0 33 10.5 59.5t27.5 46.5q-60 9 -92 53t-32 128q0 33 6 74q18 126 75 192.5t147 66.5q72 0 104.5 -48t32.5 -124q0 -28 -4.5 -58.5t-10.5 -60.5h-253q-2 -6 -2.5 -19t-0.5 -22q0 -54 19.5 -76.5t56.5 -22.5q61 0 96 73 l71 -39q-12 -20 -25 -38.5t-29 -34t-36.5 -26.5t-46.5 -16q-23 -13 -36 -38.5t-14 -51.5q-1 -27 11.5 -38t29.5 -11q27 0 46 17l24 -58q-21 -14 -41 -21t-43 -7zM306 335q0 43 -15 62.5t-43 19.5q-38 0 -66 -29.5t-42 -99.5h163q3 25 3 47z" />
<glyph unicode="&#x11a;" horiz-adv-x="505" d="M32 0zM437 91l-14 -91h-391l111 700h396l-16 -92h-293l-34 -211h251l-15 -95h-250l-35 -211h290zM305 782l-71 119v3h87l33 -64l61 64h87v-3l-111 -119h-86z" />
<glyph unicode="&#x11b;" horiz-adv-x="423" d="M32 0zM226 573l-71 119v3h87l33 -64l61 64h87v-3l-111 -119h-86zM187 -13q-74 0 -114.5 44.5t-40.5 138.5q0 33 6 74q18 126 75 192.5t147 66.5q72 0 104.5 -48t32.5 -124q0 -28 -4.5 -58.5t-10.5 -60.5h-253q-2 -7 -2.5 -19.5t-0.5 -21.5q0 -54 19.5 -76.5t56.5 -22.5 q61 0 96 73l71 -39q-14 -24 -30 -46t-37 -38t-49 -25.5t-66 -9.5zM306 335q0 43 -15 62.5t-43 19.5q-38 0 -66 -29.5t-42 -99.5h163q3 25 3 47z" />
<glyph unicode="&#x11c;" horiz-adv-x="557" d="M52 0zM236 -13q-90 0 -137 59t-47 183q0 27 3 57.5t8 64.5q14 97 38.5 165.5t61.5 112t85.5 64t110.5 20.5q82 1 130.5 -40t56.5 -141l-95 -29q-7 69 -33 92.5t-71 23.5q-33 0 -60.5 -12.5t-50 -43t-40 -82.5t-29.5 -130q-6 -37 -8.5 -67.5t-2.5 -56.5q0 -85 28 -118.5 t79 -33.5q22 0 45 9t43.5 32t37 61t24.5 97h-117l14 86h213l-57 -360h-73l3 87q-28 -49 -69.5 -74.5t-90.5 -25.5zM343 905h86l72 -119v-3h-86l-37 65l-57 -65h-88v3z" />
<glyph unicode="&#x11d;" horiz-adv-x="467" d="M0 0zM243 695h86l72 -119v-3h-86l-37 65l-57 -65h-88v3zM193 83q42 0 72.5 40t44.5 130q6 36 6 65q0 52 -18 76t-49 24q-43 0 -71.5 -39t-42.5 -127q-3 -20 -5 -37.5t-2 -33.5q0 -49 17.5 -73.5t47.5 -24.5zM64 -51q9 -82 83 -82q104 0 124 144l10 71q-23 -39 -55.5 -59 t-69.5 -20q-59 0 -92.5 42.5t-33.5 129.5q0 34 6 76q19 125 72 188.5t132 63.5q78 0 108 -86l18 74h81l-76 -482q-18 -114 -78.5 -170t-150.5 -56q-74 0 -113 32t-53 93z" />
<glyph unicode="&#x11e;" horiz-adv-x="557" d="M52 0zM236 -13q-90 0 -137 59t-47 183q0 27 3 57.5t8 64.5q14 97 38.5 165.5t61.5 112t85.5 64t110.5 20.5q82 1 130.5 -40t56.5 -141l-95 -29q-7 69 -33 92.5t-71 23.5q-33 0 -60.5 -12.5t-50 -43t-40 -82.5t-29.5 -130q-6 -37 -8.5 -67.5t-2.5 -56.5q0 -85 28 -118.5 t79 -33.5q22 0 45 9t43.5 32t37 61t24.5 97h-117l14 86h213l-57 -360h-73l3 87q-28 -49 -69.5 -74.5t-90.5 -25.5zM443 904h64q-11 -73 -46.5 -100.5t-92.5 -27.5q-28 0 -49.5 6.5t-34.5 21.5t-17.5 39.5t0.5 60.5h65q-6 -38 4.5 -51t38.5 -13q29 0 45.5 13t22.5 51z" />
<glyph unicode="&#x11f;" horiz-adv-x="467" d="M0 0zM193 83q42 0 72.5 40t44.5 130q6 36 6 65q0 52 -18 76t-49 24q-43 0 -71.5 -39t-42.5 -127q-3 -20 -5 -37.5t-2 -33.5q0 -49 17.5 -73.5t47.5 -24.5zM64 -51q9 -82 83 -82q104 0 124 144l10 71q-23 -39 -55.5 -59t-69.5 -20q-59 0 -92.5 42.5t-33.5 129.5q0 34 6 76 q19 125 72 188.5t132 63.5q78 0 108 -86l18 74h81l-76 -482q-18 -114 -78.5 -170t-150.5 -56q-74 0 -113 32t-53 93zM343 694h64q-11 -73 -46.5 -100.5t-92.5 -27.5q-28 0 -49.5 6.5t-34.5 21.5t-17.5 39.5t0.5 60.5h65q-6 -38 4.5 -51t38.5 -13q29 0 45.5 13t22.5 51z" />
<glyph unicode="&#x120;" horiz-adv-x="557" d="M52 0zM236 -13q-90 0 -137 59t-47 183q0 27 3 57.5t8 64.5q14 97 38.5 165.5t61.5 112t85.5 64t110.5 20.5q82 1 130.5 -40t56.5 -141l-95 -29q-7 69 -33 92.5t-71 23.5q-33 0 -60.5 -12.5t-50 -43t-40 -82.5t-29.5 -130q-6 -37 -8.5 -67.5t-2.5 -56.5q0 -85 28 -118.5 t79 -33.5q22 0 45 9t43.5 32t37 61t24.5 97h-117l14 86h213l-57 -360h-73l3 87q-28 -49 -69.5 -74.5t-90.5 -25.5zM320 838q0 33 17 52.5t49 19.5q26 0 38.5 -13.5t12.5 -37.5q0 -34 -17.5 -53t-49.5 -19q-26 0 -38 13.5t-12 37.5z" />
<glyph unicode="&#x121;" horiz-adv-x="467" d="M0 0zM193 83q42 0 72.5 40t44.5 130q6 36 6 65q0 52 -18 76t-49 24q-43 0 -71.5 -39t-42.5 -127q-3 -20 -5 -37.5t-2 -33.5q0 -49 17.5 -73.5t47.5 -24.5zM64 -51q9 -82 83 -82q104 0 124 144l10 71q-23 -39 -55.5 -59t-69.5 -20q-59 0 -92.5 42.5t-33.5 129.5q0 34 6 76 q19 125 72 188.5t132 63.5q78 0 108 -86l18 74h81l-76 -482q-18 -114 -78.5 -170t-150.5 -56q-74 0 -113 32t-53 93zM221 628q0 33 17 52.5t49 19.5q26 0 38.5 -13.5t12.5 -37.5q0 -34 -17.5 -53t-49.5 -19q-26 0 -38 13.5t-12 37.5z" />
<glyph unicode="&#x122;" horiz-adv-x="557" d="M52 0zM236 -13q-90 0 -137 59t-47 183q0 27 3 57.5t8 64.5q14 97 38.5 165.5t61.5 112t85.5 64t110.5 20.5q82 1 130.5 -40t56.5 -141l-95 -29q-7 69 -33 92.5t-71 23.5q-33 0 -60.5 -12.5t-50 -43t-40 -82.5t-29.5 -130q-6 -37 -8.5 -67.5t-2.5 -56.5q0 -85 28 -118.5 t79 -33.5q22 0 45 9t43.5 32t37 61t24.5 97h-117l14 86h213l-57 -360h-73l3 87q-28 -49 -69.5 -74.5t-90.5 -25.5zM169 -297l-20 39q24 12 45 33.5t26 48.5q-21 -2 -35 9.5t-14 36.5q1 29 17.5 49t46.5 20q25 0 37.5 -15t12.5 -42q0 -30 -9 -58.5t-24.5 -52.5t-37 -42 t-45.5 -26z" />
<glyph unicode="&#x123;" horiz-adv-x="466" d="M331 800l20 -39q-24 -12 -45 -33.5t-26 -48.5q21 2 35 -9.5t14 -36.5q-1 -29 -17.5 -49t-46.5 -20q-25 0 -37.5 15t-12.5 42q0 30 9 58.5t24.5 52.5t37 42t45.5 26zM193 83q42 0 72.5 40t44.5 130q6 36 6 65q0 52 -18 76t-49 24q-43 0 -71.5 -39t-42.5 -127 q-3 -20 -5 -37.5t-2 -33.5q0 -49 17.5 -73.5t47.5 -24.5zM64 -51q9 -82 83 -82q104 0 124 144l10 71q-23 -39 -55.5 -59t-69.5 -20q-59 0 -92.5 42.5t-33.5 129.5q0 34 6 76q19 125 72 188.5t132 63.5q78 0 108 -86l18 74h81l-76 -482q-18 -114 -78.5 -170t-150.5 -56 q-74 0 -113 32t-53 93z" />
<glyph unicode="&#x124;" horiz-adv-x="598" d="M32 0zM380 0l47 303h-243l-48 -303h-104l111 700h104l-48 -300h245l47 300h104l-111 -700h-104zM354 905h86l72 -119v-3h-86l-37 65l-57 -65h-88v3z" />
<glyph unicode="&#x125;" horiz-adv-x="478" d="M19 0zM231 700l-49 -304q29 57 67 82t80 25q55 0 83 -33.5t28 -95.5q0 -14 -1.5 -28.5t-3.5 -29.5l-50 -316h-101l47 297q2 12 3 24t1 22q0 68 -57 68q-41 0 -73 -44t-46 -125l-39 -242h-101l111 700h101zM166 904h86l72 -119v-3h-86l-37 65l-57 -65h-88v3z" />
<glyph unicode="&#x126;" horiz-adv-x="616" d="M209 400h244l14 94h-243zM81 562h50l22 138h104l-21 -138h243l22 138h105l-22 -138h50l-12 -68h-50l-77 -494h-104l47 303h-244l-48 -303h-104l78 494h-51z" />
<glyph unicode="&#x127;" horiz-adv-x="487" d="M66 553l11 66h51l13 81h101l-13 -81h102l-10 -66h-102l-25 -157q29 56 66 80.5t79 24.5q55 0 82 -36t27 -99q0 -15 -1.5 -30.5t-3.5 -32.5l-48 -303h-101l44 284q2 14 3.5 27t1.5 24q0 73 -54 73q-42 0 -73.5 -43.5t-45.5 -123.5l-39 -241h-101l87 553h-51z" />
<glyph unicode="&#x128;" horiz-adv-x="251" d="M32 0zM32 0l111 700h104l-111 -700h-104zM290 898h62q-2 -31 -11 -51.5t-22 -33t-27.5 -18t-28.5 -5.5q-16 0 -28.5 6t-23.5 13.5t-21 13.5t-21 6q-13 0 -19 -11t-8 -25h-64q3 31 12.5 51.5t21.5 33t26.5 17.5t28.5 5q16 0 29.5 -6t24.5 -13.5t21 -13.5t20 -6q14 0 20 11 t8 26z" />
<glyph unicode="&#x129;" horiz-adv-x="219" d="M20 0zM98 491h101l-77 -491h-102zM242 689h62q-2 -31 -11 -51.5t-22 -33t-27.5 -18t-28.5 -5.5q-16 0 -28.5 6t-23.5 13.5t-21 13.5t-21 6q-13 0 -19 -11t-8 -25h-64q3 31 12.5 51.5t21.5 33t26.5 17.5t28.5 5q16 0 29.5 -6t24.5 -13.5t21 -13.5t20 -6q14 0 20 11t8 26z " />
<glyph unicode="&#x12a;" horiz-adv-x="251" d="M32 0zM32 0l111 700h104l-111 -700h-104zM324 874l-10 -68h-206l10 68h206z" />
<glyph unicode="&#x12b;" horiz-adv-x="220" d="M20 0zM98 491h101l-77 -491h-102zM277 665l-10 -68h-206l10 68h206z" />
<glyph unicode="&#x12c;" horiz-adv-x="251" d="M32 0zM32 0l111 700h104l-111 -700h-104zM281 903h64q-11 -73 -46.5 -100.5t-92.5 -27.5q-28 0 -49.5 6.5t-34.5 21.5t-17.5 39.5t0.5 60.5h65q-6 -38 4.5 -51t38.5 -13q29 0 45.5 13t22.5 51z" />
<glyph unicode="&#x12d;" horiz-adv-x="219" d="M20 0zM98 491h101l-77 -491h-102zM232 694h64q-11 -73 -46.5 -100.5t-92.5 -27.5q-28 0 -49.5 6.5t-34.5 21.5t-17.5 39.5t0.5 60.5h65q-6 -38 4.5 -51t38.5 -13q29 0 45.5 13t22.5 51z" />
<glyph unicode="&#x12e;" horiz-adv-x="251" d="M120 -189q-20 -14 -40 -21t-44 -7q-41 0 -66 23t-25 73q0 54 26.5 93.5t65.5 56.5l106 671h104l-111 -700h-46q-20 -2 -34.5 -11.5t-25 -24t-15.5 -31.5t-5 -34q0 -26 12 -36.5t28 -10.5q27 0 46 17z" />
<glyph unicode="&#x12f;" horiz-adv-x="219" d="M108 629q0 34 17.5 55.5t52.5 21.5q26 0 40.5 -14t14.5 -40q0 -35 -19.5 -56t-51.5 -21q-26 0 -40 15t-14 39zM102 -189q-20 -14 -40 -21t-44 -7q-41 0 -66 23t-25 73q0 57 28 97t70 56l73 459h101l-77 -491h-50q-20 -2 -34.5 -11.5t-25 -24t-15.5 -31.5t-5 -34 q0 -26 12 -36.5t28 -10.5q27 0 46 17z" />
<glyph unicode="&#x130;" horiz-adv-x="251" d="M32 0zM32 0l111 700h104l-111 -700h-104zM158 837q0 33 17 52.5t49 19.5q26 0 38.5 -13.5t12.5 -37.5q0 -34 -17.5 -53t-49.5 -19q-26 0 -38 13.5t-12 37.5z" />
<glyph unicode="&#x131;" horiz-adv-x="219" d="M98 491h101l-77 -491h-102z" />
<glyph unicode="&#x132;" horiz-adv-x="650" d="M32 0zM32 0l111 700h104l-111 -700h-104zM351 -13q-36 0 -73.5 12t-63.5 41l62 80q17 -18 39 -28t45 -10q43 0 74.5 37.5t45.5 124.5l73 456h105l-72 -451q-12 -75 -34 -125.5t-52.5 -80.5t-68 -43t-80.5 -13z" />
<glyph unicode="&#x133;" horiz-adv-x="436" d="M20 0zM108 629q0 34 17.5 55.5t52.5 21.5q26 0 40.5 -14t14.5 -40q0 -35 -19.5 -56t-51.5 -21q-26 0 -40 15t-14 39zM98 491h101l-77 -491h-102zM323 629q0 34 17.5 55.5t52.5 21.5q26 0 40 -14t14 -40q0 -35 -19 -56t-51 -21q-26 0 -40 15t-14 39zM229 -37l84 528h101 l-85 -538q-14 -88 -57.5 -129t-101.5 -41q-25 0 -44 4t-38 14l39 85q9 -5 17 -8t19 -3q25 0 41.5 18.5t24.5 69.5z" />
<glyph unicode="&#x134;" horiz-adv-x="400" d="M0 0zM101 -13q-36 0 -73.5 12t-63.5 41l62 80q17 -18 39 -28t45 -10q43 0 74.5 37.5t45.5 124.5l73 456h105l-72 -451q-12 -75 -34 -125.5t-52.5 -80.5t-68 -43t-80.5 -13zM340 904h86l72 -119v-3h-86l-37 65l-57 -65h-88v3z" />
<glyph unicode="&#x135;" horiz-adv-x="218" d="M0 0zM14 -37l83 528h101l-84 -538q-14 -88 -57.5 -129t-102.5 -41q-25 0 -43.5 4t-37.5 14l38 85q9 -5 17 -8t19 -3q25 0 41.5 18.5t25.5 69.5zM132 695h86l72 -119v-3h-86l-37 65l-57 -65h-88v3z" />
<glyph unicode="&#x136;" horiz-adv-x="517" d="M32 0zM354 0l-103 297l-85 -102l-30 -195h-104l111 700h104l-57 -350l265 350h118l-242 -306l139 -394h-116zM168 -297l-20 39q24 12 45 33.5t26 48.5q-21 -2 -35 9.5t-14 36.5q1 29 17.5 49t46.5 20q25 0 37.5 -15t12.5 -42q0 -30 -9 -58.5t-24.5 -52.5t-37 -42 t-45.5 -26z" />
<glyph unicode="&#x137;" horiz-adv-x="423" d="M19 0zM115 -297l-20 39q24 12 45 33.5t26 48.5q-21 -2 -35 9.5t-14 36.5q1 29 17.5 49t46.5 20q25 0 37.5 -15t12.5 -42q0 -30 -9 -58.5t-24.5 -52.5t-37 -42t-45.5 -26zM138 116l-17 -116h-102l111 700h102l-77 -457l186 248h113l-178 -215l103 -276h-111l-65 193z" />
<glyph unicode="&#x138;" horiz-adv-x="428" d="M140 118l-19 -118h-101l77 491h102l-42 -248l185 248h112l-176 -215l101 -276h-111l-66 195z" />
<glyph unicode="&#x139;" horiz-adv-x="474" d="M32 0zM151 95h278l-15 -95h-382l110 700h105zM236 904h111l-1 -7l-109 -115h-82v4z" />
<glyph unicode="&#x13a;" horiz-adv-x="233" d="M31 0zM127 0q-25 0 -44 6t-31.5 20t-16.5 37t1 57l92 580h101l-92 -578q-4 -23 3 -31.5t24 -8.5h34l-13 -82h-58zM227 904h111l-1 -7l-109 -115h-82v4z" />
<glyph unicode="&#x13b;" horiz-adv-x="474" d="M32 0zM151 95h278l-15 -95h-382l110 700h105zM151 -297l-20 39q24 12 45 33.5t26 48.5q-21 -2 -35 9.5t-14 36.5q1 29 17.5 49t46.5 20q25 0 37.5 -15t12.5 -42q0 -30 -9 -58.5t-24.5 -52.5t-37 -42t-45.5 -26z" />
<glyph unicode="&#x13c;" horiz-adv-x="233" d="M1 0zM127 0q-25 0 -44 6t-31.5 20t-16.5 37t1 57l92 580h101l-92 -578q-4 -23 3 -31.5t24 -8.5h34l-13 -82h-58zM21 -297l-20 39q24 12 45 33.5t26 48.5q-21 -2 -35 9.5t-14 36.5q1 29 17.5 49t46.5 20q25 0 37.5 -15t12.5 -42q0 -30 -9 -58.5t-24.5 -52.5t-37 -42 t-45.5 -26z" />
<glyph unicode="&#x13d;" horiz-adv-x="476" d="M32 0zM400 468h-68l41 233h87zM151 95h278l-15 -95h-382l110 700h105z" />
<glyph unicode="&#x13e;" horiz-adv-x="292" d="M32 0zM312 468h-68l41 233h87zM128 0q-25 0 -44 6t-31.5 20t-16.5 37t1 57l92 580h101l-92 -578q-4 -23 3 -31.5t24 -8.5h34l-13 -82h-58z" />
<glyph unicode="&#x13f;" horiz-adv-x="475" d="M32 0zM151 95h278l-15 -95h-382l110 700h105zM321 348q0 33 17 52.5t49 19.5q26 0 38.5 -13.5t12.5 -37.5q0 -34 -17.5 -53t-49.5 -19q-26 0 -38 13.5t-12 37.5z" />
<glyph unicode="&#x140;" horiz-adv-x="320" d="M32 0zM128 0q-25 0 -44 6t-31.5 20t-16.5 37t1 57l92 580h101l-92 -578q-4 -23 3 -31.5t24 -8.5h34l-13 -82h-58zM218 295q0 33 17 52.5t49 19.5q26 0 38.5 -13.5t12.5 -37.5q0 -34 -17.5 -53t-49.5 -19q-26 0 -38 13.5t-12 37.5z" />
<glyph unicode="&#x141;" horiz-adv-x="488" d="M166 95h278l-15 -95h-383l39 241l-79 -61l15 96l78 60l58 364h105l-46 -298l141 104l-16 -98l-140 -103z" />
<glyph unicode="&#x142;" horiz-adv-x="245" d="M201 0h-58q-25 0 -44 6t-31.5 20t-16.5 37t1 57l20 125l-73 -66l16 95l72 68l57 358h101l-43 -271l80 74l-16 -96l-80 -75l-33 -210q-4 -23 3 -31.5t24 -8.5h34z" />
<glyph unicode="&#x143;" horiz-adv-x="592" d="M32 0zM383 0l-179 494l-75 -494h-97l111 700h91l181 -503l77 503h97l-111 -700h-95zM411 905h111l-1 -7l-109 -115h-82v4z" />
<glyph unicode="&#x144;" horiz-adv-x="478" d="M19 0zM321 695h111l-1 -7l-109 -115h-82v4zM19 0l78 491h85l-6 -93q30 56 68.5 80.5t81.5 24.5q58 0 86 -34.5t28 -96.5q0 -14 -1.5 -28t-3.5 -29l-50 -315h-101l48 297q2 12 2.5 23t0.5 20q0 71 -57 71q-40 0 -73.5 -43t-44.5 -121l-40 -247h-101z" />
<glyph unicode="&#x145;" horiz-adv-x="592" d="M32 0zM383 0l-179 494l-75 -494h-97l111 700h91l181 -503l77 503h97l-111 -700h-95zM182 -297l-20 39q24 12 45 33.5t26 48.5q-21 -2 -35 9.5t-14 36.5q1 29 17.5 49t46.5 20q25 0 37.5 -15t12.5 -42q0 -30 -9 -58.5t-24.5 -52.5t-37 -42t-45.5 -26z" />
<glyph unicode="&#x146;" horiz-adv-x="478" d="M19 0zM125 -297l-20 39q24 12 45 33.5t26 48.5q-21 -2 -35 9.5t-14 36.5q1 29 17.5 49t46.5 20q25 0 37.5 -15t12.5 -42q0 -30 -9 -58.5t-24.5 -52.5t-37 -42t-45.5 -26zM19 0l78 491h85l-6 -93q30 56 68.5 80.5t81.5 24.5q58 0 86 -34.5t28 -96.5q0 -14 -1.5 -28 t-3.5 -29l-50 -315h-101l48 297q2 12 2.5 23t0.5 20q0 71 -57 71q-40 0 -73.5 -43t-44.5 -121l-40 -247h-101z" />
<glyph unicode="&#x147;" horiz-adv-x="592" d="M32 0zM383 0l-179 494l-75 -494h-97l111 700h91l181 -503l77 503h97l-111 -700h-95zM335 783l-71 119v3h87l33 -64l61 64h87v-3l-111 -119h-86z" />
<glyph unicode="&#x148;" horiz-adv-x="478" d="M19 0zM246 573l-71 119v3h87l33 -64l61 64h87v-3l-111 -119h-86zM19 0l78 491h85l-6 -93q30 56 68.5 80.5t81.5 24.5q58 0 86 -34.5t28 -96.5q0 -14 -1.5 -28t-3.5 -29l-50 -315h-101l48 297q2 12 2.5 23t0.5 20q0 71 -57 71q-40 0 -73.5 -43t-44.5 -121l-40 -247h-101z " />
<glyph unicode="&#x14a;" horiz-adv-x="592" d="M374 -35l6 45l-176 484l-75 -494h-97l111 700h91l183 -504l76 504h97l-119 -747q-14 -90 -56.5 -130t-102.5 -40q-19 0 -38.5 3t-38.5 13l36 87q8 -5 17 -8t21 -3q24 0 40.5 18.5t24.5 71.5z" />
<glyph unicode="&#x14b;" horiz-adv-x="478" d="M378 -51q-7 -44 -21.5 -75t-35.5 -51.5t-47 -30t-55 -9.5q-20 0 -40 3t-40 14l37 86q10 -5 18 -8t19 -3q26 0 41.5 19.5t24.5 70.5l52 331q4 23 4 45q0 70 -57 70q-40 0 -73.5 -43.5t-45.5 -121.5l-38 -246h-102l78 491h85l-6 -91q30 54 68.5 78.5t81.5 24.5q58 0 86 -34 t28 -96q0 -14 -1.5 -28t-3.5 -29z" />
<glyph unicode="&#x14c;" horiz-adv-x="587" d="M51 0zM360 713q106 0 154.5 -56t48.5 -177q0 -29 -2.5 -60.5t-8.5 -68.5q-27 -190 -100.5 -277t-197.5 -87q-104 0 -153.5 57t-49.5 178q0 29 3.5 60.5t8.5 68.5q27 189 99.5 275.5t197.5 86.5zM350 620q-35 0 -63.5 -13t-51 -44t-39.5 -83.5t-29 -130.5q-6 -37 -9 -67 t-3 -57q0 -82 28.5 -114.5t79.5 -32.5q34 0 62.5 13t51.5 44.5t40.5 84t29.5 131.5q5 36 7.5 66.5t2.5 55.5q0 82 -27.5 114.5t-79.5 32.5zM486 875l-10 -68h-206l10 68h206z" />
<glyph unicode="&#x14d;" horiz-adv-x="451" d="M31 0zM391 665l-10 -68h-206l10 68h206zM31 166q0 18 2 38t5 43q19 133 77 194.5t147 61.5q78 0 118 -42t40 -133q0 -18 -2 -38t-6 -43q-19 -132 -75.5 -196t-148.5 -64q-77 0 -117 43.5t-40 135.5zM197 74q48 0 76 39t43 133q8 46 8 75q0 52 -18.5 73t-54.5 21 q-48 0 -75 -38.5t-41 -130.5q-4 -23 -6 -42.5t-2 -35.5q0 -51 17.5 -72.5t52.5 -21.5z" />
<glyph unicode="&#x14e;" horiz-adv-x="587" d="M51 0zM360 713q106 0 154.5 -56t48.5 -177q0 -29 -2.5 -60.5t-8.5 -68.5q-27 -190 -100.5 -277t-197.5 -87q-104 0 -153.5 57t-49.5 178q0 29 3.5 60.5t8.5 68.5q27 189 99.5 275.5t197.5 86.5zM350 620q-35 0 -63.5 -13t-51 -44t-39.5 -83.5t-29 -130.5q-6 -37 -9 -67 t-3 -57q0 -82 28.5 -114.5t79.5 -32.5q34 0 62.5 13t51.5 44.5t40.5 84t29.5 131.5q5 36 7.5 66.5t2.5 55.5q0 82 -27.5 114.5t-79.5 32.5zM443 904h64q-11 -73 -46.5 -100.5t-92.5 -27.5q-28 0 -49.5 6.5t-34.5 21.5t-17.5 39.5t0.5 60.5h65q-6 -38 4.5 -51t38.5 -13 q29 0 45.5 13t22.5 51z" />
<glyph unicode="&#x14f;" horiz-adv-x="451" d="M31 0zM31 166q0 18 2 38t5 43q19 133 77 194.5t147 61.5q78 0 118 -42t40 -133q0 -18 -2 -38t-6 -43q-19 -132 -75.5 -196t-148.5 -64q-77 0 -117 43.5t-40 135.5zM197 74q48 0 76 39t43 133q8 46 8 75q0 52 -18.5 73t-54.5 21q-48 0 -75 -38.5t-41 -130.5 q-4 -23 -6 -42.5t-2 -35.5q0 -51 17.5 -72.5t52.5 -21.5zM347 694h64q-11 -73 -46.5 -100.5t-92.5 -27.5q-28 0 -49.5 6.5t-34.5 21.5t-17.5 39.5t0.5 60.5h65q-6 -38 4.5 -51t38.5 -13q29 0 45.5 13t22.5 51z" />
<glyph unicode="&#x150;" horiz-adv-x="587" d="M51 0zM360 713q106 0 154.5 -56t48.5 -177q0 -29 -2.5 -60.5t-8.5 -68.5q-27 -190 -100.5 -277t-197.5 -87q-104 0 -153.5 57t-49.5 178q0 29 3.5 60.5t8.5 68.5q27 189 99.5 275.5t197.5 86.5zM350 620q-35 0 -63.5 -13t-51 -44t-39.5 -83.5t-29 -130.5q-6 -37 -9 -67 t-3 -57q0 -82 28.5 -114.5t79.5 -32.5q34 0 62.5 13t51.5 44.5t40.5 84t29.5 131.5q5 36 7.5 66.5t2.5 55.5q0 82 -27.5 114.5t-79.5 32.5zM489 905h109l-1 -6l-116 -116h-71v4zM334 905h108l-1 -6l-116 -116h-71v4z" />
<glyph unicode="&#x151;" horiz-adv-x="450" d="M31 0zM386 695h109l-1 -6l-116 -116h-71v4zM231 695h108l-1 -6l-116 -116h-71v4zM31 166q0 18 2 38t5 43q19 133 77 194.5t147 61.5q78 0 118 -42t40 -133q0 -18 -2 -38t-6 -43q-19 -132 -75.5 -196t-148.5 -64q-77 0 -117 43.5t-40 135.5zM197 74q48 0 76 39t43 133 q8 46 8 75q0 52 -18.5 73t-54.5 21q-48 0 -75 -38.5t-41 -130.5q-4 -23 -6 -42.5t-2 -35.5q0 -51 17.5 -72.5t52.5 -21.5z" />
<glyph unicode="&#x152;" horiz-adv-x="815" d="M266 0q-108 0 -160 57.5t-52 181.5q0 24 2 51.5t6 57.5q26 180 99.5 266t202.5 86h480l-15 -91h-283l-32 -209h246l-15 -94h-247l-32 -214h290l-15 -92h-475zM272 92h92l80 515h-85q-36 0 -66.5 -13t-54.5 -43t-42 -79t-29 -121q-4 -28 -6.5 -56.5t-2.5 -52.5 q0 -78 29 -114t85 -36z" />
<glyph unicode="&#x153;" horiz-adv-x="704" d="M189 -13q-159 0 -159 180q0 37 6 79q19 130 77 193.5t150 63.5q95 0 125 -92q31 48 69.5 70t86.5 22q71 0 103.5 -48t32.5 -123q0 -29 -4.5 -59t-11.5 -61h-253q-1 -11 -1 -20v-18q0 -55 20 -78.5t55 -23.5q32 0 55 18.5t40 54.5l72 -39q-14 -24 -29.5 -45.5t-37 -38 t-50 -26t-67.5 -9.5q-46 0 -79 21t-49 69q-58 -90 -151 -90zM317 245q7 41 7 75q0 51 -17.5 74t-54.5 23q-48 0 -76 -41t-42 -131q-4 -22 -5.5 -41t-1.5 -35q0 -97 70 -97q48 0 76.5 41t43.5 132zM532 418q-38 0 -66 -30t-42 -100h162q2 12 3 24t1 23q0 44 -15 63.5 t-43 19.5z" />
<glyph unicode="&#x154;" horiz-adv-x="521" d="M32 0zM191 347h103q32 0 56 13t40 36t24 53.5t8 65.5q0 47 -21 70t-67 23h-102zM176 255l-40 -255h-104l111 700h212q87 0 129.5 -44t42.5 -122q0 -100 -36.5 -162.5t-102.5 -92.5l64 -279h-111l-53 255h-112zM387 904h111l-1 -7l-109 -115h-82v4z" />
<glyph unicode="&#x155;" horiz-adv-x="304" d="M19 0zM283 695h111l-1 -7l-109 -115h-82v4zM19 0l78 491h85l-7 -102q29 60 69.5 89.5t85.5 25.5l-17 -106q-61 8 -101.5 -38t-56.5 -137l-35 -223h-101z" />
<glyph unicode="&#x156;" horiz-adv-x="521" d="M32 0zM191 347h103q32 0 56 13t40 36t24 53.5t8 65.5q0 47 -21 70t-67 23h-102zM176 255l-40 -255h-104l111 700h212q87 0 129.5 -44t42.5 -122q0 -100 -36.5 -162.5t-102.5 -92.5l64 -279h-111l-53 255h-112zM160 -297l-20 39q24 12 45 33.5t26 48.5q-21 -2 -35 9.5 t-14 36.5q1 29 17.5 49t46.5 20q25 0 37.5 -15t12.5 -42q0 -30 -9 -58.5t-24.5 -52.5t-37 -42t-45.5 -26z" />
<glyph unicode="&#x157;" horiz-adv-x="305" d="M0 0zM-3 -297l-20 39q24 12 45 33.5t26 48.5q-21 -2 -35 9.5t-14 36.5q1 29 17.5 49t46.5 20q25 0 37.5 -15t12.5 -42q0 -30 -9 -58.5t-24.5 -52.5t-37 -42t-45.5 -26zM22 0l78 491h85l-7 -102q29 60 69.5 89.5t85.5 25.5l-17 -106q-61 8 -101.5 -38t-56.5 -137l-35 -223 h-101z" />
<glyph unicode="&#x158;" horiz-adv-x="521" d="M32 0zM191 347h103q32 0 56 13t40 36t24 53.5t8 65.5q0 47 -21 70t-67 23h-102zM176 255l-40 -255h-104l111 700h212q87 0 129.5 -44t42.5 -122q0 -100 -36.5 -162.5t-102.5 -92.5l64 -279h-111l-53 255h-112zM311 782l-71 119v3h87l33 -64l61 64h87v-3l-111 -119h-86z " />
<glyph unicode="&#x159;" horiz-adv-x="303" d="M19 0zM204 573l-71 119v3h87l33 -64l61 64h87v-3l-111 -119h-86zM19 0l78 491h85l-7 -102q29 60 69.5 89.5t85.5 25.5l-17 -106q-61 8 -101.5 -38t-56.5 -137l-35 -223h-101z" />
<glyph unicode="&#x15a;" horiz-adv-x="470" d="M0 0zM471 531l-92 -32q-7 68 -33.5 95.5t-69.5 27.5q-49 0 -75.5 -29.5t-25.5 -73.5q1 -32 18.5 -57t56.5 -46l37 -20q71 -38 102.5 -80.5t31.5 -106.5q0 -52 -16 -93.5t-45.5 -70t-71 -43.5t-91.5 -15q-81 0 -135 43t-68 138l93 36q8 -69 36 -99t77 -30q30 0 52.5 9.5 t36.5 25.5t21 36.5t7 43.5q0 35 -19.5 59.5t-59.5 46.5l-34 19q-66 37 -98 82t-32 108q0 44 14 82t40.5 66t65.5 44t89 16q78 0 130 -45t58 -137zM339 901h111l-1 -7l-109 -115h-82v4z" />
<glyph unicode="&#x15b;" horiz-adv-x="369" d="M0 0zM-5 119l82 33q15 -86 82 -86q36 0 54 18t18 46q0 21 -11 37t-40 30l-28 13q-48 20 -75 54.5t-27 88.5q0 33 11.5 61t33 48t52 31.5t69.5 11.5q121 0 148 -125l-82 -35q-6 35 -24 56.5t-49 21.5t-49 -16.5t-18 -43.5q0 -19 12 -34.5t41 -29.5l31 -14q42 -19 72 -52 t30 -89q0 -28 -10 -56t-31 -50.5t-53.5 -36.5t-77.5 -14q-37 0 -64.5 9.5t-47 27t-31.5 41.5t-18 54zM266 693h111l-1 -7l-109 -115h-82v4z" />
<glyph unicode="&#x15c;" horiz-adv-x="470" d="M0 0zM471 531l-92 -32q-7 68 -33.5 95.5t-69.5 27.5q-49 0 -75.5 -29.5t-25.5 -73.5q1 -32 18.5 -57t56.5 -46l37 -20q71 -38 102.5 -80.5t31.5 -106.5q0 -52 -16 -93.5t-45.5 -70t-71 -43.5t-91.5 -15q-81 0 -135 43t-68 138l93 36q8 -69 36 -99t77 -30q30 0 52.5 9.5 t36.5 25.5t21 36.5t7 43.5q0 35 -19.5 59.5t-59.5 46.5l-34 19q-66 37 -98 82t-32 108q0 44 14 82t40.5 66t65.5 44t89 16q78 0 130 -45t58 -137zM278 901h86l72 -119v-3h-86l-37 65l-57 -65h-88v3z" />
<glyph unicode="&#x15d;" horiz-adv-x="369" d="M0 0zM-5 119l82 33q15 -86 82 -86q36 0 54 18t18 46q0 21 -11 37t-40 30l-28 13q-48 20 -75 54.5t-27 88.5q0 33 11.5 61t33 48t52 31.5t69.5 11.5q121 0 148 -125l-82 -35q-6 35 -24 56.5t-49 21.5t-49 -16.5t-18 -43.5q0 -19 12 -34.5t41 -29.5l31 -14q42 -19 72 -52 t30 -89q0 -28 -10 -56t-31 -50.5t-53.5 -36.5t-77.5 -14q-37 0 -64.5 9.5t-47 27t-31.5 41.5t-18 54zM205 693h86l72 -119v-3h-86l-37 65l-57 -65h-88v3z" />
<glyph unicode="&#x15e;" horiz-adv-x="470" d="M147 -244q-35 0 -64.5 16t-40.5 54l55 31q12 -42 51 -42q22 0 33 13.5t11 31.5q0 20 -14.5 29t-31.5 4l-16 13l31 83q-67 8 -110.5 51t-56.5 128l93 36q8 -69 36 -99t77 -30q30 0 52.5 9.5t36.5 25.5t21 36.5t7 43.5q0 35 -19.5 59.5t-59.5 46.5l-34 19q-66 37 -98 82 t-32 108q0 44 14 82t40.5 66t65.5 44t89 16q78 0 130 -45t58 -137l-92 -32q-7 68 -33.5 95.5t-69.5 27.5q-49 0 -75.5 -29.5t-25.5 -73.5q1 -32 18.5 -57t56.5 -46l37 -20q71 -38 102.5 -80.5t31.5 -106.5q0 -100 -55.5 -157.5t-147.5 -63.5l-21 -50q25 -2 42.5 -21 t17.5 -54q0 -54 -32 -80.5t-78 -26.5z" />
<glyph unicode="&#x15f;" horiz-adv-x="369" d="M103 -241q-35 0 -64.5 16t-40.5 54l55 31q12 -42 51 -42q22 0 33 13.5t11 31.5q0 20 -14.5 29t-31.5 4l-16 13l30 81q-54 10 -82 44t-39 85l82 33q15 -86 82 -86q36 0 54 18t18 46q0 21 -11 37t-40 30l-28 13q-48 20 -75 54.5t-27 88.5q0 33 11.5 61t33 48t52 31.5 t69.5 11.5q121 0 148 -125l-82 -35q-6 35 -24 56.5t-49 21.5t-49 -16.5t-18 -43.5q0 -19 12 -34.5t41 -29.5l31 -14q42 -19 72 -52t30 -89q0 -26 -9 -53t-28 -49t-48.5 -36.5t-69.5 -17.5l-20 -47q25 -2 42.5 -21t17.5 -54q0 -54 -32 -80.5t-78 -26.5z" />
<glyph unicode="&#x160;" horiz-adv-x="470" d="M0 0zM471 531l-92 -32q-7 68 -33.5 95.5t-69.5 27.5q-49 0 -75.5 -29.5t-25.5 -73.5q1 -32 18.5 -57t56.5 -46l37 -20q71 -38 102.5 -80.5t31.5 -106.5q0 -52 -16 -93.5t-45.5 -70t-71 -43.5t-91.5 -15q-81 0 -135 43t-68 138l93 36q8 -69 36 -99t77 -30q30 0 52.5 9.5 t36.5 25.5t21 36.5t7 43.5q0 35 -19.5 59.5t-59.5 46.5l-34 19q-66 37 -98 82t-32 108q0 44 14 82t40.5 66t65.5 44t89 16q78 0 130 -45t58 -137zM263 779l-71 119v3h87l33 -64l61 64h87v-3l-111 -119h-86z" />
<glyph unicode="&#x161;" horiz-adv-x="369" d="M0 0zM-5 119l82 33q15 -86 82 -86q36 0 54 18t18 46q0 21 -11 37t-40 30l-28 13q-48 20 -75 54.5t-27 88.5q0 33 11.5 61t33 48t52 31.5t69.5 11.5q121 0 148 -125l-82 -35q-6 35 -24 56.5t-49 21.5t-49 -16.5t-18 -43.5q0 -19 12 -34.5t41 -29.5l31 -14q42 -19 72 -52 t30 -89q0 -28 -10 -56t-31 -50.5t-53.5 -36.5t-77.5 -14q-37 0 -64.5 9.5t-47 27t-31.5 41.5t-18 54zM190 571l-71 119v3h87l33 -64l61 64h87v-3l-111 -119h-86z" />
<glyph unicode="&#x162;" horiz-adv-x="452" d="M63 0zM79 700h428l-15 -95h-162l-96 -605h-104l95 605h-162zM107 -297l-20 39q24 12 45 33.5t26 48.5q-21 -2 -35 9.5t-14 36.5q1 29 17.5 49t46.5 20q25 0 37.5 -15t12.5 -42q0 -30 -9 -58.5t-24.5 -52.5t-37 -42t-45.5 -26z" />
<glyph unicode="&#x163;" horiz-adv-x="301" d="M39 0zM68 -297l-20 39q24 12 45 33.5t26 48.5q-21 -2 -35 9.5t-14 36.5q1 29 17.5 49t46.5 20q25 0 37.5 -15t12.5 -42q0 -30 -9 -58.5t-24.5 -52.5t-37 -42t-45.5 -26zM240 90l7 -81q-15 -11 -36 -16t-40 -5q-55 0 -88.5 26.5t-33.5 85.5q0 13 2 25.5t4 24.5l42 257h-58 l14 84h57l22 142h100l-22 -142h99l-13 -84h-99l-40 -251q-7 -36 2 -57.5t36 -21.5q11 0 23 3.5t22 9.5z" />
<glyph unicode="&#x164;" horiz-adv-x="452" d="M63 0zM79 700h428l-15 -95h-162l-96 -605h-104l95 605h-162zM264 782l-71 119v3h87l33 -64l61 64h87v-3l-111 -119h-86z" />
<glyph unicode="&#x165;" horiz-adv-x="302" d="M323 554h-64l36 195h82zM240 90l7 -81q-15 -11 -36 -16t-40 -5q-55 0 -88.5 26.5t-33.5 85.5q0 13 2 25.5t4 24.5l42 257h-58l14 84h57l22 142h100l-22 -142h99l-13 -84h-99l-40 -251q-7 -36 2 -57.5t36 -21.5q11 0 23 3.5t22 9.5z" />
<glyph unicode="&#x166;" horiz-adv-x="454" d="M66 385h125l35 220h-163l16 95h429l-15 -95h-162l-35 -220h125l-11 -77h-126l-49 -308h-104l48 308h-126z" />
<glyph unicode="&#x167;" horiz-adv-x="298" d="M246 90l7 -80q-14 -11 -37 -16.5t-46 -5.5q-51 0 -83.5 25.5t-32.5 88.5q0 9 1 20.5t3 22.5l18 113h-58l10 67h58l14 82h-58l12 84h59l23 142h99l-23 -142h103l-13 -84h-102l-14 -82h103l-11 -67h-102l-17 -105q-7 -43 5 -59.5t35 -16.5q24 0 47 13z" />
<glyph unicode="&#x168;" horiz-adv-x="568" d="M52 0zM399 233l74 467h104l-73 -463q-20 -125 -86.5 -187.5t-170.5 -62.5q-94 0 -144.5 47.5t-50.5 140.5q0 14 2 29.5t4 32.5l72 463h105l-74 -466q-2 -12 -3 -22.5t-1 -21.5q0 -52 24 -79.5t75 -27.5q57 0 94 36t49 114zM448 899h62q-2 -31 -11 -51.5t-22 -33 t-27.5 -18t-28.5 -5.5q-16 0 -28.5 6t-23.5 13.5t-21 13.5t-21 6q-13 0 -19 -11t-8 -25h-64q3 31 12.5 51.5t21.5 33t26.5 17.5t28.5 5q16 0 29.5 -6t24.5 -13.5t21 -13.5t20 -6q14 0 20 11t8 26z" />
<glyph unicode="&#x169;" horiz-adv-x="475" d="M38 0zM155 -12q-60 0 -88.5 36t-28.5 100q0 13 1 27t3 29l49 311h102l-47 -297q-2 -13 -2.5 -24t-0.5 -21q0 -73 57 -73q40 0 70.5 40.5t44.5 119.5l40 255h100l-78 -491h-84l6 86q-28 -52 -65 -75t-79 -23zM369 689h62q-2 -31 -11 -51.5t-22 -33t-27.5 -18t-28.5 -5.5 q-16 0 -28.5 6t-23.5 13.5t-21 13.5t-21 6q-13 0 -19 -11t-8 -25h-64q3 31 12.5 51.5t21.5 33t26.5 17.5t28.5 5q16 0 29.5 -6t24.5 -13.5t21 -13.5t20 -6q14 0 20 11t8 26z" />
<glyph unicode="&#x16a;" horiz-adv-x="568" d="M52 0zM399 233l74 467h104l-73 -463q-20 -125 -86.5 -187.5t-170.5 -62.5q-94 0 -144.5 47.5t-50.5 140.5q0 14 2 29.5t4 32.5l72 463h105l-74 -466q-2 -12 -3 -22.5t-1 -21.5q0 -52 24 -79.5t75 -27.5q57 0 94 36t49 114zM482 875l-10 -68h-206l10 68h206z" />
<glyph unicode="&#x16b;" horiz-adv-x="475" d="M38 0zM155 -12q-60 0 -88.5 36t-28.5 100q0 13 1 27t3 29l49 311h102l-47 -297q-2 -13 -2.5 -24t-0.5 -21q0 -73 57 -73q40 0 70.5 40.5t44.5 119.5l40 255h100l-78 -491h-84l6 86q-28 -52 -65 -75t-79 -23zM405 665l-10 -68h-206l10 68h206z" />
<glyph unicode="&#x16c;" horiz-adv-x="568" d="M52 0zM399 233l74 467h104l-73 -463q-20 -125 -86.5 -187.5t-170.5 -62.5q-94 0 -144.5 47.5t-50.5 140.5q0 14 2 29.5t4 32.5l72 463h105l-74 -466q-2 -12 -3 -22.5t-1 -21.5q0 -52 24 -79.5t75 -27.5q57 0 94 36t49 114zM439 904h64q-11 -73 -46.5 -100.5t-92.5 -27.5 q-28 0 -49.5 6.5t-34.5 21.5t-17.5 39.5t0.5 60.5h65q-6 -38 4.5 -51t38.5 -13q29 0 45.5 13t22.5 51z" />
<glyph unicode="&#x16d;" horiz-adv-x="475" d="M38 0zM155 -12q-60 0 -88.5 36t-28.5 100q0 13 1 27t3 29l49 311h102l-47 -297q-2 -13 -2.5 -24t-0.5 -21q0 -73 57 -73q40 0 70.5 40.5t44.5 119.5l40 255h100l-78 -491h-84l6 86q-28 -52 -65 -75t-79 -23zM360 694h64q-11 -73 -46.5 -100.5t-92.5 -27.5 q-28 0 -49.5 6.5t-34.5 21.5t-17.5 39.5t0.5 60.5h65q-6 -38 4.5 -51t38.5 -13q29 0 45.5 13t22.5 51z" />
<glyph unicode="&#x16e;" horiz-adv-x="568" d="M52 0zM399 233l74 467h104l-73 -463q-20 -125 -86.5 -187.5t-170.5 -62.5q-94 0 -144.5 47.5t-50.5 140.5q0 14 2 29.5t4 32.5l72 463h105l-74 -466q-2 -12 -3 -22.5t-1 -21.5q0 -52 24 -79.5t75 -27.5q57 0 94 36t49 114zM388 951q32 0 52.5 -20.5t20.5 -57.5 q0 -49 -28 -80.5t-71 -31.5q-33 0 -54 21t-21 59q0 22 7 42t20 35t32 24t42 9zM383 906q-24 0 -36.5 -18.5t-12.5 -41.5q0 -18 8.5 -29t24.5 -11q21 0 34 19t13 43q0 18 -8.5 28t-22.5 10z" />
<glyph unicode="&#x16f;" horiz-adv-x="475" d="M38 0zM310 741q32 0 52.5 -20.5t20.5 -57.5q0 -49 -28 -80.5t-71 -31.5q-33 0 -54 21t-21 59q0 22 7 42t20 35t32 24t42 9zM305 696q-24 0 -36.5 -18.5t-12.5 -41.5q0 -18 8.5 -29t24.5 -11q21 0 34 19t13 43q0 18 -8.5 28t-22.5 10zM155 -12q-60 0 -88.5 36t-28.5 100 q0 13 1 27t3 29l49 311h102l-47 -297q-2 -13 -2.5 -24t-0.5 -21q0 -73 57 -73q40 0 70.5 40.5t44.5 119.5l40 255h100l-78 -491h-84l6 86q-28 -52 -65 -75t-79 -23z" />
<glyph unicode="&#x170;" horiz-adv-x="568" d="M52 0zM399 233l74 467h104l-73 -463q-20 -125 -86.5 -187.5t-170.5 -62.5q-94 0 -144.5 47.5t-50.5 140.5q0 14 2 29.5t4 32.5l72 463h105l-74 -466q-2 -12 -3 -22.5t-1 -21.5q0 -52 24 -79.5t75 -27.5q57 0 94 36t49 114zM484 905h109l-1 -6l-116 -116h-71v4zM329 905 h108l-1 -6l-116 -116h-71v4z" />
<glyph unicode="&#x171;" horiz-adv-x="475" d="M38 0zM155 -12q-60 0 -88.5 36t-28.5 100q0 13 1 27t3 29l49 311h102l-47 -297q-2 -13 -2.5 -24t-0.5 -21q0 -73 57 -73q40 0 70.5 40.5t44.5 119.5l40 255h100l-78 -491h-84l6 86q-28 -52 -65 -75t-79 -23zM406 695h109l-1 -6l-116 -116h-71v4zM251 695h108l-1 -6 l-116 -116h-71v4z" />
<glyph unicode="&#x172;" horiz-adv-x="568" d="M285 -217q-19 0 -36 5t-29.5 16.5t-19.5 30.5t-6 48q0 32 9.5 58.5t25.5 46.5q-86 5 -131.5 52t-45.5 135q0 14 2 29.5t4 32.5l72 463h105l-74 -466q-2 -12 -3 -22.5t-1 -21.5q0 -52 24 -79.5t75 -27.5q57 0 94 36t49 114l74 467h104l-73 -463q-17 -105 -67 -166 t-129 -78q-24 -13 -37 -39t-14 -53q0 -27 12.5 -38t29.5 -11q27 0 46 17l23 -58q-20 -14 -40 -21t-43 -7z" />
<glyph unicode="&#x173;" horiz-adv-x="475" d="M395 -189q-20 -14 -40 -21t-44 -7q-41 0 -66 23t-25 73q0 48 21 84.5t53 56.5l5 66q-28 -52 -65 -75t-79 -23q-60 0 -88.5 36t-28.5 100q0 13 1 27t3 29l49 311h102l-47 -297q-2 -13 -2.5 -24t-0.5 -21q0 -73 57 -73q40 0 70.5 40.5t44.5 119.5l40 255h100l-78 -491h-12 q-20 -2 -34.5 -11.5t-25 -24t-15.5 -31.5t-5 -34q0 -26 12 -36.5t28 -10.5q27 0 46 17z" />
<glyph unicode="&#x174;" horiz-adv-x="707" d="M74 0zM107 0l-33 700h104l13 -530l177 528h107l12 -524l179 526h101l-255 -700h-110l-9 525l-173 -525h-113zM407 904h86l72 -119v-3h-86l-37 65l-57 -65h-88v3z" />
<glyph unicode="&#x175;" horiz-adv-x="581" d="M45 0zM309 695h86l72 -119v-3h-86l-37 65l-57 -65h-88v3zM276 487h100l12 -355l123 359h95l-189 -491h-102l-11 351l-120 -351h-103l-36 491h97l11 -359z" />
<glyph unicode="&#x176;" horiz-adv-x="486" d="M70 0zM188 273l-118 427h112l74 -321l178 321h114l-255 -427l-43 -273h-105zM291 905h86l72 -119v-3h-86l-37 65l-57 -65h-88v3z" />
<glyph unicode="&#x177;" horiz-adv-x="414" d="M0 0zM95 -57l19 48l-68 500h105l36 -370l151 370h103l-264 -583q-17 -38 -37 -62.5t-41.5 -38.5t-43.5 -19.5t-44 -5.5t-41 4t-36 14l34 82q23 -11 48 -11q26 0 44 15t35 57zM230 695h86l72 -119v-3h-86l-37 65l-57 -65h-88v3z" />
<glyph unicode="&#x178;" horiz-adv-x="486" d="M70 0zM188 273l-118 427h112l74 -321l178 321h114l-255 -427l-43 -273h-105zM188 837q0 33 16.5 53t48.5 20q50 0 50 -50q0 -34 -17.5 -53.5t-48.5 -19.5q-25 0 -37 13.5t-12 36.5zM345 837q0 33 16.5 53t48.5 20q50 0 50 -50q0 -34 -17 -53.5t-49 -19.5 q-26 0 -37.5 13.5t-11.5 36.5z" />
<glyph unicode="&#x179;" horiz-adv-x="449" d="M0 0zM-24 0l12 77l376 532l-278 -3l16 94h395l-12 -77l-376 -533l296 4l-15 -94h-414zM342 904h111l-1 -7l-109 -115h-82v4z" />
<glyph unicode="&#x17a;" horiz-adv-x="374" d="M0 0zM270 695h111l-1 -7l-109 -115h-82v4zM-14 0l12 73l259 333h-202l13 85h310l-11 -75l-258 -332h212l-14 -84h-321z" />
<glyph unicode="&#x17b;" horiz-adv-x="449" d="M0 0zM-24 0l12 77l376 532l-278 -3l16 94h395l-12 -77l-376 -533l296 4l-15 -94h-414zM258 837q0 33 17 52.5t49 19.5q26 0 38.5 -13.5t12.5 -37.5q0 -34 -17.5 -53t-49.5 -19q-26 0 -38 13.5t-12 37.5z" />
<glyph unicode="&#x17c;" horiz-adv-x="374" d="M0 0zM-14 0l12 73l259 333h-202l13 85h310l-11 -75l-258 -332h212l-14 -84h-321zM185 628q0 33 17 52.5t49 19.5q26 0 38.5 -13.5t12.5 -37.5q0 -34 -17.5 -53t-49.5 -19q-26 0 -38 13.5t-12 37.5z" />
<glyph unicode="&#x17d;" horiz-adv-x="449" d="M0 0zM-24 0l12 77l376 532l-278 -3l16 94h395l-12 -77l-376 -533l296 4l-15 -94h-414zM266 782l-71 119v3h87l33 -64l61 64h87v-3l-111 -119h-86z" />
<glyph unicode="&#x17e;" horiz-adv-x="374" d="M0 0zM194 573l-71 119v3h87l33 -64l61 64h87v-3l-111 -119h-86zM-14 0l12 73l259 333h-202l13 85h310l-11 -75l-258 -332h212l-14 -84h-321z" />
<glyph unicode="&#x192;" horiz-adv-x="312" d="M18 -33l71 327h-63l20 80h60l15 68q19 89 59 134t106 45q24 0 45.5 -6t35.5 -14l-35 -80q-15 13 -39 13t-45 -20.5t-32 -75.5l-12 -64h99l-19 -80h-98l-71 -334q-20 -94 -63.5 -135.5t-101.5 -41.5q-17 0 -36 3.5t-33 12.5l33 81q16 -10 37 -10q23 0 39 20.5t28 76.5z " />
<glyph unicode="&#x218;" horiz-adv-x="470" d="M0 0zM471 531l-92 -32q-7 68 -33.5 95.5t-69.5 27.5q-49 0 -75.5 -29.5t-25.5 -73.5q1 -32 18.5 -57t56.5 -46l37 -20q71 -38 102.5 -80.5t31.5 -106.5q0 -52 -16 -93.5t-45.5 -70t-71 -43.5t-91.5 -15q-81 0 -135 43t-68 138l93 36q8 -69 36 -99t77 -30q30 0 52.5 9.5 t36.5 25.5t21 36.5t7 43.5q0 35 -19.5 59.5t-59.5 46.5l-34 19q-66 37 -98 82t-32 108q0 44 14 82t40.5 66t65.5 44t89 16q78 0 130 -45t58 -137zM113 -300l-20 39q24 12 45 33.5t26 48.5q-21 -2 -35 9.5t-14 36.5q1 29 17.5 49t46.5 20q25 0 37.5 -15t12.5 -42 q0 -30 -9 -58.5t-24.5 -52.5t-37 -42t-45.5 -26z" />
<glyph unicode="&#x219;" horiz-adv-x="369" d="M0 0zM-5 119l82 33q15 -86 82 -86q36 0 54 18t18 46q0 21 -11 37t-40 30l-28 13q-48 20 -75 54.5t-27 88.5q0 33 11.5 61t33 48t52 31.5t69.5 11.5q121 0 148 -125l-82 -35q-6 35 -24 56.5t-49 21.5t-49 -16.5t-18 -43.5q0 -19 12 -34.5t41 -29.5l31 -14q42 -19 72 -52 t30 -89q0 -28 -10 -56t-31 -50.5t-53.5 -36.5t-77.5 -14q-37 0 -64.5 9.5t-47 27t-31.5 41.5t-18 54zM69 -297l-20 39q24 12 45 33.5t26 48.5q-21 -2 -35 9.5t-14 36.5q1 29 17.5 49t46.5 20q25 0 37.5 -15t12.5 -42q0 -30 -9 -58.5t-24.5 -52.5t-37 -42t-45.5 -26z" />
<glyph unicode="&#x237;" horiz-adv-x="219" d="M14 -37l83 528h101l-84 -538q-14 -88 -57.5 -129t-102.5 -41q-25 0 -43.5 4t-37.5 14l38 85q9 -5 17 -8t19 -3q25 0 41.5 18.5t25.5 69.5z" />
<glyph unicode="&#x2c6;" horiz-adv-x="456" d="M214 695h86l72 -119v-3h-86l-37 65l-57 -65h-88v3z" />
<glyph unicode="&#x2c7;" horiz-adv-x="456" d="M189 573l-71 119v3h87l33 -64l61 64h87v-3l-111 -119h-86z" />
<glyph unicode="&#x2d8;" horiz-adv-x="456" d="M313 694h64q-11 -73 -46.5 -100.5t-92.5 -27.5q-28 0 -49.5 6.5t-34.5 21.5t-17.5 39.5t0.5 60.5h65q-6 -38 4.5 -51t38.5 -13q29 0 45.5 13t22.5 51z" />
<glyph unicode="&#x2d9;" horiz-adv-x="456" d="M190 628q0 33 17 52.5t49 19.5q26 0 38.5 -13.5t12.5 -37.5q0 -34 -17.5 -53t-49.5 -19q-26 0 -38 13.5t-12 37.5z" />
<glyph unicode="&#x2da;" horiz-adv-x="456" d="M263 741q32 0 52.5 -20.5t20.5 -57.5q0 -49 -28 -80.5t-71 -31.5q-33 0 -54 21t-21 59q0 22 7 42t20 35t32 24t42 9zM258 696q-24 0 -36.5 -18.5t-12.5 -41.5q0 -18 8.5 -29t24.5 -11q21 0 34 19t13 43q0 18 -8.5 28t-22.5 10z" />
<glyph unicode="&#x2db;" horiz-adv-x="456" d="M295 -189q-20 -14 -40 -21t-44 -7q-41 0 -66 23t-25 73q0 36 12.5 66t32.5 51.5t46.5 33t54.5 10.5l-1 -40q-20 -2 -34.5 -11.5t-25 -24t-15.5 -31.5t-5 -34q0 -26 12 -36.5t28 -10.5q27 0 46 17z" />
<glyph unicode="&#x2dc;" horiz-adv-x="456" d="M326 689h62q-2 -31 -11 -51.5t-22 -33t-27.5 -18t-28.5 -5.5q-16 0 -28.5 6t-23.5 13.5t-21 13.5t-21 6q-13 0 -19 -11t-8 -25h-64q3 31 12.5 51.5t21.5 33t26.5 17.5t28.5 5q16 0 29.5 -6t24.5 -13.5t21 -13.5t20 -6q14 0 20 11t8 26z" />
<glyph unicode="&#x2dd;" horiz-adv-x="456" d="M354 695h109l-1 -6l-116 -116h-71v4zM199 695h108l-1 -6l-116 -116h-71v4z" />
<glyph unicode="&#x1e80;" horiz-adv-x="707" d="M74 0zM107 0l-33 700h104l13 -530l177 528h107l12 -524l179 526h101l-255 -700h-110l-9 525l-173 -525h-113zM400 782l-75 115l1 7h113l39 -118v-4h-78z" />
<glyph unicode="&#x1e81;" horiz-adv-x="581" d="M45 0zM276 487h100l12 -355l123 359h95l-189 -491h-102l-11 351l-120 -351h-103l-36 491h97l11 -359zM303 574l-75 115l1 7h113l39 -118v-4h-78z" />
<glyph unicode="&#x1e82;" horiz-adv-x="707" d="M74 0zM107 0l-33 700h104l13 -530l177 528h107l12 -524l179 526h101l-255 -700h-110l-9 525l-173 -525h-113zM468 904h111l-1 -7l-109 -115h-82v4z" />
<glyph unicode="&#x1e83;" horiz-adv-x="581" d="M45 0zM276 487h100l12 -355l123 359h95l-189 -491h-102l-11 351l-120 -351h-103l-36 491h97l11 -359zM372 695h111l-1 -7l-109 -115h-82v4z" />
<glyph unicode="&#x1e84;" horiz-adv-x="707" d="M74 0zM107 0l-33 700h104l13 -530l177 528h107l12 -524l179 526h101l-255 -700h-110l-9 525l-173 -525h-113zM304 836q0 33 16.5 53t48.5 20q50 0 50 -50q0 -34 -17.5 -53.5t-48.5 -19.5q-25 0 -37 13.5t-12 36.5zM461 836q0 33 16.5 53t48.5 20q50 0 50 -50 q0 -34 -17 -53.5t-49 -19.5q-26 0 -37.5 13.5t-11.5 36.5z" />
<glyph unicode="&#x1e85;" horiz-adv-x="581" d="M45 0zM276 487h100l12 -355l123 359h95l-189 -491h-102l-11 351l-120 -351h-103l-36 491h97l11 -359zM213 627q0 33 16.5 53t48.5 20q50 0 50 -50q0 -34 -17.5 -53.5t-48.5 -19.5q-25 0 -37 13.5t-12 36.5zM370 627q0 33 16.5 53t48.5 20q50 0 50 -50q0 -34 -17 -53.5 t-49 -19.5q-26 0 -37.5 13.5t-11.5 36.5z" />
<glyph unicode="&#x2000;" horiz-adv-x="475" />
<glyph unicode="&#x2001;" horiz-adv-x="951" />
<glyph unicode="&#x2002;" horiz-adv-x="377" />
<glyph unicode="&#x2003;" horiz-adv-x="754" />
<glyph unicode="&#x2004;" horiz-adv-x="251" />
<glyph unicode="&#x2005;" horiz-adv-x="189" />
<glyph unicode="&#x2006;" horiz-adv-x="126" />
<glyph unicode="&#x2007;" horiz-adv-x="471" />
<glyph unicode="&#x2008;" horiz-adv-x="183" />
<glyph unicode="&#x2009;" horiz-adv-x="151" />
<glyph unicode="&#x200a;" horiz-adv-x="75" />
<glyph unicode="&#x200b;" horiz-adv-x="0" />
<glyph unicode="&#x2010;" horiz-adv-x="347" d="M315 302l-13 -88h-270l14 88h269z" />
<glyph unicode="&#x2011;" horiz-adv-x="347" d="M315 302l-13 -88h-270l14 88h269z" />
<glyph unicode="&#x2012;" horiz-adv-x="439" d="M409 302l-14 -88h-363l14 88h363z" />
<glyph unicode="&#x2013;" horiz-adv-x="439" d="M409 302l-14 -88h-363l14 88h363z" />
<glyph unicode="&#x2014;" horiz-adv-x="587" d="M557 302l-14 -88h-511l14 88h511z" />
<glyph unicode="&#x2015;" horiz-adv-x="806" d="M777 302l-14 -88h-730l14 88h730z" />
<glyph unicode="&#x2018;" horiz-adv-x="184" d="M189 741l18 -44q-29 -15 -49.5 -38t-26.5 -49q26 -1 37 -14t11 -36q0 -32 -16.5 -53.5t-50.5 -21.5q-51 0 -51 57q0 28 8 58t24 57t40 49.5t56 34.5z" />
<glyph unicode="&#x2019;" horiz-adv-x="184" d="M82 472l-18 44q29 15 49.5 38t26.5 49q-26 1 -37 14t-11 36q0 32 16.5 53.5t50.5 21.5q51 0 51 -57q0 -28 -8 -58t-24 -57t-40 -49.5t-56 -34.5z" />
<glyph unicode="&#x201a;" horiz-adv-x="184" d="M-3 -133l-18 44q29 14 49 36.5t27 48.5q-26 1 -37 14t-11 36q0 30 16.5 51.5t49.5 21.5q24 0 37.5 -13.5t13.5 -42.5q0 -27 -8 -56.5t-24 -56.5t-40 -49t-55 -34z" />
<glyph unicode="&#x201c;" horiz-adv-x="334" d="M197 742l18 -44q-29 -15 -49.5 -38t-26.5 -49q26 -1 37 -14t11 -36q0 -32 -16.5 -53.5t-50.5 -21.5q-51 0 -51 57q0 28 8 58t24 57t40 49.5t56 34.5zM348 742l18 -44q-29 -15 -49.5 -38t-26.5 -49q26 -1 37 -14t11 -36q0 -32 -16.5 -53.5t-50.5 -21.5q-51 0 -51 57 q0 28 8 58t24 57t40 49.5t56 34.5z" />
<glyph unicode="&#x201d;" horiz-adv-x="334" d="M84 470l-18 44q29 15 49.5 38t26.5 49q-26 1 -37 14t-11 36q0 32 16.5 53.5t50.5 21.5q51 0 51 -57q0 -28 -8 -58t-24 -57t-40 -49.5t-56 -34.5zM236 470l-18 44q29 15 49.5 38t26.5 49q-26 1 -37 14t-11 36q0 32 16.5 53.5t50.5 21.5q51 0 51 -57q0 -28 -8 -58t-24 -57 t-40 -49.5t-56 -34.5z" />
<glyph unicode="&#x201e;" horiz-adv-x="333" d="M-3 -134l-18 44q29 14 49 36.5t27 48.5q-26 1 -37 14t-11 36q0 30 16.5 51.5t49.5 21.5q24 0 37.5 -13.5t13.5 -42.5q0 -27 -8 -56.5t-24 -56.5t-40 -49t-55 -34zM148 -134l-18 44q29 14 49 36.5t27 48.5q-26 1 -37 14t-11 36q0 30 16.5 51.5t49.5 21.5q24 0 37.5 -13.5 t13.5 -42.5q0 -27 -8 -56.5t-24 -56.5t-40 -49t-55 -34z" />
<glyph unicode="&#x2020;" horiz-adv-x="240" d="M221 519h-49l-37 -230h-79l37 230h-49l13 73h47l17 118h84l-20 -118h47z" />
<glyph unicode="&#x2021;" horiz-adv-x="240" d="M38 473h48l9 60h-48l12 73h47l15 104h84l-19 -104h49l-12 -73h-48l-10 -60h49l-12 -74h-48l-16 -110h-84l19 110h-47z" />
<glyph unicode="&#x2022;" horiz-adv-x="322" d="M300 346q0 -33 -10.5 -61.5t-29 -49t-45 -32.5t-58.5 -12q-54 0 -82 32.5t-28 85.5q0 33 10 61t29 49t45 32.5t58 11.5q54 0 82.5 -32.5t28.5 -84.5z" />
<glyph unicode="&#x2026;" horiz-adv-x="557" d="M496 71q0 -35 -17.5 -56t-51.5 -21q-26 0 -38.5 14.5t-12.5 37.5q0 33 16.5 55t51.5 22q52 0 52 -52zM312 71q0 -35 -18 -56t-51 -21q-26 0 -39 14.5t-13 37.5q0 33 16.5 55t51.5 22q53 0 53 -52zM128 71q0 -35 -18 -56t-51 -21q-26 0 -39 14.5t-13 37.5q0 33 16.5 55 t51.5 22q53 0 53 -52z" />
<glyph unicode="&#x202f;" horiz-adv-x="190" />
<glyph unicode="&#x2030;" horiz-adv-x="1120" d="M64 0zM660 419q57 0 84.5 -33t27.5 -102q0 -18 -2 -37t-5 -42q-17 -111 -56.5 -162t-109.5 -51q-58 0 -85 33t-27 102q0 34 6 78q16 111 56 162.5t111 51.5zM654 354q-30 0 -50.5 -32.5t-33.5 -115.5q-4 -25 -6 -44.5t-2 -34.5q0 -39 11.5 -55t33.5 -16q14 0 26 7.5 t22.5 24.5t18.5 46t15 71q4 24 6 43.5t2 35.5q0 38 -11 54t-32 16zM237 712q57 0 84.5 -33t27.5 -102q0 -18 -2 -37t-5 -42q-17 -111 -56.5 -162t-109.5 -51q-58 0 -85 33t-27 102q0 34 6 78q16 111 56 162.5t111 51.5zM231 647q-30 0 -50.5 -32.5t-33.5 -115.5 q-4 -25 -6 -44.5t-2 -34.5q0 -39 11.5 -55t33.5 -16q14 0 26 7.5t22.5 24.5t18.5 46t15 71q4 24 6 43.5t2 35.5q0 38 -11 54t-32 16zM986 419q57 0 84.5 -33t27.5 -102q0 -18 -2 -37t-5 -42q-17 -111 -56.5 -162t-109.5 -51q-58 0 -85 33t-27 102q0 34 6 78q16 111 56 162.5 t111 51.5zM980 354q-30 0 -50.5 -32.5t-33.5 -115.5q-4 -25 -6 -44.5t-2 -34.5q0 -39 11.5 -55t33.5 -16q14 0 26 7.5t22.5 24.5t18.5 46t15 71q4 24 6 43.5t2 35.5q0 38 -11 54t-32 16zM648 700l-372 -700h-89l371 700h90z" />
<glyph unicode="&#x2039;" horiz-adv-x="325" d="M142 0l-105 242l1 3l181 246h105l-185 -249l106 -242h-103z" />
<glyph unicode="&#x203a;" horiz-adv-x="325" d="M179 490l105 -242l-1 -3l-181 -246h-105l185 249l-106 242h103z" />
<glyph unicode="&#x2044;" horiz-adv-x="405" d="M450 700l-372 -700h-89l371 700h90z" />
<glyph unicode="&#x205f;" horiz-adv-x="237" />
<glyph unicode="&#x2070;" horiz-adv-x="335" d="M63 286zM236 713q57 0 84.5 -33t27.5 -102q0 -18 -2 -37t-5 -42q-17 -111 -56.5 -162t-109.5 -51q-58 0 -85 33t-27 102q0 34 6 78q16 111 56 162.5t111 51.5zM230 648q-30 0 -50.5 -32.5t-33.5 -115.5q-4 -25 -6 -44.5t-2 -34.5q0 -39 11.5 -55t33.5 -16q14 0 26 7.5 t22.5 24.5t18.5 46t15 71q4 24 6 43.5t2 35.5q0 38 -11 54t-32 16z" />
<glyph unicode="&#x2074;" horiz-adv-x="317" d="M42 294zM42 388l9 56l133 261h74l-128 -248h91l23 146h73l-24 -146h40l-12 -69h-39l-14 -94h-73l15 94h-168z" />
<glyph unicode="&#x2075;" horiz-adv-x="288" d="M32 286zM168 639l-22 -99q12 8 28 13.5t35 5.5q38 0 63 -24t25 -78q0 -39 -11 -70.5t-31 -54t-48.5 -34.5t-63.5 -12q-45 0 -74 21.5t-37 66.5l62 29q5 -29 19.5 -41.5t35.5 -12.5q35 0 53 28t18 69q0 26 -11.5 39t-31.5 13q-17 0 -32.5 -7.5t-27.5 -21.5l-49 24l49 212 h208l-11 -66h-146z" />
<glyph unicode="&#x2076;" horiz-adv-x="317" d="M62 286zM346 636l-60 -31q-9 45 -47 45q-43 0 -63.5 -40t-31.5 -112q-1 -3 -1 -5q-1 -1 -1 -3v-2q14 29 36 46.5t54 17.5q38 0 60.5 -25.5t22.5 -75.5q0 -33 -8.5 -63t-26 -52.5t-43.5 -36t-60 -13.5q-55 0 -85 33t-30 107q0 32 6 70q32 217 172 217q89 0 106 -77z M200 493q-26 0 -43 -25.5t-17 -63.5q0 -26 10 -41t31 -15q30 0 44.5 27t14.5 62q0 56 -40 56z" />
<glyph unicode="&#x2077;" horiz-adv-x="256" d="M74 294zM74 294q9 56 25 107.5t37 95.5t45.5 79.5t50.5 60.5l-156 -2l11 70h234l-11 -61q-58 -55 -95 -140.5t-56 -209.5h-85z" />
<glyph unicode="&#x2078;" horiz-adv-x="309" d="M53 286zM305 428q0 -61 -36.5 -101.5t-105.5 -40.5q-54 0 -82 27.5t-28 72.5q0 46 21 78.5t55 46.5q-32 24 -32 74q0 25 8 48.5t24.5 41t41 28t57.5 10.5q47 0 72 -24t25 -67q0 -38 -16.5 -67t-44.5 -46q20 -11 30.5 -32t10.5 -49zM257 605q0 20 -9.5 33.5t-29.5 13.5 q-25 0 -39.5 -20.5t-14.5 -47.5q0 -18 9 -31.5t29 -13.5q22 0 38.5 18.5t16.5 47.5zM233 421q0 22 -11.5 37t-32.5 15q-27 0 -44 -22t-17 -54q0 -23 10.5 -37.5t33.5 -14.5q25 0 43 22t18 54z" />
<glyph unicode="&#x2079;" horiz-adv-x="315" d="M43 286zM188 502q28 0 45.5 27t17.5 64q0 26 -10.5 41.5t-29.5 15.5q-28 0 -44 -26t-16 -67q0 -26 9 -40.5t28 -14.5zM153 286q-44 0 -72 16t-38 53l57 37q13 -45 51 -45q23 0 39 11t27 30.5t18 47.5t13 63v5q0 2 0.5 3t0.5 2q-14 -32 -36 -49.5t-54 -17.5 q-38 0 -60 26.5t-22 76.5q0 33 8 63.5t25.5 54t44 37t62.5 13.5q54 0 83.5 -33.5t29.5 -105.5q0 -19 -2 -39t-6 -41q-35 -208 -169 -208z" />
<glyph unicode="&#x207a;" horiz-adv-x="240" d="M56 356zM165 356h-58l14 92h-65l8 57h66l15 93h59l-15 -93h65l-9 -57h-65z" />
<glyph unicode="&#x207b;" horiz-adv-x="240" d="M55 447zM254 507l-10 -60h-189l10 60h189z" />
<glyph unicode="&#x207c;" horiz-adv-x="240" d="M49 400zM261 553l-9 -62h-189l9 62h189zM247 461l-9 -61h-189l9 61h189z" />
<glyph unicode="&#x207d;" horiz-adv-x="171" d="M44 228zM162 289l-25 -61q-47 12 -70 51t-23 110q0 21 1.5 45t6.5 50q19 116 59 174t102 62l7 -64q-20 -3 -36 -13.5t-28.5 -31t-23 -52.5t-17.5 -80q-4 -25 -5.5 -46t-1.5 -38q0 -49 14 -72.5t40 -33.5z" />
<glyph unicode="&#x207e;" horiz-adv-x="171" d="M21 228zM79 659l25 61q47 -12 69.5 -51t22.5 -110q0 -21 -1.5 -45t-6.5 -50q-37 -229 -160 -236l-7 64q19 3 35.5 13.5t29 31t22.5 52.5t18 80q4 25 5.5 46t1.5 38q0 49 -14 72.5t-40 33.5z" />
<glyph unicode="&#x2080;" horiz-adv-x="319" d="M184 419q57 0 84.5 -33t27.5 -102q0 -18 -2 -37t-5 -42q-17 -111 -56.5 -162t-109.5 -51q-58 0 -85 33t-27 102q0 34 6 78q16 111 56 162.5t111 51.5zM178 354q-30 0 -50.5 -32.5t-33.5 -115.5q-4 -25 -6 -44.5t-2 -34.5q0 -39 11.5 -55t33.5 -16q14 0 26 7.5t22.5 24.5 t18.5 46t15 71q4 24 6 43.5t2 35.5q0 38 -11 54t-32 16z" />
<glyph unicode="&#x2081;" horiz-adv-x="186" d="M103 0h-77l50 313l-41 -29l-19 63l102 67h51z" />
<glyph unicode="&#x2082;" horiz-adv-x="269" d="M-19 0l9 56l135 158q29 32 41 55.5t12 45.5q0 17 -9.5 26.5t-27.5 9.5q-20 0 -36.5 -11.5t-33.5 -40.5l-54 26q24 51 60.5 72.5t81.5 21.5q48 0 73.5 -24t25.5 -66q0 -18 -4.5 -35t-15 -35t-26.5 -39t-39 -48l-89 -106l142 3l-11 -69h-234z" />
<glyph unicode="&#x2083;" horiz-adv-x="279" d="M-18 84l62 27q9 -56 55 -56q32 0 48 22t16 55q0 47 -45 47h-29l9 62h29q26 0 42 21t16 49q0 43 -42 43q-20 0 -36.5 -11t-27.5 -37l-54 27q37 86 137 86q51 0 76 -24t25 -66q0 -33 -17 -65t-50 -51q41 -22 41 -78q0 -30 -10 -56.5t-28.5 -45.5t-45 -30t-60.5 -11 q-41 0 -72 22t-39 70z" />
<glyph unicode="&#x2084;" horiz-adv-x="309" d="M-10 94l9 56l133 261h74l-128 -248h91l23 146h73l-24 -146h40l-12 -69h-39l-14 -94h-73l15 94h-168z" />
<glyph unicode="&#x2085;" horiz-adv-x="288" d="M117 345l-22 -99q12 8 28 13.5t35 5.5q38 0 63 -24t25 -78q0 -39 -11 -70.5t-31 -54t-48.5 -34.5t-63.5 -12q-45 0 -74 21.5t-37 66.5l62 29q5 -29 19.5 -41.5t35.5 -12.5q35 0 53 28t18 69q0 26 -11.5 39t-31.5 13q-17 0 -32.5 -7.5t-27.5 -21.5l-49 24l49 212h208 l-11 -66h-146z" />
<glyph unicode="&#x2086;" horiz-adv-x="302" d="M295 342l-60 -31q-9 45 -47 45q-43 0 -63.5 -40t-31.5 -112q-1 -3 -1 -5q-1 -1 -1 -3v-2q14 29 36 46.5t54 17.5q38 0 60.5 -25.5t22.5 -75.5q0 -33 -8.5 -63t-26 -52.5t-43.5 -36t-60 -13.5q-55 0 -85 33t-30 107q0 32 6 70q32 217 172 217q89 0 106 -77zM149 199 q-26 0 -43 -25.5t-17 -63.5q0 -26 10 -41t31 -15q30 0 44.5 27t14.5 62q0 56 -40 56z" />
<glyph unicode="&#x2087;" horiz-adv-x="251" d="M23 0q9 56 25 107.5t37 95.5t45.5 79.5t50.5 60.5l-156 -2l11 70h234l-11 -61q-58 -55 -95 -140.5t-56 -209.5h-85z" />
<glyph unicode="&#x2088;" horiz-adv-x="300" d="M254 134q0 -61 -36.5 -101.5t-105.5 -40.5q-54 0 -82 27.5t-28 72.5q0 46 21 78.5t55 46.5q-32 24 -32 74q0 25 8 48.5t24.5 41t41 28t57.5 10.5q47 0 72 -24t25 -67q0 -38 -16.5 -67t-44.5 -46q20 -11 30.5 -32t10.5 -49zM206 311q0 20 -9.5 33.5t-29.5 13.5 q-25 0 -39.5 -20.5t-14.5 -47.5q0 -18 9 -31.5t29 -13.5q22 0 38.5 18.5t16.5 47.5zM182 127q0 22 -11.5 37t-32.5 15q-27 0 -44 -22t-17 -54q0 -23 10.5 -37.5t33.5 -14.5q25 0 43 22t18 54z" />
<glyph unicode="&#x2089;" horiz-adv-x="301" d="M137 208q28 0 45.5 27t17.5 64q0 26 -10.5 41.5t-29.5 15.5q-28 0 -44 -26t-16 -67q0 -26 9 -40.5t28 -14.5zM102 -8q-44 0 -72 16t-38 53l57 37q13 -45 51 -45q23 0 39 11t27 30.5t18 47.5t13 63v5q0 2 0.5 3t0.5 2q-14 -32 -36 -49.5t-54 -17.5q-38 0 -60 26.5 t-22 76.5q0 33 8 63.5t25.5 54t44 37t62.5 13.5q54 0 83.5 -33.5t29.5 -105.5q0 -19 -2 -39t-6 -41q-35 -208 -169 -208z" />
<glyph unicode="&#x208a;" horiz-adv-x="240" d="M118 60h-58l14 92h-65l8 57h66l15 93h59l-15 -93h65l-9 -57h-65z" />
<glyph unicode="&#x208b;" horiz-adv-x="240" d="M207 211l-10 -60h-189l10 60h189z" />
<glyph unicode="&#x208c;" horiz-adv-x="240" d="M214 257l-9 -62h-189l9 62h189zM200 165l-9 -61h-189l9 61h189z" />
<glyph unicode="&#x208d;" horiz-adv-x="165" d="M115 -7l-25 -61q-47 12 -70 51t-23 110q0 21 1.5 45t6.5 50q19 116 59 174t102 62l7 -64q-20 -3 -36 -13.5t-28.5 -31t-23 -52.5t-17.5 -80q-4 -25 -5.5 -46t-1.5 -38q0 -49 14 -72.5t40 -33.5z" />
<glyph unicode="&#x208e;" horiz-adv-x="165" d="M32 363l25 61q47 -12 69.5 -51t22.5 -110q0 -21 -1.5 -45t-6.5 -50q-37 -229 -160 -236l-7 64q19 3 35.5 13.5t29 31t22.5 52.5t18 80q4 25 5.5 46t1.5 38q0 49 -14 72.5t-40 33.5z" />
<glyph unicode="&#x20ac;" horiz-adv-x="532" d="M501 151q-18 -46 -42.5 -77t-54.5 -50.5t-65 -28t-74 -8.5q-103 0 -150 60t-44 192h-64l10 72h58q2 12 4 26t4 26h-57l11 71h58q34 145 104.5 212t170.5 67q81 0 127.5 -42.5t54.5 -141.5l-98 -27q-5 68 -30.5 94t-68.5 26q-25 0 -47.5 -9.5t-42.5 -31.5t-36.5 -58 t-29.5 -89h198l-24 -71h-188q-3 -15 -5 -28t-3 -24h177l-26 -72h-155q-2 -90 24 -127t78 -37q44 0 81 26.5t60 92.5z" />
<glyph unicode="&#x2122;" d="M84 700h197l-9 -56h-67l-38 -238h-58l38 238h-73zM261 406l46 294h64l34 -222l101 222h64l-47 -294h-54l31 180l-84 -180h-47l-27 178l-26 -178h-55z" />
<glyph unicode="&#x2153;" horiz-adv-x="658" d="M70 0zM157 293h-77l50 313l-41 -29l-19 63l102 67h51zM535 700l-372 -700h-89l371 700h90zM361 84l62 27q9 -56 55 -56q32 0 48 22t16 55q0 47 -45 47h-29l9 62h29q26 0 42 21t16 49q0 43 -42 43q-20 0 -36.5 -11t-27.5 -37l-54 27q37 86 137 86q51 0 76 -24t25 -66 q0 -33 -17 -65t-50 -51q41 -22 41 -78q0 -30 -10 -56.5t-28.5 -45.5t-45 -30t-60.5 -11q-41 0 -72 22t-39 70z" />
<glyph unicode="&#x2154;" horiz-adv-x="752" d="M28 0zM455 84l62 27q9 -56 55 -56q32 0 48 22t16 55q0 47 -45 47h-29l9 62h29q26 0 42 21t16 49q0 43 -42 43q-20 0 -36.5 -11t-27.5 -37l-54 27q37 86 137 86q51 0 76 -24t25 -66q0 -33 -17 -65t-50 -51q41 -22 41 -78q0 -30 -10 -56.5t-28.5 -45.5t-45 -30t-60.5 -11 q-41 0 -72 22t-39 70zM28 293l9 56l135 158q29 32 41 55.5t12 45.5q0 17 -9.5 26.5t-27.5 9.5q-20 0 -36.5 -11.5t-33.5 -40.5l-54 26q24 51 60.5 72.5t81.5 21.5q48 0 73.5 -24t25.5 -66q0 -18 -4.5 -35t-15 -35t-26.5 -39t-39 -48l-89 -106l142 3l-11 -69h-234zM627 700 l-372 -700h-89l371 700h90z" />
<glyph unicode="&#x2155;" horiz-adv-x="670" d="M69 0zM156 293h-77l50 313l-41 -29l-19 63l102 67h51zM499 345l-22 -99q12 8 28 13.5t35 5.5q38 0 63 -24t25 -78q0 -39 -11 -70.5t-31 -54t-48.5 -34.5t-63.5 -12q-45 0 -74 21.5t-37 66.5l62 29q5 -29 19.5 -41.5t35.5 -12.5q35 0 53 28t18 69q0 26 -11.5 39t-31.5 13 q-17 0 -32.5 -7.5t-27.5 -21.5l-49 24l49 212h208l-11 -66h-146zM535 700l-372 -700h-89l371 700h90z" />
<glyph unicode="&#x2156;" horiz-adv-x="760" d="M31 0zM31 293l9 56l135 158q29 32 41 55.5t12 45.5q0 17 -9.5 26.5t-27.5 9.5q-20 0 -36.5 -11.5t-33.5 -40.5l-54 26q24 51 60.5 72.5t81.5 21.5q48 0 73.5 -24t25.5 -66q0 -18 -4.5 -35t-15 -35t-26.5 -39t-39 -48l-89 -106l142 3l-11 -69h-234zM589 345l-22 -99 q12 8 28 13.5t35 5.5q38 0 63 -24t25 -78q0 -39 -11 -70.5t-31 -54t-48.5 -34.5t-63.5 -12q-45 0 -74 21.5t-37 66.5l62 29q5 -29 19.5 -41.5t35.5 -12.5q35 0 53 28t18 69q0 26 -11.5 39t-31.5 13q-17 0 -32.5 -7.5t-27.5 -21.5l-49 24l49 212h208l-11 -66h-146zM627 700 l-372 -700h-89l371 700h90z" />
<glyph unicode="&#x2157;" horiz-adv-x="750" d="M33 0zM33 377l62 27q9 -56 55 -56q32 0 48 22t16 55q0 47 -45 47h-29l9 62h29q26 0 42 21t16 49q0 43 -42 43q-20 0 -36.5 -11t-27.5 -37l-54 27q37 86 137 86q51 0 76 -24t25 -66q0 -33 -17 -65t-50 -51q41 -22 41 -78q0 -30 -10 -56.5t-28.5 -45.5t-45 -30t-60.5 -11 q-41 0 -72 22t-39 70zM580 345l-22 -99q12 8 28 13.5t35 5.5q38 0 63 -24t25 -78q0 -39 -11 -70.5t-31 -54t-48.5 -34.5t-63.5 -12q-45 0 -74 21.5t-37 66.5l62 29q5 -29 19.5 -41.5t35.5 -12.5q35 0 53 28t18 69q0 26 -11.5 39t-31.5 13q-17 0 -32.5 -7.5t-27.5 -21.5 l-49 24l49 212h208l-11 -66h-146zM617 700l-372 -700h-89l371 700h90z" />
<glyph unicode="&#x2158;" horiz-adv-x="780" d="M42 0zM609 345l-22 -99q12 8 28 13.5t35 5.5q38 0 63 -24t25 -78q0 -39 -11 -70.5t-31 -54t-48.5 -34.5t-63.5 -12q-45 0 -74 21.5t-37 66.5l62 29q5 -29 19.5 -41.5t35.5 -12.5q35 0 53 28t18 69q0 26 -11.5 39t-31.5 13q-17 0 -32.5 -7.5t-27.5 -21.5l-49 24l49 212 h208l-11 -66h-146zM645 700l-372 -700h-89l371 700h90zM42 388l9 56l133 261h74l-128 -248h91l23 146h73l-24 -146h40l-12 -69h-39l-14 -94h-73l15 94h-168z" />
<glyph unicode="&#x2159;" horiz-adv-x="677" d="M68 0zM155 293h-77l50 313l-41 -29l-19 63l102 67h51zM669 342l-60 -31q-9 45 -47 45q-43 0 -63.5 -40t-31.5 -112q-1 -3 -1 -5q-1 -1 -1 -3v-2q14 29 36 46.5t54 17.5q38 0 60.5 -25.5t22.5 -75.5q0 -33 -8.5 -63t-26 -52.5t-43.5 -36t-60 -13.5q-55 0 -85 33t-30 107 q0 32 6 70q32 217 172 217q89 0 106 -77zM523 199q-26 0 -43 -25.5t-17 -63.5q0 -26 10 -41t31 -15q30 0 44.5 27t14.5 62q0 56 -40 56zM535 700l-372 -700h-89l371 700h90z" />
<glyph unicode="&#x215a;" horiz-adv-x="758" d="M32 0zM168 638l-22 -99q12 8 28 13.5t35 5.5q38 0 63 -24t25 -78q0 -39 -11 -70.5t-31 -54t-48.5 -34.5t-63.5 -12q-45 0 -74 21.5t-37 66.5l62 29q5 -29 19.5 -41.5t35.5 -12.5q35 0 53 28t18 69q0 26 -11.5 39t-31.5 13q-17 0 -32.5 -7.5t-27.5 -21.5l-49 24l49 212 h208l-11 -66h-146zM749 342l-60 -31q-9 45 -47 45q-43 0 -63.5 -40t-31.5 -112q-1 -3 -1 -5q-1 -1 -1 -3v-2q14 29 36 46.5t54 17.5q38 0 60.5 -25.5t22.5 -75.5q0 -33 -8.5 -63t-26 -52.5t-43.5 -36t-60 -13.5q-55 0 -85 33t-30 107q0 32 6 70q32 217 172 217q89 0 106 -77 zM603 199q-26 0 -43 -25.5t-17 -63.5q0 -26 10 -41t31 -15q30 0 44.5 27t14.5 62q0 56 -40 56zM617 700l-372 -700h-89l371 700h90z" />
<glyph unicode="&#x215b;" horiz-adv-x="676" d="M70 0zM157 293h-77l50 313l-41 -29l-19 63l102 67h51zM535 700l-372 -700h-89l371 700h90zM629 134q0 -61 -36.5 -101.5t-105.5 -40.5q-54 0 -82 27.5t-28 72.5q0 46 21 78.5t55 46.5q-32 24 -32 74q0 25 8 48.5t24.5 41t41 28t57.5 10.5q47 0 72 -24t25 -67 q0 -38 -16.5 -67t-44.5 -46q20 -11 30.5 -32t10.5 -49zM581 311q0 20 -9.5 33.5t-29.5 13.5q-25 0 -39.5 -20.5t-14.5 -47.5q0 -18 9 -31.5t29 -13.5q22 0 38.5 18.5t16.5 47.5zM557 127q0 22 -11.5 37t-32.5 15q-27 0 -44 -22t-17 -54q0 -23 10.5 -37.5t33.5 -14.5 q25 0 43 22t18 54z" />
<glyph unicode="&#x215c;" horiz-adv-x="755" d="M33 0zM33 377l62 27q9 -56 55 -56q32 0 48 22t16 55q0 47 -45 47h-29l9 62h29q26 0 42 21t16 49q0 43 -42 43q-20 0 -36.5 -11t-27.5 -37l-54 27q37 86 137 86q51 0 76 -24t25 -66q0 -33 -17 -65t-50 -51q41 -22 41 -78q0 -30 -10 -56.5t-28.5 -45.5t-45 -30t-60.5 -11 q-41 0 -72 22t-39 70zM708 134q0 -61 -36.5 -101.5t-105.5 -40.5q-54 0 -82 27.5t-28 72.5q0 46 21 78.5t55 46.5q-32 24 -32 74q0 25 8 48.5t24.5 41t41 28t57.5 10.5q47 0 72 -24t25 -67q0 -38 -16.5 -67t-44.5 -46q20 -11 30.5 -32t10.5 -49zM660 311q0 20 -9.5 33.5 t-29.5 13.5q-25 0 -39.5 -20.5t-14.5 -47.5q0 -18 9 -31.5t29 -13.5q22 0 38.5 18.5t16.5 47.5zM636 127q0 22 -11.5 37t-32.5 15q-27 0 -44 -22t-17 -54q0 -23 10.5 -37.5t33.5 -14.5q25 0 43 22t18 54zM617 700l-372 -700h-89l371 700h90z" />
<glyph unicode="&#x215d;" horiz-adv-x="757" d="M32 0zM710 134q0 -61 -36.5 -101.5t-105.5 -40.5q-54 0 -82 27.5t-28 72.5q0 46 21 78.5t55 46.5q-32 24 -32 74q0 25 8 48.5t24.5 41t41 28t57.5 10.5q47 0 72 -24t25 -67q0 -38 -16.5 -67t-44.5 -46q20 -11 30.5 -32t10.5 -49zM662 311q0 20 -9.5 33.5t-29.5 13.5 q-25 0 -39.5 -20.5t-14.5 -47.5q0 -18 9 -31.5t29 -13.5q22 0 38.5 18.5t16.5 47.5zM638 127q0 22 -11.5 37t-32.5 15q-27 0 -44 -22t-17 -54q0 -23 10.5 -37.5t33.5 -14.5q25 0 43 22t18 54zM168 638l-22 -99q12 8 28 13.5t35 5.5q38 0 63 -24t25 -78q0 -39 -11 -70.5 t-31 -54t-48.5 -34.5t-63.5 -12q-45 0 -74 21.5t-37 66.5l62 29q5 -29 19.5 -41.5t35.5 -12.5q35 0 53 28t18 69q0 26 -11.5 39t-31.5 13q-17 0 -32.5 -7.5t-27.5 -21.5l-49 24l49 212h208l-11 -66h-146zM618 700l-372 -700h-89l371 700h90z" />
<glyph unicode="&#x215e;" horiz-adv-x="702" d="M74 0zM655 134q0 -61 -36.5 -101.5t-105.5 -40.5q-54 0 -82 27.5t-28 72.5q0 46 21 78.5t55 46.5q-32 24 -32 74q0 25 8 48.5t24.5 41t41 28t57.5 10.5q47 0 72 -24t25 -67q0 -38 -16.5 -67t-44.5 -46q20 -11 30.5 -32t10.5 -49zM607 311q0 20 -9.5 33.5t-29.5 13.5 q-25 0 -39.5 -20.5t-14.5 -47.5q0 -18 9 -31.5t29 -13.5q22 0 38.5 18.5t16.5 47.5zM583 127q0 22 -11.5 37t-32.5 15q-27 0 -44 -22t-17 -54q0 -23 10.5 -37.5t33.5 -14.5q25 0 43 22t18 54zM74 293q9 56 25 107.5t37 95.5t45.5 79.5t50.5 60.5l-156 -2l11 70h234l-11 -61 q-58 -55 -95 -140.5t-56 -209.5h-85zM563 700l-372 -700h-89l371 700h90z" />
<glyph unicode="&#x215f;" horiz-adv-x="647" d="M70 0zM157 293h-77l50 313l-41 -29l-19 63l102 67h51zM534 700l-372 -700h-89l371 700h90z" />
<glyph unicode="&#x2212;" horiz-adv-x="385" d="M351 348l-11 -75h-301l11 75h301z" />
<glyph unicode="&#x2248;" horiz-adv-x="384" d="M280 401q16 0 40 6t45 23l-12 -79q-19 -13 -45 -19.5t-46 -6.5t-35.5 5.5t-29.5 11.5t-28.5 11.5t-32.5 5.5q-17 0 -41.5 -5.5t-47.5 -22.5l13 79q19 13 44 19t45 6q21 0 36.5 -5.5t30.5 -11.5t30 -11.5t34 -5.5zM256 252q15 0 39.5 6t46.5 23l-12 -79 q-20 -14 -45.5 -20.5t-46.5 -6.5q-20 0 -35.5 5.5t-29.5 12t-28.5 12t-32.5 5.5q-17 0 -41 -5.5t-47 -22.5l13 79q18 13 42.5 19t44.5 6q21 0 37 -5.5t31 -11.5t30 -11.5t34 -5.5z" />
<glyph unicode="&#x2260;" horiz-adv-x="384" d="M328 198h-177l-54 -80h-67l56 80h-60l13 78h100l45 67h-135l12 78h178l55 81h67l-57 -81h59l-12 -78h-100l-48 -67h138z" />
<glyph unicode="&#x2264;" horiz-adv-x="445" d="M362 530l31 -66l-192 -127l150 -128l-49 -65l-204 170l6 46zM38 0l12 77h288l-12 -77h-288z" />
<glyph unicode="&#x2265;" horiz-adv-x="442" d="M112 144l-31 65l191 128l-150 126l52 67l202 -170l-7 -45zM338 77l-12 -77h-288l12 77h288z" />
<glyph unicode="&#x25fc;" horiz-adv-x="490" d="M0 490h490v-490h-490v490z" />
<glyph unicode="&#xf6c3;" horiz-adv-x="456" d="M153 -297l-20 39q24 12 45 33.5t26 48.5q-21 -2 -35 9.5t-14 36.5q1 29 17.5 49t46.5 20q25 0 37.5 -15t12.5 -42q0 -30 -9 -58.5t-24.5 -52.5t-37 -42t-45.5 -26z" />
<glyph horiz-adv-x="377" d="M20 -65l131 831h92l-132 -831h-91zM160 -65l132 831h91l-131 -831h-92z" />
<glyph horiz-adv-x="184" d="M175 474q-50 20 -75.5 67.5t-25.5 108.5q0 79 60 79q27 0 43 -15.5t16 -47.5t-16 -47t-41 -14q3 -28 20 -50.5t44 -36.5z" />
<glyph horiz-adv-x="334" d="M175 473q-50 21 -75.5 68t-25.5 108q0 42 15.5 60.5t44.5 18.5q27 0 43 -15.5t16 -47.5t-16 -47t-41 -14q3 -27 20 -49.5t44 -37.5zM325 473q-50 21 -75 68t-25 108q0 42 15.5 60.5t44.5 18.5q27 0 43 -15.5t16 -47.5t-16 -47t-41 -14q6 -56 64 -87z" />
<glyph horiz-adv-x="468" d="M31 0zM193 72q40 0 71.5 41t45.5 131q6 42 6 71q0 55 -17.5 79.5t-49.5 24.5q-42 0 -71 -41.5t-43 -132.5q-4 -21 -5.5 -40.5t-1.5 -34.5q0 -98 65 -98zM292 75q-27 -44 -60.5 -66t-79.5 -22q-58 0 -89.5 44.5t-31.5 129.5q0 36 6 83q18 131 70.5 195t127.5 64 q42 0 71 -22t40 -66l20 76h82l-77 -491h-82zM394 -189q-20 -14 -40 -21t-44 -7q-41 0 -66 23t-25 73q0 36 12.5 66t32.5 51.5t46.5 33t54.5 10.5l-1 -40q-20 -2 -34.5 -11.5t-25 -24t-15.5 -31.5t-5 -34q0 -26 12 -36.5t28 -10.5q27 0 46 17z" />
<glyph horiz-adv-x="468" d="M193 72q40 0 71.5 41t45.5 131q6 42 6 71q0 55 -17.5 79.5t-49.5 24.5q-42 0 -71 -41.5t-43 -132.5q-4 -21 -5.5 -40.5t-1.5 -34.5q0 -98 65 -98zM292 75q-27 -44 -60.5 -66t-79.5 -22q-58 0 -89.5 44.5t-31.5 129.5q0 36 6 83q18 131 70.5 195t127.5 64q42 0 71 -22 t40 -66l20 76h82l-77 -491h-82z" />
<glyph horiz-adv-x="468" d="M31 0zM193 72q40 0 71.5 41t45.5 131q6 42 6 71q0 55 -17.5 79.5t-49.5 24.5q-42 0 -71 -41.5t-43 -132.5q-4 -21 -5.5 -40.5t-1.5 -34.5q0 -98 65 -98zM292 75q-27 -44 -60.5 -66t-79.5 -22q-58 0 -89.5 44.5t-31.5 129.5q0 36 6 83q18 131 70.5 195t127.5 64 q42 0 71 -22t40 -66l20 76h82l-77 -491h-82zM237 574l-75 115l1 7h113l39 -118v-4h-78z" />
<glyph horiz-adv-x="468" d="M31 0zM193 72q40 0 71.5 41t45.5 131q6 42 6 71q0 55 -17.5 79.5t-49.5 24.5q-42 0 -71 -41.5t-43 -132.5q-4 -21 -5.5 -40.5t-1.5 -34.5q0 -98 65 -98zM292 75q-27 -44 -60.5 -66t-79.5 -22q-58 0 -89.5 44.5t-31.5 129.5q0 36 6 83q18 131 70.5 195t127.5 64 q42 0 71 -22t40 -66l20 76h82l-77 -491h-82zM303 695h111l-1 -7l-109 -115h-82v4z" />
<glyph horiz-adv-x="468" d="M31 0zM242 695h86l72 -119v-3h-86l-37 65l-57 -65h-88v3zM193 72q40 0 71.5 41t45.5 131q6 42 6 71q0 55 -17.5 79.5t-49.5 24.5q-42 0 -71 -41.5t-43 -132.5q-4 -21 -5.5 -40.5t-1.5 -34.5q0 -98 65 -98zM292 75q-27 -44 -60.5 -66t-79.5 -22q-58 0 -89.5 44.5 t-31.5 129.5q0 36 6 83q18 131 70.5 195t127.5 64q42 0 71 -22t40 -66l20 76h82l-77 -491h-82z" />
<glyph horiz-adv-x="468" d="M31 0zM143 627q0 33 16.5 53t48.5 20q50 0 50 -50q0 -34 -17.5 -53.5t-48.5 -19.5q-25 0 -37 13.5t-12 36.5zM300 627q0 33 16.5 53t48.5 20q50 0 50 -50q0 -34 -17 -53.5t-49 -19.5q-26 0 -37.5 13.5t-11.5 36.5zM193 72q40 0 71.5 41t45.5 131q6 42 6 71 q0 55 -17.5 79.5t-49.5 24.5q-42 0 -71 -41.5t-43 -132.5q-4 -21 -5.5 -40.5t-1.5 -34.5q0 -98 65 -98zM292 75q-27 -44 -60.5 -66t-79.5 -22q-58 0 -89.5 44.5t-31.5 129.5q0 36 6 83q18 131 70.5 195t127.5 64q42 0 71 -22t40 -66l20 76h82l-77 -491h-82z" />
<glyph horiz-adv-x="468" d="M31 0zM193 72q40 0 71.5 41t45.5 131q6 42 6 71q0 55 -17.5 79.5t-49.5 24.5q-42 0 -71 -41.5t-43 -132.5q-4 -21 -5.5 -40.5t-1.5 -34.5q0 -98 65 -98zM292 75q-27 -44 -60.5 -66t-79.5 -22q-58 0 -89.5 44.5t-31.5 129.5q0 36 6 83q18 131 70.5 195t127.5 64 q42 0 71 -22t40 -66l20 76h82l-77 -491h-82zM352 689h62q-2 -31 -11 -51.5t-22 -33t-27.5 -18t-28.5 -5.5q-16 0 -28.5 6t-23.5 13.5t-21 13.5t-21 6q-13 0 -19 -11t-8 -25h-64q3 31 12.5 51.5t21.5 33t26.5 17.5t28.5 5q16 0 29.5 -6t24.5 -13.5t21 -13.5t20 -6q14 0 20 11 t8 26z" />
<glyph horiz-adv-x="468" d="M31 0zM193 72q40 0 71.5 41t45.5 131q6 42 6 71q0 55 -17.5 79.5t-49.5 24.5q-42 0 -71 -41.5t-43 -132.5q-4 -21 -5.5 -40.5t-1.5 -34.5q0 -98 65 -98zM292 75q-27 -44 -60.5 -66t-79.5 -22q-58 0 -89.5 44.5t-31.5 129.5q0 36 6 83q18 131 70.5 195t127.5 64 q42 0 71 -22t40 -66l20 76h82l-77 -491h-82zM294 741q32 0 52.5 -20.5t20.5 -57.5q0 -49 -28 -80.5t-71 -31.5q-33 0 -54 21t-21 59q0 22 7 42t20 35t32 24t42 9zM289 696q-24 0 -36.5 -18.5t-12.5 -41.5q0 -18 8.5 -29t24.5 -11q21 0 34 19t13 43q0 18 -8.5 28t-22.5 10z " />
<glyph horiz-adv-x="468" d="M31 0zM193 72q40 0 71.5 41t45.5 131q6 42 6 71q0 55 -17.5 79.5t-49.5 24.5q-42 0 -71 -41.5t-43 -132.5q-4 -21 -5.5 -40.5t-1.5 -34.5q0 -98 65 -98zM292 75q-27 -44 -60.5 -66t-79.5 -22q-58 0 -89.5 44.5t-31.5 129.5q0 36 6 83q18 131 70.5 195t127.5 64 q42 0 71 -22t40 -66l20 76h82l-77 -491h-82zM387 665l-10 -68h-206l10 68h206z" />
<glyph horiz-adv-x="468" d="M31 0zM193 72q40 0 71.5 41t45.5 131q6 42 6 71q0 55 -17.5 79.5t-49.5 24.5q-42 0 -71 -41.5t-43 -132.5q-4 -21 -5.5 -40.5t-1.5 -34.5q0 -98 65 -98zM292 75q-27 -44 -60.5 -66t-79.5 -22q-58 0 -89.5 44.5t-31.5 129.5q0 36 6 83q18 131 70.5 195t127.5 64 q42 0 71 -22t40 -66l20 76h82l-77 -491h-82zM344 694h64q-11 -73 -46.5 -100.5t-92.5 -27.5q-28 0 -49.5 6.5t-34.5 21.5t-17.5 39.5t0.5 60.5h65q-6 -38 4.5 -51t38.5 -13q29 0 45.5 13t22.5 51z" />
<glyph horiz-adv-x="471" d="M284 76q-28 -44 -62 -62.5t-72 -18.5q-59 0 -86 35.5t-27 95.5q0 14 1.5 27.5t3.5 27.5l48 310h102l-46 -292q-2 -13 -3 -24.5t-1 -22.5q0 -69 53 -69q42 0 72.5 41.5t44.5 121.5l39 245h101l-76 -485q-19 -112 -80 -167.5t-149 -55.5q-74 0 -113 32t-53 93l86 42 q7 -41 27 -62t56 -21q50 0 81.5 36t42.5 108z" />
<glyph horiz-adv-x="471" d="M0 0zM284 76q-28 -44 -62 -62.5t-72 -18.5q-59 0 -86 35.5t-27 95.5q0 14 1.5 27.5t3.5 27.5l48 310h102l-46 -292q-2 -13 -3 -24.5t-1 -22.5q0 -69 53 -69q42 0 72.5 41.5t44.5 121.5l39 245h101l-76 -485q-19 -112 -80 -167.5t-149 -55.5q-74 0 -113 32t-53 93l86 42 q7 -41 27 -62t56 -21q50 0 81.5 36t42.5 108zM317 695h111l-1 -7l-109 -115h-82v4z" />
<glyph horiz-adv-x="471" d="M0 0zM254 695h86l72 -119v-3h-86l-37 65l-57 -65h-88v3zM284 76q-28 -44 -62 -62.5t-72 -18.5q-59 0 -86 35.5t-27 95.5q0 14 1.5 27.5t3.5 27.5l48 310h102l-46 -292q-2 -13 -3 -24.5t-1 -22.5q0 -69 53 -69q42 0 72.5 41.5t44.5 121.5l39 245h101l-76 -485 q-19 -112 -80 -167.5t-149 -55.5q-74 0 -113 32t-53 93l86 42q7 -41 27 -62t56 -21q50 0 81.5 36t42.5 108z" />
<glyph horiz-adv-x="472" d="M0 0zM155 627q0 33 16.5 53t48.5 20q50 0 50 -50q0 -34 -17.5 -53.5t-48.5 -19.5q-25 0 -37 13.5t-12 36.5zM312 627q0 33 16.5 53t48.5 20q50 0 50 -50q0 -34 -17 -53.5t-49 -19.5q-26 0 -37.5 13.5t-11.5 36.5zM284 76q-28 -44 -62 -62.5t-72 -18.5q-59 0 -86 35.5 t-27 95.5q0 14 1.5 27.5t3.5 27.5l48 310h102l-46 -292q-2 -13 -3 -24.5t-1 -22.5q0 -69 53 -69q42 0 72.5 41.5t44.5 121.5l39 245h101l-76 -485q-19 -112 -80 -167.5t-149 -55.5q-74 0 -113 32t-53 93l86 42q7 -41 27 -62t56 -21q50 0 81.5 36t42.5 108z" />
<glyph horiz-adv-x="297" d="M243 462l51 -36q-22 -42 -55 -62t-75 -20q-54 0 -81.5 31.5t-27.5 97.5q0 12 1.5 25.5t3.5 29.5q14 97 54.5 141t102.5 44q92 0 105 -88l-60 -31q-5 24 -16.5 38.5t-35.5 14.5q-30 0 -49.5 -28.5t-28.5 -90.5q-3 -17 -4 -29t-1 -24q0 -35 11.5 -50.5t39.5 -15.5 q20 0 35.5 11.5t29.5 41.5z" />
<glyph horiz-adv-x="338" d="M174 409q26 0 47 28.5t30 91.5q2 13 3 24.5t1 22.5q0 38 -12 55t-33 17q-29 0 -48.5 -28.5t-29.5 -91.5q-2 -14 -3.5 -26.5t-1.5 -23.5q0 -69 47 -69zM59 527q13 94 50.5 140t91.5 46q29 0 48.5 -16t27.5 -50l13 54h62l-55 -346h-63l3 55q-34 -66 -95 -66 q-42 0 -65.5 31.5t-23.5 93.5q0 14 2 28t4 30z" />
<glyph horiz-adv-x="456" d="M263 467h-68l41 233h87z" />
<glyph horiz-adv-x="185" d="M-10 0l93 498h75l-63 -498h-105zM83 629q0 35 17.5 56t51.5 21q26 0 38.5 -14.5t12.5 -37.5q0 -33 -16.5 -55t-51.5 -22q-52 0 -52 52z" />
<glyph horiz-adv-x="395" d="M273 504l-22 -161h-35q-29 0 -52.5 -13t-40.5 -35.5t-26.5 -51.5t-9.5 -62q0 -50 22.5 -76t64.5 -26q40 0 72 22.5t50 76.5l74 -32q-25 -78 -79.5 -116.5t-129.5 -38.5q-85 0 -127 47t-42 129q0 52 14 93.5t38.5 72.5t57.5 50.5t71 27.5l19 93h81zM195 635q0 35 17.5 56 t51.5 21q26 0 39 -14.5t13 -37.5q0 -33 -16.5 -55t-51.5 -22q-53 0 -53 52z" />
<glyph horiz-adv-x="285" d="M256 302l-14 -88h-209l14 88h209z" />
<glyph horiz-adv-x="517" d="M486 302l-13 -88h-441l14 88h440z" />
<glyph horiz-adv-x="557" d="M254 -13q-100 0 -151 60t-51 185q0 27 2.5 56.5t7.5 62.5q14 97 39 165.5t62 112t85.5 64t110.5 20.5q88 0 133 -42t54 -139l-96 -29q-8 69 -33 93t-70 24q-33 0 -60.5 -12.5t-50 -43.5t-40.5 -83t-30 -130q-5 -37 -7.5 -67.5t-2.5 -56.5q0 -85 28 -118.5t79 -33.5 q26 0 50 10.5t44 34t35 61t23 92.5h-118l14 86h219l-11 -70q-23 -148 -88 -225t-177 -77z" />
<glyph horiz-adv-x="508" d="M347 0l-147 339l2 5l249 356h119l-258 -353l158 -347h-123zM32 0l111 700h104l-110 -700h-105z" />
<glyph horiz-adv-x="421" d="M18 0l111 700h102l-112 -700h-101zM263 1l-105 231l2 12l177 247h109l-181 -242l111 -248h-113z" />
<glyph horiz-adv-x="602" d="M38 5zM476 102q-42 -48 -94 -72.5t-116 -24.5q-106 0 -167 71t-61 203q0 97 26.5 173.5t70.5 130t102.5 81.5t121.5 28q105 0 163 -65.5t58 -183.5q0 -57 -12 -104t-34 -80.5t-52 -52.5t-66 -19q-26 0 -43 13t-22 40q-21 -29 -45.5 -44.5t-55.5 -15.5q-35 0 -55.5 20.5 t-20.5 58.5q0 25 10 48.5t29.5 41.5t47.5 29t64 11h34q3 12 3 26q0 29 -14 42.5t-34 13.5q-41 0 -64 -49l-46 32q17 32 47.5 53.5t77.5 21.5t73.5 -25t26.5 -74q0 -17 -3 -38l-15 -98q-1 -5 -1.5 -13t-0.5 -14q0 -35 28 -35q20 0 38 15.5t31.5 43t21.5 66t8 85.5 q0 104 -49 157.5t-131 53.5q-53 0 -102 -25t-87.5 -72t-61.5 -116.5t-23 -157.5q0 -60 14 -105t39 -74t60 -43.5t76 -14.5q51 0 96.5 20t80.5 62zM237 269q0 -17 9 -26.5t23 -9.5q32 0 54 26t28 72l1 10h-26q-43 0 -66 -21.5t-23 -50.5z" />
<glyph horiz-adv-x="526" d="M331 713q91 0 134 -53.5t43 -171.5q0 -31 -2.5 -65t-8.5 -73q-14 -95 -36.5 -164t-56 -113t-78 -65t-100.5 -21q-91 0 -135 54.5t-44 171.5q0 30 3.5 64.5t8.5 72.5q28 190 93 276.5t179 86.5zM322 624q-29 0 -53 -14t-44 -46.5t-35.5 -84.5t-27.5 -128 q-7 -43 -10.5 -78.5t-3.5 -63.5q0 -74 23 -104t63 -30q28 0 52 13.5t44 45.5t36 84.5t28 130.5q7 42 10 77.5t3 63.5q0 74 -21 104t-64 30z" />
<glyph horiz-adv-x="289" d="M166 0h-103l88 562l-72 -54l-28 84l157 110h69z" />
<glyph horiz-adv-x="439" d="M-9 0l14 81l233 277q51 60 74.5 104t23.5 86q0 35 -19 55t-54 20q-40 0 -71 -23t-60 -77l-75 39q41 83 98.5 117t127.5 34q79 0 119.5 -40t40.5 -107q0 -30 -7.5 -58.5t-23.5 -58.5t-41.5 -64t-61.5 -77l-183 -218l263 3l-15 -93h-383z" />
<glyph horiz-adv-x="457" d="M-3 142l86 36q6 -53 31 -79.5t66 -26.5q31 0 55 12t40 33t24.5 49.5t8.5 61.5q0 45 -21.5 67t-62.5 22h-50l14 89h49q24 0 44.5 11t34.5 29.5t22 43.5t8 53q0 38 -20.5 60t-58.5 22q-41 0 -71 -21t-51 -69l-76 37q62 141 221 141q78 0 119 -40t41 -109q0 -57 -28.5 -112 t-82.5 -87q32 -16 50.5 -48t18.5 -83q0 -52 -15.5 -97t-45.5 -78.5t-74 -53t-101 -19.5q-65 0 -114.5 37.5t-60.5 118.5z" />
<glyph horiz-adv-x="500" d="M7 173l13 76l232 451h100l-226 -434h180l45 286h99l-45 -286h70l-14 -93h-71l-27 -173h-99l27 173h-284z" />
<glyph horiz-adv-x="469" d="M205 609l-43 -198q44 36 117 36q31 0 57 -9.5t45 -30t30 -53t11 -78.5q0 -62 -17 -115t-49.5 -92t-78.5 -61t-103 -22q-75 0 -122 39t-56 114l84 36q6 -54 34 -78.5t68 -24.5q33 0 58.5 14.5t43 40t26.5 60.5t9 76q0 49 -23 74t-62 25q-66 0 -116 -53l-65 31l83 360h329 l-15 -91h-245z" />
<glyph horiz-adv-x="497" d="M511 585l-87 -43q-19 85 -87 85q-41 0 -69 -20t-48.5 -56.5t-34.5 -89t-26 -116.5q0 -1 -1.5 -10t-1.5 -10q23 52 65 83t97 31q62 0 100 -44t38 -129q0 -55 -14 -105.5t-42.5 -89.5t-71 -62t-99.5 -23q-42 0 -75.5 13.5t-57 42t-35.5 73t-12 106.5q0 27 2.5 58t7.5 66 q27 188 98.5 278t183.5 90q143 0 170 -128zM275 356q-26 0 -48 -13.5t-38.5 -36.5t-26 -54.5t-9.5 -68.5q0 -50 21 -80t62 -30q30 0 52.5 14.5t37 38.5t22 55.5t7.5 64.5q0 110 -80 110z" />
<glyph horiz-adv-x="402" d="M64 0q15 95 43 185t64 168.5t79 143.5t88 111l-268 -2l15 94h374l-15 -91q-48 -41 -90.5 -103t-77 -140t-60.5 -170.5t-41 -195.5h-111z" />
<glyph horiz-adv-x="498" d="M441 225q0 -52 -16 -95.5t-45.5 -75t-72 -49.5t-96.5 -18q-42 0 -74.5 12.5t-54.5 35t-33.5 53.5t-11.5 68q0 81 35.5 136.5t92.5 77.5q-26 20 -41 52t-15 77q0 42 13.5 80.5t40 68t65.5 47.5t91 18q74 0 115 -40.5t41 -112.5q0 -66 -29 -116t-77 -77q33 -17 52.5 -54 t19.5 -88zM381 537q0 39 -18 65t-58 26q-23 0 -42 -10.5t-32.5 -28t-21.5 -41t-8 -50.5q0 -35 18.5 -61.5t55.5 -26.5q21 0 40 9.5t33.5 26.5t23.5 40t9 51zM343 217q0 44 -22.5 73t-64.5 29q-26 0 -48 -11.5t-37.5 -31t-24.5 -46t-9 -57.5q0 -45 21.5 -73t63.5 -28 q24 0 46 11t38.5 30.5t26.5 46t10 57.5z" />
<glyph horiz-adv-x="495" d="M246 340q28 0 51.5 14t40.5 38t26.5 56t9.5 68q0 51 -21.5 81t-58.5 30q-27 0 -49.5 -13t-38 -36.5t-24 -56.5t-8.5 -73q0 -52 18.5 -80t53.5 -28zM192 -13q-145 0 -173 128l85 43q22 -85 88 -85q40 0 69 20t49.5 56.5t34 88.5t24.5 116q0 1 1 10t1 10 q-23 -54 -64.5 -86.5t-95.5 -32.5q-66 0 -102.5 45t-36.5 130q0 55 13.5 106.5t41.5 90.5t71.5 62.5t103.5 23.5q84 0 130.5 -55t46.5 -177q0 -60 -12 -133q-28 -184 -97.5 -272.5t-177.5 -88.5z" />
<glyph d="M314 613q80 0 122.5 -48.5t42.5 -154.5q0 -24 -2 -51.5t-7 -59.5q-23 -162 -86 -237t-161 -75q-78 0 -120.5 49t-42.5 154q0 24 2.5 51.5t7.5 58.5q24 165 85.5 239t158.5 74zM233 74q25 0 46 11.5t38 37.5t30 69.5t24 107.5q6 32 8 59.5t2 50.5q0 63 -19.5 89t-57.5 26 q-24 0 -44 -11t-36.5 -37t-30 -69t-23.5 -108q-5 -34 -7.5 -61.5t-2.5 -50.5q0 -63 19 -88.5t54 -25.5z" />
<glyph d="M415 0h-388l14 91h144l59 371l-70 -54l-26 84l153 110h65l-81 -511h144z" />
<glyph d="M44 0l12 71l203 218q31 33 53.5 59t36.5 47t21 39t7 36q0 28 -19.5 41t-49.5 13q-35 0 -63.5 -21t-50.5 -67l-72 36q36 75 89.5 108t120.5 33q70 0 108.5 -34.5t38.5 -96.5q0 -27 -9 -52.5t-27.5 -53.5t-46.5 -60t-65 -72l-147 -158l246 2l-14 -88h-372z" />
<glyph d="M35 42l86 36q6 -53 31 -79.5t66 -26.5q31 0 55 12t40 33t24.5 49.5t8.5 61.5q0 45 -21.5 67t-62.5 22h-50l14 89h49q24 0 44.5 11t34.5 29.5t22 43.5t8 53q0 38 -20.5 60t-58.5 22q-41 0 -71 -21t-51 -69l-76 37q62 141 221 141q78 0 119 -40t41 -109q0 -57 -28.5 -112 t-82.5 -87q32 -16 50.5 -48t18.5 -83q0 -52 -15.5 -97t-45.5 -78.5t-74 -53t-101 -19.5q-65 0 -114.5 37.5t-60.5 118.5z" />
<glyph d="M21 73l13 76l232 451h100l-226 -434h180l45 286h99l-45 -286h70l-14 -93h-71l-27 -173h-99l27 173h-284z" />
<glyph d="M252 509l-43 -198q44 36 117 36q31 0 57 -9.5t45 -30t30 -53t11 -78.5q0 -62 -17 -115t-49.5 -92t-78.5 -61t-103 -22q-75 0 -122 39t-56 114l84 36q6 -54 34 -78.5t68 -24.5q33 0 58.5 14.5t43 40t26.5 60.5t9 76q0 49 -23 74t-62 25q-66 0 -116 -53l-65 31l83 360h329 l-15 -91h-245z" />
<glyph d="M523 585l-87 -43q-19 85 -87 85q-41 0 -69 -20t-48.5 -56.5t-34.5 -89t-26 -116.5q0 -1 -1.5 -10t-1.5 -10q23 52 65 83t97 31q62 0 100 -44t38 -129q0 -55 -14 -105.5t-42.5 -89.5t-71 -62t-99.5 -23q-42 0 -75.5 13.5t-57 42t-35.5 73t-12 106.5q0 27 2.5 58t7.5 66 q27 188 98.5 278t183.5 90q143 0 170 -128zM287 356q-26 0 -48 -13.5t-38.5 -36.5t-26 -54.5t-9.5 -68.5q0 -50 21 -80t62 -30q30 0 52.5 14.5t37 38.5t22 55.5t7.5 64.5q0 110 -80 110z" />
<glyph d="M126 -100q15 95 43 185t64 168.5t79 143.5t88 111l-268 -2l15 94h374l-15 -91q-48 -41 -90.5 -103t-77 -140t-60.5 -170.5t-41 -195.5h-111z" />
<glyph d="M455 225q0 -52 -16 -95.5t-45.5 -75t-72 -49.5t-96.5 -18q-42 0 -74.5 12.5t-54.5 35t-33.5 53.5t-11.5 68q0 81 35.5 136.5t92.5 77.5q-26 20 -41 52t-15 77q0 42 13.5 80.5t40 68t65.5 47.5t91 18q74 0 115 -40.5t41 -112.5q0 -66 -29 -116t-77 -77q33 -17 52.5 -54 t19.5 -88zM395 537q0 39 -18 65t-58 26q-23 0 -42 -10.5t-32.5 -28t-21.5 -41t-8 -50.5q0 -35 18.5 -61.5t55.5 -26.5q21 0 40 9.5t33.5 26.5t23.5 40t9 51zM357 217q0 44 -22.5 73t-64.5 29q-26 0 -48 -11.5t-37.5 -31t-24.5 -46t-9 -57.5q0 -45 21.5 -73t63.5 -28 q24 0 46 11t38.5 30.5t26.5 46t10 57.5z" />
<glyph d="M253 240q28 0 51.5 14t40.5 38t26.5 56t9.5 68q0 51 -21.5 81t-58.5 30q-27 0 -49.5 -13t-38 -36.5t-24 -56.5t-8.5 -73q0 -52 18.5 -80t53.5 -28zM199 -113q-145 0 -173 128l85 43q22 -85 88 -85q40 0 69 20t49.5 56.5t34 88.5t24.5 116q0 1 1 10t1 10 q-23 -54 -64.5 -86.5t-95.5 -32.5q-66 0 -102.5 45t-36.5 130q0 55 13.5 106.5t41.5 90.5t71.5 62.5t103.5 23.5q84 0 130.5 -55t46.5 -177q0 -60 -12 -133q-28 -184 -97.5 -272.5t-177.5 -88.5z" />
<glyph horiz-adv-x="472" d="M286 613q80 0 122.5 -48.5t42.5 -154.5q0 -24 -2 -51.5t-7 -59.5q-23 -162 -86 -237t-161 -75q-78 0 -120.5 49t-42.5 154q0 24 2.5 51.5t7.5 58.5q24 165 85.5 239t158.5 74zM205 74q25 0 46 11.5t38 37.5t30 69.5t24 107.5q6 32 8 59.5t2 50.5q0 63 -19.5 89t-57.5 26 q-24 0 -44 -11t-36.5 -37t-30 -69t-23.5 -108q-5 -34 -7.5 -61.5t-2.5 -50.5q0 -63 19 -88.5t54 -25.5z" />
<glyph horiz-adv-x="265" d="M161 0h-100l73 462l-70 -54l-26 84l153 110h65z" />
<glyph horiz-adv-x="416" d="M-17 0l12 71l198 218q30 33 51 58t35 45.5t20.5 38t6.5 35.5q0 30 -18 44t-46 14q-66 0 -109 -88l-72 36q36 75 87.5 108t117.5 33q68 0 105 -33t37 -93q0 -28 -8.5 -54.5t-26 -55t-44.5 -61t-64 -72.5l-147 -158l241 2l-14 -88h-362z" />
<glyph horiz-adv-x="441" d="M-21 41l84 38q7 -54 32 -80.5t64 -26.5q30 0 53 11.5t39 32.5t24 49.5t8 62.5q0 45 -21.5 67t-61.5 22h-51l14 89h48q25 0 45.5 11t34.5 29.5t22 43.5t8 53q0 38 -20 60t-58 22q-40 0 -69.5 -21.5t-50.5 -69.5l-76 37q32 73 87 107.5t133 34.5t118.5 -40t40.5 -108 q0 -27 -7 -56t-21.5 -55.5t-35 -49.5t-47.5 -39q32 -16 49.5 -48t17.5 -82q0 -51 -15 -96.5t-44 -79.5t-72 -53.5t-100 -19.5q-66 0 -113 38t-59 117z" />
<glyph horiz-adv-x="476" d="M-2 73l11 73l227 454h97l-221 -436h170l45 287h97l-46 -287h66l-14 -91h-65l-28 -173h-97l28 173h-270z" />
<glyph horiz-adv-x="446" d="M186 510l-43 -199q45 36 107 36q31 0 57 -9.5t44.5 -29.5t29 -52t10.5 -78q0 -65 -17 -118.5t-48.5 -92t-77.5 -60t-103 -21.5q-72 0 -116.5 38.5t-55.5 114.5l85 36q6 -54 32.5 -78.5t65.5 -24.5q31 0 56 14.5t42 40.5t26 61t9 76q0 51 -21 74.5t-60 23.5 q-30 0 -57.5 -14t-50.5 -39l-65 31l82 360h323l-15 -90h-239z" />
<glyph horiz-adv-x="468" d="M433 267q0 -57 -14 -108t-42 -89.5t-70.5 -60.5t-98.5 -22q-83 0 -127.5 54.5t-44.5 176.5q0 29 3 62.5t8 70.5q29 187 96.5 274.5t177.5 87.5q71 0 110 -34t52 -96l-83 -41q-11 45 -32.5 65t-56.5 20q-38 0 -64.5 -20t-45.5 -56.5t-32.5 -89t-23.5 -117.5q0 -1 -2 -8 t-2 -8q23 51 63 81t92 30q64 0 100.5 -44.5t36.5 -127.5zM332 251q0 50 -17 77.5t-55 27.5q-25 0 -47.5 -12.5t-39 -35t-26 -54t-9.5 -70.5q0 -49 19.5 -80t57.5 -31q52 0 84.5 48t32.5 130z" />
<glyph horiz-adv-x="385" d="M52 -100q13 85 37 170t57.5 164t75.5 149t92 125l-258 -2l14 94h362l-13 -91q-45 -38 -85.5 -98.5t-74 -139.5t-59.5 -173t-41 -198h-107z" />
<glyph horiz-adv-x="464" d="M417 226q0 -52 -16 -96t-45 -75.5t-71.5 -49.5t-94.5 -18q-81 0 -124.5 45.5t-43.5 122.5q0 78 34.5 134.5t91.5 79.5q-25 20 -40 52t-15 73q0 44 13.5 83.5t39.5 69.5t65 48t89 18q72 0 112 -42t40 -114q0 -71 -31 -118.5t-74 -71.5q33 -17 51.5 -52.5t18.5 -88.5z M186 496q0 -36 17 -61t51 -25q22 0 41 11t33 29t22 42.5t8 51.5q0 35 -17 59.5t-52 24.5q-23 0 -42 -10t-32.5 -28t-21 -42t-7.5 -52zM122 168q0 -41 20.5 -68.5t59.5 -27.5q26 0 48 11.5t37.5 31.5t24 46.5t8.5 57.5q0 43 -20 71.5t-61 28.5q-26 0 -47 -11t-37 -31 t-24.5 -48t-8.5 -61z" />
<glyph horiz-adv-x="468" d="M154 -114q-69 0 -108.5 35t-52.5 96l82 40q11 -44 32.5 -64t56.5 -20q30 0 55.5 14.5t46 48t36.5 87.5t28 133q0 3 1 7l2 8q-22 -51 -61.5 -81t-92.5 -30q-29 0 -54.5 11t-44 33t-29 54.5t-10.5 74.5q0 57 14.5 107.5t43.5 88.5t71.5 60.5t99.5 22.5q83 0 126.5 -53 t43.5 -173q0 -61 -12 -137q-28 -187 -96.5 -275t-177.5 -88zM260 527q-51 0 -84 -46.5t-33 -130.5q0 -50 18 -78t54 -28q26 0 48.5 13.5t39 36.5t25.5 55t9 69q0 49 -19.5 79t-57.5 30z" />
<glyph horiz-adv-x="332" d="M0 0zM157 219q57 0 84.5 -33t27.5 -102q0 -18 -2 -37t-5 -42q-17 -111 -56.5 -162t-109.5 -51q-58 0 -85 33t-27 102q0 34 6 78q16 111 56 162.5t111 51.5zM151 154q-30 0 -50.5 -32.5t-33.5 -115.5q-4 -25 -6 -44.5t-2 -34.5q0 -39 11.5 -55t33.5 -16q14 0 26 7.5 t22.5 24.5t18.5 46t15 71q4 24 6 43.5t2 35.5q0 38 -11 54t-32 16z" />
<glyph horiz-adv-x="192" d="M0 0zM76 -200h-77l50 313l-41 -29l-19 63l102 67h51z" />
<glyph horiz-adv-x="286" d="M0 0zM-49 -200l9 56l135 158q29 32 41 55.5t12 45.5q0 17 -9.5 26.5t-27.5 9.5q-20 0 -36.5 -11.5t-33.5 -40.5l-54 26q24 51 60.5 72.5t81.5 21.5q48 0 73.5 -24t25.5 -66q0 -18 -4.5 -35t-15 -35t-26.5 -39t-39 -48l-89 -106l142 3l-11 -69h-234z" />
<glyph horiz-adv-x="287" d="M0 0zM-46 -116l62 27q9 -56 55 -56q32 0 48 22t16 55q0 47 -45 47h-29l9 62h29q26 0 42 21t16 49q0 43 -42 43q-20 0 -36.5 -11t-27.5 -37l-54 27q37 86 137 86q51 0 76 -24t25 -66q0 -33 -17 -65t-50 -51q41 -22 41 -78q0 -30 -10 -56.5t-28.5 -45.5t-45 -30t-60.5 -11 q-41 0 -72 22t-39 70z" />
<glyph horiz-adv-x="315" d="M0 0zM-37 -106l9 56l133 261h74l-128 -248h91l23 146h73l-24 -146h40l-12 -69h-39l-14 -94h-73l15 94h-168z" />
<glyph horiz-adv-x="283" d="M0 0zM86 145l-22 -99q12 8 28 13.5t35 5.5q38 0 63 -24t25 -78q0 -39 -11 -70.5t-31 -54t-48.5 -34.5t-63.5 -12q-45 0 -74 21.5t-37 66.5l62 29q5 -29 19.5 -41.5t35.5 -12.5q35 0 53 28t18 69q0 26 -11.5 39t-31.5 13q-17 0 -32.5 -7.5t-27.5 -21.5l-49 24l49 212h208 l-11 -66h-146z" />
<glyph horiz-adv-x="314" d="M0 0zM268 142l-60 -31q-9 45 -47 45q-43 0 -63.5 -40t-31.5 -112q-1 -3 -1 -5q-1 -1 -1 -3v-2q14 29 36 46.5t54 17.5q38 0 60.5 -25.5t22.5 -75.5q0 -33 -8.5 -63t-26 -52.5t-43.5 -36t-60 -13.5q-55 0 -85 33t-30 107q0 32 6 70q32 217 172 217q89 0 106 -77zM122 -1 q-26 0 -43 -25.5t-17 -63.5q0 -26 10 -41t31 -15q30 0 44.5 27t14.5 62q0 56 -40 56z" />
<glyph horiz-adv-x="254" d="M0 0zM-5 -200q9 56 25 107.5t37 95.5t45.5 79.5t50.5 60.5l-156 -2l11 70h234l-11 -61q-58 -55 -95 -140.5t-56 -209.5h-85z" />
<glyph horiz-adv-x="307" d="M0 0zM225 -66q0 -61 -36.5 -101.5t-105.5 -40.5q-54 0 -82 27.5t-28 72.5q0 46 21 78.5t55 46.5q-32 24 -32 74q0 25 8 48.5t24.5 41t41 28t57.5 10.5q47 0 72 -24t25 -67q0 -38 -16.5 -67t-44.5 -46q20 -11 30.5 -32t10.5 -49zM177 111q0 20 -9.5 33.5t-29.5 13.5 q-25 0 -39.5 -20.5t-14.5 -47.5q0 -18 9 -31.5t29 -13.5q22 0 38.5 18.5t16.5 47.5zM153 -73q0 22 -11.5 37t-32.5 15q-27 0 -44 -22t-17 -54q0 -23 10.5 -37.5t33.5 -14.5q25 0 43 22t18 54z" />
<glyph horiz-adv-x="313" d="M0 0zM108 8q28 0 45.5 27t17.5 64q0 26 -10.5 41.5t-29.5 15.5q-28 0 -44 -26t-16 -67q0 -26 9 -40.5t28 -14.5zM73 -208q-44 0 -72 16t-38 53l57 37q13 -45 51 -45q23 0 39 11t27 30.5t18 47.5t13 63v5q0 2 0.5 3t0.5 2q-14 -32 -36 -49.5t-54 -17.5q-38 0 -60 26.5 t-22 76.5q0 33 8 63.5t25.5 54t44 37t62.5 13.5q54 0 83.5 -33.5t29.5 -105.5q0 -19 -2 -39t-6 -41q-35 -208 -169 -208z" />
<glyph horiz-adv-x="240" d="M0 0zM87 -140h-58l14 92h-65l8 57h66l15 93h59l-15 -93h65l-9 -57h-65z" />
<glyph horiz-adv-x="240" d="M0 0zM176 11l-10 -60h-189l10 60h189z" />
<glyph horiz-adv-x="240" d="M0 0zM183 57l-9 -62h-189l9 62h189zM169 -35l-9 -61h-189l9 61h189z" />
<glyph horiz-adv-x="202" d="M0 0zM83 -207l-25 -61q-47 12 -70 51t-23 110q0 21 1.5 45t6.5 50q19 116 59 174t102 62l7 -64q-20 -3 -36 -13.5t-28.5 -31t-23 -52.5t-17.5 -80q-4 -25 -5.5 -46t-1.5 -38q0 -49 14 -72.5t40 -33.5z" />
<glyph horiz-adv-x="179" d="M0 0zM0 163l25 61q47 -12 69.5 -51t22.5 -110q0 -21 -1.5 -45t-6.5 -50q-37 -229 -160 -236l-7 64q19 3 35.5 13.5t29 31t22.5 52.5t18 80q4 25 5.5 46t1.5 38q0 49 -14 72.5t-40 33.5z" />
<glyph horiz-adv-x="219" d="M108 629q0 34 17.5 55.5t52.5 21.5q26 0 40.5 -14t14.5 -40q0 -35 -19.5 -56t-51.5 -21q-26 0 -40 15t-14 39zM98 491h101l-77 -491h-102z" />
<glyph horiz-adv-x="421" d="M18 0zM18 0l111 700h102l-112 -700h-101zM263 1l-105 231l2 12l177 247h109l-181 -242l111 -248h-113zM117 -297l-20 39q24 12 45 33.5t26 48.5q-21 -2 -35 9.5t-14 36.5q1 29 17.5 49t46.5 20q25 0 37.5 -15t12.5 -42q0 -30 -9 -58.5t-24.5 -52.5t-37 -42t-45.5 -26z " />
<glyph horiz-adv-x="557" d="M52 0zM254 -13q-100 0 -151 60t-51 185q0 27 2.5 56.5t7.5 62.5q14 97 39 165.5t62 112t85.5 64t110.5 20.5q88 0 133 -42t54 -139l-96 -29q-8 69 -33 93t-70 24q-33 0 -60.5 -12.5t-50 -43.5t-40.5 -83t-30 -130q-5 -37 -7.5 -67.5t-2.5 -56.5q0 -85 28 -118.5t79 -33.5 q26 0 50 10.5t44 34t35 61t23 92.5h-118l14 86h219l-11 -70q-23 -148 -88 -225t-177 -77zM444 904h64q-11 -73 -46.5 -100.5t-92.5 -27.5q-28 0 -49.5 6.5t-34.5 21.5t-17.5 39.5t0.5 60.5h65q-6 -38 4.5 -51t38.5 -13q29 0 45.5 13t22.5 51z" />
<glyph horiz-adv-x="557" d="M52 0zM254 -13q-100 0 -151 60t-51 185q0 27 2.5 56.5t7.5 62.5q14 97 39 165.5t62 112t85.5 64t110.5 20.5q88 0 133 -42t54 -139l-96 -29q-8 69 -33 93t-70 24q-33 0 -60.5 -12.5t-50 -43.5t-40.5 -83t-30 -130q-5 -37 -7.5 -67.5t-2.5 -56.5q0 -85 28 -118.5t79 -33.5 q26 0 50 10.5t44 34t35 61t23 92.5h-118l14 86h219l-11 -70q-23 -148 -88 -225t-177 -77zM343 905h86l72 -119v-3h-86l-37 65l-57 -65h-88v3z" />
<glyph horiz-adv-x="557" d="M52 0zM254 -13q-100 0 -151 60t-51 185q0 27 2.5 56.5t7.5 62.5q14 97 39 165.5t62 112t85.5 64t110.5 20.5q88 0 133 -42t54 -139l-96 -29q-8 69 -33 93t-70 24q-33 0 -60.5 -12.5t-50 -43.5t-40.5 -83t-30 -130q-5 -37 -7.5 -67.5t-2.5 -56.5q0 -85 28 -118.5t79 -33.5 q26 0 50 10.5t44 34t35 61t23 92.5h-118l14 86h219l-11 -70q-23 -148 -88 -225t-177 -77zM176 -297l-20 39q24 12 45 33.5t26 48.5q-21 -2 -35 9.5t-14 36.5q1 29 17.5 49t46.5 20q25 0 37.5 -15t12.5 -42q0 -30 -9 -58.5t-24.5 -52.5t-37 -42t-45.5 -26z" />
<glyph horiz-adv-x="557" d="M52 0zM254 -13q-100 0 -151 60t-51 185q0 27 2.5 56.5t7.5 62.5q14 97 39 165.5t62 112t85.5 64t110.5 20.5q88 0 133 -42t54 -139l-96 -29q-8 69 -33 93t-70 24q-33 0 -60.5 -12.5t-50 -43.5t-40.5 -83t-30 -130q-5 -37 -7.5 -67.5t-2.5 -56.5q0 -85 28 -118.5t79 -33.5 q26 0 50 10.5t44 34t35 61t23 92.5h-118l14 86h219l-11 -70q-23 -148 -88 -225t-177 -77zM321 838q0 33 17 52.5t49 19.5q26 0 38.5 -13.5t12.5 -37.5q0 -34 -17.5 -53t-49.5 -19q-26 0 -38 13.5t-12 37.5z" />
<glyph horiz-adv-x="512" d="M32 0zM347 0l-147 339l2 5l249 356h119l-258 -353l158 -347h-123zM32 0l111 700h104l-110 -700h-105zM166 -297l-20 39q24 12 45 33.5t26 48.5q-21 -2 -35 9.5t-14 36.5q1 29 17.5 49t46.5 20q25 0 37.5 -15t12.5 -42q0 -30 -9 -58.5t-24.5 -52.5t-37 -42t-45.5 -26z" />
<glyph horiz-adv-x="347" d="M330 397l-13 -88h-270l14 88h269z" />
<glyph horiz-adv-x="439" d="M424 397l-14 -88h-363l14 88h363z" />
<glyph horiz-adv-x="587" d="M572 397l-14 -88h-511l14 88h511z" />
<glyph horiz-adv-x="439" d="M424 397l-14 -88h-363l14 88h363z" />
<glyph horiz-adv-x="217" d="M231 700l-111 -700h-101l111 700h101z" />
<glyph horiz-adv-x="494" d="M299 407h-98l-63 -407h-101l64 407h-62l14 84h62l11 62q6 43 21.5 75t37 53t48 31.5t56.5 10.5q21 0 41.5 -5.5t35.5 -16.5l-37 -82q-18 12 -40 12t-40 -17.5t-25 -64.5l-9 -58h97zM513 700l-111 -700h-101l111 700h101z" />
<glyph horiz-adv-x="494" d="M0 0z" />
</font>
</defs>
</svg>
